osu file format v6

[General]
AudioFilename: l4dj.mp3
AudioLeadIn: 0
PreviewTime: -1
Countdown: 1
SampleSet: None
StackLeniency: 0.7
Mode: 0
LetterboxInBreaks: 1

[Editor]
DistanceSpacing: 0.800000011920929
BeatDivisor: 4
GridSize: 8

[Metadata]
Title:L4Dj - Left 4 DeeJay -
Artist:56ppe
Creator:mine563
Version:
Source:
Tags:

[Difficulty]
HPDrainRate:5
CircleSize:5
OverallDifficulty:5
SliderMultiplier:0.6
SliderTickRate:1

[Events]
//Background and Video events
0,0,"L4Ddagasi.png"
//Break Periods
//Storyboard Layer 0 (Background)
//Storyboard Layer 1 (Fail)
//Storyboard Layer 2 (Pass)
//Storyboard Layer 3 (Foreground)
//Storyboard Sound Samples
//Background Colour Transformations
3,100,0,0,0

[TimingPoints]
0,1000,4,0,0,100,1,0

[HitObjects]
144,72,3898,1,0
152,160,6497,5,0
232,216,8433,1,0
344,96,9753,1,0
352,264,11073,1,0
168,288,12365,1,0
352,280,13673,1,0
400,176,14960,1,0
328,88,16881,5,0
400,144,17537,1,0
224,184,18847,1,0
336,256,20128,1,0
160,288,21428,1,0
120,176,22680,1,0
152,96,24068,1,0
248,64,25312,1,0
328,104,26617,1,0
256,192,27100,12,0,28550
136,104,29215,5,8
328,88,30515,1,8
440,248,31850,1,8
176,256,33083,1,8
160,96,34424,5,8
256,176,35704,1,8
368,272,36980,1,8
256,192,37631,12,8,38754
160,176,40589,5,8
208,176,40851,1,8
256,176,41189,1,8
256,176,41351,1,8
256,248,43157,1,10
320,232,43489,1,10
376,232,43821,1,10
416,232,44001,1,10
336,80,45709,1,10
272,80,46026,1,10
208,80,46393,1,10
160,80,46573,1,10
200,264,48361,1,10
264,264,48686,1,10
320,264,49017,1,10
376,264,49189,1,10
88,96,50906,1,10
96,160,51217,1,10
88,208,51576,1,10
96,240,51725,1,10
184,96,53506,5,10
224,96,53832,1,10
280,96,54161,1,10
320,96,54324,1,10
152,224,56099,5,0
192,248,56421,1,0
248,264,56755,1,0
288,272,56925,1,0
384,152,58740,1,0
416,184,59049,1,0
456,232,59369,1,0
127,92,62935,1,4
176,191,64904,5,2
256,192,66841,5,4
262,111,68104,1,2
334,146,69388,1,2
407,224,70700,1,2
377,111,71969,1,2
111,283,73289,1,2
461,287,74601,1,2
156,70,75941,1,2
428,77,77228,1,2
257,192,78512,1,2
395,110,79787,5,2
378,274,81090,1,2
107,101,82397,1,2
197,286,83697,1,2
371,176,84986,1,2
444,282,86296,1,2
179,268,87584,1,2
417,87,88844,5,2
268,91,89497,1,2
102,90,90188,1,2
114,222,91508,5,2
429,222,92796,1,2
256,161,94080,1,2
88,329,95380,1,2
460,324,96660,1,2
140,52,97920,1,2
417,51,99267,1,2
158,282,100580,1,2
447,282,101852,1,2
268,191,103137,1,2
85,191,104477,1,2
450,176,105737,1,2
115,61,107072,1,2
426,80,108341,1,2
257,195,110311,5,10
257,195,110616,1,10
257,195,110936,1,10
257,195,111252,1,10
257,195,111384,1,10
328,88,112242,1,2
128,88,113491,1,2
120,272,114818,1,2
424,272,116118,1,2
264,336,117390,1,2
8,240,118686,1,2
432,56,120006,1,2
216,192,121324,5,14
216,192,121496,1,14
256,192,121660,1,14
256,192,121808,1,14
