osu file format v9

[General]
AudioFilename: Over Sky Type-12.mp3
AudioLeadIn: 0
PreviewTime: 60595
Countdown: 0
SampleSet: Normal
StackLeniency: 0.5
Mode: 0
LetterboxInBreaks: 1

[Editor]
DistanceSpacing: 1.2
BeatDivisor: 4
GridSize: 8

[Metadata]
Title:Over Sky
Artist:501st Joint Fighter Wing
Creator:yongtw123
Version:Hard
Source:STRIKE WITCHES 2
Tags:Fukuen Misato Seto Saori Tanaka Rie Sawashiro Miyuki Nazuka Kaori Nogawa Sakura Sonozaki Mie Saitou Chiwa Koshimizu Ami Kadowaki Mai Oohashi Ayuru

[Difficulty]
HPDrainRate:4
CircleSize:4
OverallDifficulty:5
ApproachRate:6
SliderMultiplier:1
SliderTickRate:1

[Events]
//Background and Video events
0,0,"bg.png"
//Break Periods
2,16688,24009
2,89545,96866
2,162402,169188
2,182402,189723
2,205438,208295
//Storyboard Layer 0 (Background)
//Storyboard Layer 1 (Fail)
//Storyboard Layer 2 (Pass)
//Storyboard Layer 3 (Foreground)
//Storyboard Sound Samples
//Background Colour Transformations
3,100,163,162,255

[TimingPoints]
774,357.142857142857,4,1,0,60,1,0
2381,-100,4,2,0,60,0,0
10595,-76.9230769230769,4,1,0,50,0,0
12470,-76.9230769230769,4,2,0,50,0,0
13274,-76.9230769230769,4,1,0,40,0,0
13631,-76.9230769230769,4,1,0,47,0,0
16488,-76.9230769230769,4,2,0,0,0,0
24881,-76.9230769230769,4,1,1,40,0,0
45506,-76.9230769230769,4,1,1,30,0,0
45685,-76.9230769230769,4,1,1,40,0,0
85417,-76.9230769230769,4,2,1,50,0,0
86488,-76.9230769230769,4,1,1,40,0,0
89345,-76.9230769230769,4,1,0,0,0,0
97738,-76.9230769230769,4,1,1,40,0,0
158274,-76.9230769230769,4,2,1,50,0,0
159345,-76.9230769230769,4,1,1,40,0,0
162203,-76.9230769230769,4,1,0,0,0,0
170060,-76.9230769230769,4,2,0,40,0,0
170595,-76.9230769230769,4,1,1,40,0,0
179078,-76.9230769230769,4,1,0,40,0,0
193095,-76.9230769230769,4,1,1,40,0,0
199167,-76.9230769230769,4,1,2,40,0,0
205238,-76.9230769230769,4,1,0,0,0,0
208988,-100,4,2,0,60,0,0
214970,-76.9230769230769,4,2,0,60,0,0
220417,-76.9230769230769,4,1,1,40,0,1
245060,-100,4,1,0,40,0,0
245417,-100,4,2,0,50,0,0
246488,-100,4,1,0,40,0,0
250774,-100,4,1,0,0,0,0

[Colours]
Combo1 : 240,158,38
Combo2 : 66,160,255

[HitObjects]
80,72,2023,2,0,B|136:72,1,50,0|4
128,200,2559,2,0,B|128:312,2,100,0|0|2
128,136,3452,2,0,B|232:136,2,100,0|2|2
384,136,4881,6,0,B|384:192,3,50,0|2|0|0
384,248,5595,2,0,B|280:248,2,100,2|0|2
120,248,7024,6,0,B|56:248,2,50,0|0|2
184,248,7559,1,0
320,248,7916,2,0,B|320:296|288:320,2,75,4|0|0
320,176,8631,1,0
440,248,8988,1,2
440,248,9345,2,0,B|440:296|472:320,2,75,4|0|0
432,176,10059,1,0
320,88,10416,1,2
200,176,10774,6,0,B|96:176,2,97.4999982565642
200,248,11488,2,0,B|96:248,2,97.4999982565642
272,248,12202,2,0,B|408:248,1,129.999997675419
272,320,12916,6,0,B|408:320,2,129.999997675419,0|4|4
256,192,13988,8,0,16488
192,304,25059,6,0,B|48:304,2,129.999997675419
320,304,26131,2,0,B|456:304,2,129.999997675419
256,192,27202,1,0
320,80,27559,1,2
256,64,27738,1,0
192,80,27916,1,0
64,128,28273,6,0,B|64:264,1,129.999997675419
160,336,28988,1,0
160,336,29166,2,0,B|128:272|160:208,1,129.999997675419
216,184,29702,1,0
274,212,29881,2,0,B|306:268|272:344,1,129.999997675419
336,368,30416,1,2
336,368,30595,1,0
384,320,30773,6,0,B|520:320,1,129.999997675419
512,192,31488,2,0,B|448:160|384:192,1,129.999997675419
336,224,32023,1,0
280,256,32202,2,0,B|216:288|152:256,2,129.999997675419
280,128,33273,6,0,B|360:128,2,64.9999988377094,2|0|0
152,184,33988,2,0,B|88:160|24:184,2,129.999997675419
152,249,34881,2,0,B|152:112,2,129.999997675419
280,192,35952,1,0
280,192,36131,2,0,B|280:328,1,129.999997675419,0|4
384,232,36845,6,0,B|448:264|512:232,1,129.999997675419
448,112,37559,1,2
448,112,37738,2,0,B|384:88|320:112,1,129.999997675419
264,136,38274,2,0,B|200:160|136:136,2,129.999997675419,0|0|2
272,264,39345,1,0
160,336,39702,5,0
160,336,39881,1,0
160,336,40059,2,0,B|24:336,1,129.999997675419,0|2
80,208,40774,2,0,B|216:208,2,129.999997675419
80,144,41666,1,0
80,80,41845,2,0,B|8:80,2,64.9999988377094,2|0|0
208,56,42559,5,0
336,80,42916,1,0
464,56,43274,1,2
464,120,43452,1,0
464,184,43631,2,0,B|456:240|488:280,2,97.4999982565642
400,200,44345,2,0,B|264:200,1,129.999997675419,0|2
152,136,45059,6,0,B|120:200|152:264,1,129.999997675419
168,320,45595,2,0,B|32:320,2,129.999997675419,4|0|0
296,320,46666,1,0
296,320,46845,1,0
64,96,47738,5,0
64,96,47916,2,0,B|128:80|192:96,1,129.999997675419,4|0
272,200,48631,2,0,B|208:224|144:200,2,129.999997675419,0|8|0
352,96,49702,1,0
352,96,50059,1,0
432,200,50416,2,0,B|504:200,2,64.9999988377094,8|0|0
352,304,51131,5,0
352,304,51488,1,0
224,304,51845,1,8
224,304,52024,1,0
224,304,52202,2,0,B|80:304,1,129.999997675419
32,336,52738,2,0,B|-8:272|32:208,1,129.999997675419
72,160,53274,2,0,B|104:96|72:32,1,129.999997675419,8|0
184,96,53988,5,0
184,96,54166,1,4
248,208,54524,1,0
264,80,54881,1,0
176,176,55238,1,0
176,176,55416,1,0
304,152,55774,2,0,B|440:152,1,129.999997675419,0|8
480,200,56309,5,0
440,256,56488,2,0,B|296:256,1,129.999997675419
288,320,57024,2,0,B|152:320,1,129.999997675419
96,320,57559,1,0
32,320,57738,2,0,B|0:256|32:184,1,129.999997675419
48,136,58274,1,0
80,80,58452,2,0,B|224:80,2,129.999997675419
256,192,59345,8,2,60416
352,312,60774,6,0,B|416:336|488:312,2,129.999997675419
352,184,61845,1,8
352,184,62024,2,0,B|288:160|224:184,1,129.999997675419
160,200,62559,2,0,B|160:128,2,64.9999988377094
160,328,63274,1,8
160,328,63452,6,0,B|232:328,2,64.9999988377094
96,328,63988,1,0
32,328,64166,1,0
32,200,64524,2,0,B|32:128,2,64.9999988377094,0|8|0
96,216,65059,2,0,B|160:240|232:216,1,129.999997675419,0|8
280,192,65595,5,0
336,168,65774,2,0,B|400:144|472:168,2,129.999997675419,0|8|0
360,296,66845,1,8
360,296,67024,2,0,B|296:320|232:296,1,129.999997675419
168,296,67559,1,8
104,296,67738,1,0
40,296,67916,6,0,B|8:232|40:160,1,129.999997675419,0|8
160,208,68631,2,0,B|192:152|160:80,1,129.999997675419,0|8
224,56,69166,1,0
288,80,69345,2,0,B|264:152|296:208,2,129.999997675419,0|8|0
416,80,70416,1,8
416,208,70774,6,0,B|520:208,2,97.4999982565642
416,272,71488,2,0,B|272:272,1,129.999997675419,0|8
152,272,72202,1,0
152,272,72559,1,8
152,272,72916,2,0,B|184:208|152:144,1,129.999997675419
120,96,73452,6,0,B|256:96,1,129.999997675419,4|0
312,72,73988,1,0
368,104,74166,2,0,B|344:168|376:232,1,129.999997675419,4|0
400,288,74702,1,8
424,344,74881,1,0
424,344,75059,6,0,B|288:344,1,129.999997675419
232,344,75595,1,0
232,344,75952,1,0
200,288,76131,1,0
176,232,76309,1,0
392,88,77024,6,0,B|472:88,2,64.9999988377094
328,88,77559,1,0
200,88,77916,2,0,B|136:64|72:88,2,129.999997675419,4|0|0
256,200,78988,1,8
320,312,79345,2,0,B|384:336|448:312,2,129.999997675419,0|0|0
200,256,80416,5,8
200,256,80774,2,0,B|197:306|197:306|166:340,2,97.4999982565642
168,200,81488,2,0,B|116:198|116:198|76:158,2,97.4999982565642,0|0|0
144,136,82202,1,0
144,136,82559,1,0
264,96,82916,1,0
264,96,83274,1,8
384,136,83631,6,0,B|400:88|400:88|440:64,2,97.4999982565642
424,184,84345,2,0,B|464:216|464:216|472:272,2,97.4999982565642
360,192,85059,1,0
128,304,85774,5,0
232,224,86131,1,0
112,176,86488,1,0
256,192,86666,8,0,89345
192,88,97916,6,0,B|128:64|56:88,2,129.999997675419,4|0|0
320,136,98988,2,0,B|392:160|464:136,2,129.999997675419,2|0|0
320,72,99881,2,0,B|320:208,1,129.999997675419
320,264,100416,2,0,B|320:328,2,64.9999988377094,2|0|0
192,264,101131,6,0,B|224:200|192:128,1,129.999997675419
72,96,101845,1,2
72,96,102023,2,0,B|40:152|72:224,1,129.999997675419
64,288,102559,1,0
128,264,102738,2,0,B|264:264,1,129.999997675419
320,264,103273,1,2
384,264,103452,1,0
424,320,103631,6,0,B|464:288|464:240|424:200,1,129.999997675419
464,80,104345,2,0,B|320:80,1,129.999997675419,0|2
280,48,104881,1,0
224,80,105059,2,0,B|160:104|96:80,2,129.999997675419
232,208,106131,5,2
232,208,106309,1,0
232,208,106488,2,0,B|264:272|232:344,1,129.999997675419
176,304,107023,2,0,B|40:304,2,129.999997675419
136,184,108095,1,0
232,88,108452,1,0
320,184,108809,1,4
384,184,108988,1,0
448,184,109166,2,0,B|448:224,2,32.4999994188547,0|0|4
448,312,109702,6,0,B|304:312,1,129.999997675419
192,344,110416,1,2
192,344,110595,2,0,B|160:280|192:216,1,129.999997675419
232,168,111131,2,0,B|264:104|232:40,2,129.999997675419,0|0|2
104,168,112202,1,0
104,296,112559,6,0,B|32:296,2,64.9999988377094
168,296,113095,2,0,B|168:360,2,64.9999988377094,0|2|0
296,264,113809,1,0
232,248,113988,1,0
168,232,114166,1,0
232,120,114523,1,0
296,104,114702,1,2
360,88,114881,1,0
424,72,115059,6,0,B|424:208,1,129.999997675419,0|0
360,312,115773,1,0
240,256,116131,2,0,B|160:256,2,64.9999988377094,2|0|0
344,176,116845,1,0
344,48,117202,1,0
240,120,117559,1,2
240,120,117738,5,0
240,120,117916,2,0,B|176:152|104:120,1,129.999997675419
48,104,118452,1,4
48,104,118809,2,0,B|48:240,1,129.999997675419
48,360,119523,1,0
48,360,119702,1,0
320,192,120595,5,0
320,192,120773,2,0,B|384:168|448:192,2,129.999997675419,4|0|0
344,320,121845,1,8
288,360,122023,1,0
280,296,122202,2,0,B|136:296,1,129.999997675419
72,192,122916,2,0,B|208:192,2,129.999997675419,0|8|0
48,64,123988,5,0
8,192,124345,1,0
104,104,124702,1,8
168,88,124881,1,0
232,104,125059,2,0,B|296:136|368:104,1,129.999997675419
384,48,125595,2,0,B|344:104|368:176,1,129.999997675419
392,232,126131,6,0,B|424:296|384:360,2,129.999997675419,8|0|0
328,232,127023,1,0
272,352,127381,1,0
224,232,127738,2,0,B|88:232,1,129.999997675419,4|0
32,232,128273,1,0
224,56,128988,6,0,B|224:120,1,64.9999988377094,8|0
224,184,129345,2,0,B|288:216|368:184,1,129.999997675419
408,168,129881,1,0
448,296,130238,2,0,B|472:368,2,64.9999988377094
320,304,130952,1,0
256,328,131131,1,0
192,304,131309,1,0
256,192,131488,8,2,133273
160,312,133631,6,0,B|96:336|24:312,2,129.999997675419,0|0|0
120,184,134702,1,8
120,184,134881,2,0,B|256:184,1,129.999997675419
312,184,135416,2,0,B|312:256,2,64.9999988377094,0|0|0
312,56,136131,1,8
376,56,136309,5,0
440,56,136488,2,0,B|472:120|440:184,1,129.999997675419,0|0
416,240,137023,2,0,B|352:208|288:240,1,129.999997675419
232,256,137559,2,0,B|240:320,1,64.9999988377094,8|0
184,344,137916,6,0,B|120:368|56:344,2,129.999997675419,0|8|0
176,280,138809,1,0
160,216,138988,1,8
96,208,139166,1,0
32,200,139345,2,0,B|0:136|40:72,1,129.999997675419,0|8
152,144,140059,6,0,B|184:208|144:272,1,129.999997675419,0|8
208,296,140595,1,0
272,272,140773,2,0,B|240:208|272:128,2,129.999997675419,0|8|0
400,272,141845,2,0,B|472:272,2,64.9999988377094,8|0|0
400,144,142559,5,0
304,64,142916,1,0
200,144,143273,1,8
104,64,143631,2,0,B|-8:64,2,97.4999982565642
168,64,144345,2,0,B|200:128|160:192,1,129.999997675419,0|8
104,304,145059,5,0
104,304,145416,1,8
224,264,145773,2,0,B|288:232|352:264,1,129.999997675419,0|0
352,328,146309,2,0,B|328:248|384:200,1,129.999997675419,4|0
424,168,146845,1,0
488,184,147023,2,0,B|536:128|496:48,1,129.999997675419,4|0
440,48,147559,5,8
312,48,147916,1,0
256,168,148273,1,0
256,168,148452,1,0
200,48,148809,2,0,B|128:48,2,64.9999988377094
64,264,149881,6,0,B|64:344,2,64.9999988377094
64,200,150416,2,0,B|128:176|200:200,1,129.999997675419,0|4
256,312,151131,1,0
320,200,151488,2,0,B|392:224|456:200,1,129.999997675419,0|8
368,104,152202,2,0,B|416:88|464:104,2,97.4999982565642
320,64,152916,1,0
192,64,153273,6,0,B|48:64,2,129.999997675419,8|0|0
192,128,154166,1,0
192,192,154345,2,0,B|336:192,2,129.999997675419,0|8|0
80,264,155416,1,8
192,328,155773,2,0,B|256:304|320:328,1,129.999997675419,0|8
400,224,156488,6,0,B|448:208|448:208|472:168,2,97.4999982565642
352,184,157202,2,0,B|320:144|320:144|264:136,2,97.4999982565642
344,248,157916,1,4
96,320,158631,5,0
240,264,158988,1,0
120,168,159345,1,4
256,192,159702,8,0,162202
56,80,170238,6,4,B|128:80,1,64.9999988377094
120,208,170773,6,0,B|88:272|128:344,1,129.999997675419,0|2
232,256,171488,2,0,B|264:192|232:128,1,129.999997675419,0|2
336,56,172202,2,0,B|480:56,1,129.999997675419,0|2
464,120,172738,1,0
464,184,172916,2,0,B|464:248,2,64.9999988377094,0|0|2
336,184,173631,6,0,B|368:248|336:312,1,129.999997675419,0|2
216,272,174345,2,0,B|136:272,2,64.9999988377094,0|0|2
216,208,174881,2,0,B|176:144|216:80,1,129.999997675419
152,56,175416,1,2
152,56,175595,2,0,B|16:56,1,129.999997675419
24,120,176131,2,0,B|24:256,1,129.999997675419,2|4
136,320,176845,6,0,B|104:256|136:192,2,129.999997675419,0|0|2
248,256,177916,2,0,B|280:192|248:128,2,129.999997675419
248,320,178809,1,0
312,320,178988,1,2
376,320,179166,6,0,B|376:120,1,194.999996513128,4|0
441,125,179881,2,0,B|241:125,1,194.999996513128
246,59,180595,2,0,B|246:259,1,194.999996513128,4|0
311,254,181309,2,0,B|103:254,1,194.999996513128,4|0
23,161,182202,5,4
56,88,190773,6,0,B|184:32|312:88,1,259.999995350838
456,296,192202,6,0,B|328:352|200:296,1,259.999995350838
72,296,193273,1,8
72,232,193452,1,8
72,168,193631,6,0,B|208:168,1,129.999997675419
120,64,194345,2,0,B|256:64,1,129.999997675419
328,168,195059,1,0
400,64,195416,1,8
472,168,195773,1,0
400,280,196131,6,0,B|400:352,2,64.9999988377094
272,280,196845,1,8
272,280,197023,2,0,B|208:312|144:280,1,129.999997675419
104,232,197559,2,0,B|40:232,2,64.9999988377094
104,104,198273,1,8
232,104,198631,6,0,B|376:104,1,129.999997675419
464,192,199345,2,0,B|416:344|264:344,1,259.999995350838,4|0
48,192,200773,2,0,B|96:40|248:40,1,259.999995350838,4|0
368,56,201845,1,0
488,104,202202,1,4
256,192,202559,8,0,205238
160,304,209345,6,0,B|48:304,2,100,2|0|2
264,304,210416,1,0
264,304,210595,2,0,B|296:256|264:208,1,100,2|0
240,168,211131,1,0
200,136,211309,1,2
392,72,212023,5,0
392,72,212202,2,0,B|392:160|472:192,1,150,2|0
464,288,213095,1,0
376,344,213452,1,2
176,344,214166,5,0
176,344,214345,2,0,B|176:240,1,100,0|0
80,152,215059,6,0,B|168:104|272:152,1,194.999996513128,4|0
320,192,215773,2,0,B|384:224|448:200,2,129.999997675419,0|0|4
56,192,217202,1,4
256,192,217916,8,2,220416
328,288,220773,6,0,B|360:224|328:160,1,129.999997675419,0|0
184,104,221488,2,0,B|152:168|184:232,1,129.999997675419,0|8
152,300,222023,2,0,B|80:284|24:332,2,129.999997675419
224,332,222916,1,0
224,332,223273,1,8
280,276,223452,6,0,B|368:276,2,64.9999988377094
252,204,223988,1,0
272,128,224166,2,0,B|408:128,2,129.999997675419
240,56,225059,6,0,B|104:56,1,129.999997675419,0|8
40,96,225595,1,0
96,152,225773,1,0
40,208,225952,1,8
96,264,226131,1,0
152,320,226309,1,0
152,320,226488,2,0,B|288:320,1,129.999997675419,0|8
408,224,227202,6,0,B|272:224,1,129.999997675419,0|8
208,248,227738,1,0
224,176,227916,2,0,B|88:176,2,129.999997675419,0|8|0
328,64,228988,1,8
384,120,229166,1,0
440,176,229345,6,0,B|472:240|440:304,1,129.999997675419,0|8
296,360,230059,2,0,B|256:296|296:232,1,129.999997675419,0|8
192,120,230773,2,0,B|80:120,2,97.4999982565642
192,200,231488,2,0,B|192:344,1,129.999997675419,0|8
40,296,232202,6,0,B|40:160,2,129.999997675419,4|8|0
192,248,233273,1,0
248,304,233452,2,0,B|296:352|368:336,1,129.999997675419,4|0
440,304,233988,1,0
472,232,234166,2,0,B|472:96,1,129.999997675419,4|0
424,40,234702,1,8
280,96,235059,6,0,B|144:96,1,129.999997675419,0|8
72,96,235595,2,0,B|72:240,2,129.999997675419
296,312,237023,6,0,B|360:312,2,64.9999988377094
224,336,237559,2,0,B|184:272|224:208,1,129.999997675419,0|4
296,80,238273,1,0
152,136,238631,1,0
304,168,238988,1,8
200,48,239345,2,0,B|88:48,2,97.4999982565642
232,120,240059,1,0
384,152,240416,5,8
384,152,240773,2,0,B|432:168|432:168|456:216,2,97.4999982565642
376,232,241488,2,0,B|384:288|384:288|352:328,2,97.4999982565642,4|0|4
312,184,242202,2,0,B|168:184,1,129.999997675419,0|8
24,184,242916,1,0
24,184,243273,1,8
176,232,243631,6,0,B|175:291|175:291|152:336,2,97.4999982565642
176,152,244345,2,0,B|176:88|176:88|200:48,2,97.4999982565642
248,192,245059,1,0
464,192,245773,6,0,B|352:192,2,100,0|0|4
256,192,246666,8,0,250773
