osu file format v9

[General]
AudioFilename: 4minute.mp3
AudioLeadIn: 0
PreviewTime: 19100
Countdown: 1
SampleSet: Soft
StackLeniency: 0.4
Mode: 0
LetterboxInBreaks: 1

[Editor]
Bookmarks: 11646,17974,34146,37896,41646,45396,79146,109146
DistanceSpacing: 1.2
BeatDivisor: 4
GridSize: 8

[Metadata]
Title:Hot Issue
Artist:4minute
Creator:Wiinter
Version:cesc
Source:
Tags:k-pop _llkey_18 dragvon cesc

[Difficulty]
HPDrainRate:3
CircleSize:3
OverallDifficulty:3
ApproachRate:3
SliderMultiplier:1.4
SliderTickRate:1

[Events]
//Background and Video events
0,0,"032067.jpg"
//Break Periods
//Storyboard Layer 0 (Background)
//Storyboard Layer 1 (Fail)
//Storyboard Layer 2 (Pass)
//Storyboard Layer 3 (Foreground)
//Storyboard Sound Samples
//Background Colour Transformations
3,100,163,162,255

[TimingPoints]
11646,468.75,4,2,0,75,1,0
17974,-100,4,1,0,55,0,0
19146,-100,4,1,0,55,0,1
33677,-100,4,1,0,55,0,0
52192,-100,4,1,0,15,0,0
52661,-100,4,1,0,55,0,0
55942,-100,4,1,0,15,0,0
56411,-100,4,1,0,55,0,0
79146,-100,4,1,0,55,0,1
93677,-100,4,1,0,55,0,0

[Colours]
Combo1 : 148,40,255
Combo2 : 255,83,169
Combo3 : 0,105,210

[HitObjects]
128,80,11646,2,0,B|241:182|296:-56|400:88|400:88,1,280,4|4
472,192,13052,2,0,B|336:224|336:224,1,140,8|0
256,232,13755,1,0
176,224,13989,2,0,B|40:192,1,140,8|0
384,80,15396,6,0,B|271:182|216:-56|112:88|112:88,1,280,4|4
40,192,16802,2,0,B|176:226|176:226,1,140,8|8
256,232,17505,1,8
336,224,17739,2,0,B|336:225|472:191,1,140,8|2
480,112,18442,1,2
480,112,18677,5,2
336,112,19146,2,0,B|256:112|184:96|184:96,1,140,12|0
176,72,19849,2,0,B|176:152|160:216|160:216,1,140,8|0
144,240,20552,2,0,B|216:272|288:264|288:264,1,140,8|4
424,256,21489,1,4
472,120,21958,1,4
472,120,22427,5,6
336,128,22896,6,0,B|392:65|331:7|331:7,2,105,8|0|0
280,72,23833,2,0,B|209:45|136:72|136:72,1,140,8|0
64,88,24536,1,0
24,160,24771,5,8
176,200,25239,1,8
328,216,25708,1,12
400,248,25942,1,2
480,232,26177,6,0,B|448:160|488:96|488:96,2,140,2|0|2
512,304,27349,2,2,B|424:376|304:328|304:328,1,210,2|0
256,272,28286,1,0
199,330,28521,2,2,B|208:328|88:376|0:304,1,210,2|0
136,232,29692,6,2,B|160:200|152:160|152:160,2,70
72,184,30396,2,0,B|70:90|129:65|209:68|224:136|224:136,1,210,8|0
232,192,31333,2,0,B|304:184|368:168|368:168,1,140,8|0
256,192,32271,8,4,33677
216,152,34146,5,12
296,152,37896,1,12
296,232,41646,1,12
216,232,45396,2,2,B|224:280|208:328|208:328,6,70
120,136,47271,5,8
256,120,47739,1,8
392,136,48208,1,8
424,96,48442,2,4,B|432:168|432:168,1,70,8|12
440,304,49146,6,0,B|360:320|248:320|160:304|160:304,1,280,4|0
32,256,50552,1,8
88,128,51021,1,0
216,176,51489,1,8
344,112,51958,1,0
344,112,52427,6,0,B|368:160|319:217|352:264|352:264,1,140,0|4
368,328,53130,2,0,B|264:344|160:328|160:328,2,210,8|0|0
448,304,54771,1,8
464,136,55239,1,0
296,104,55708,1,0
296,104,56177,6,0,B|216:112|136:80|136:80,1,140,0|4
80,48,56880,1,8
64,192,57349,2,0,B|64:232|56:272|56:272,1,70,0|8
136,280,57817,2,0,B|152:232|144:184|144:184,1,70,0|8
224,232,58286,2,0,B|328:368|472:272|472:272,2,280,8|0|8
176,160,60396,6,0,B|136:96|64:56|64:56,2,140
296,48,61802,1,8
424,152,62271,1,8
344,304,62739,1,8
176,296,63208,1,0
176,296,63442,1,0
176,296,63677,6,0,B|144:224|208:224|176:160|176:160,1,140,0|4
32,72,64614,1,0
200,48,65083,1,0
344,136,65552,1,8
344,136,65786,1,0
344,136,66021,2,0,B|424:120|472:56|472:56,2,140,0|8|0
184,192,67427,5,8
240,256,67661,1,0
160,272,67896,2,0,B|105:334|32:288|32:288,2,140,0|8|0
328,264,69302,1,8
408,280,69536,1,0
472,224,69771,2,0,B|480:152|472:80|472:80,2,140,0|8|0
392,72,71177,5,8
312,80,71411,1,0
232,56,71646,2,0,B|152:64|64:56|64:56,2,140,0|8|0
120,184,73052,2,2,B|216:184|216:184,1,70
256,136,73521,1,2
344,280,73989,1,8
168,280,74458,1,0
256,136,74927,5,2
328,184,75161,2,2,B|368:104|312:8|192:8|125:97|185:190|185:190,1,350,10|2
424,312,77271,1,14
256,312,77739,1,14
88,312,78208,1,14
336,88,79146,6,0,B|280:99|232:63|183:1|256:-6|332:0|274:66|241:105|169:92|169:92,1,280,8|0
88,64,80317,1,0
104,144,80552,1,8
256,208,81021,2,0,B|256:352|256:352,2,140
408,144,82427,5,2
424,64,82662,1,0
343,91,82896,2,0,B|343:92|271:105|238:66|180:0|256:-6|329:1|280:63|232:99|176:88,1,280,8|0
40,192,84302,1,0
168,304,84771,5,8
256,160,85239,1,8
344,304,85708,1,8
472,192,86177,1,2
472,192,86411,1,0
472,192,86646,6,2,B|432:16|256:80|256:80,2,280
328,272,88989,2,2,B|256:280|176:272|176:272,1,140,8|0
40,192,89927,1,2
40,192,90161,1,0
40,192,90396,2,2,B|80:16|256:80|256:80,2,280
216,152,92739,5,2
296,152,92974,1,8
256,80,93208,2,2,B|256:240|256:240,1,140,8|4
104,288,94146,5,8
256,352,94614,1,8
408,288,95083,1,8
256,216,95552,2,0,B|168:192|120:120|120:120,2,140,2|2|8
224,136,96724,5,0
176,64,96958,1,0
256,32,97192,1,0
304,104,97427,1,8
408,288,97896,5,8
256,352,98364,1,8
104,288,98833,1,8
256,216,99302,2,0,B|344:192|392:120|392:120,2,140,2|2|8
288,136,100474,5,0
336,64,100708,1,0
256,32,100942,1,0
208,104,101177,1,8
376,144,101646,5,8
344,312,102114,1,8
168,312,102583,1,8
136,144,103052,2,0,B|128:64|56:32|56:32,2,140,2|2|8
256,32,104458,1,2
240,112,104692,6,8,B|320:112|320:112,2,70
272,192,105396,2,0,B|192:192|192:192,2,70,4|0|0
248,272,106099,2,0,B|328:272|328:272,2,70,4|0|0
272,352,106802,2,0,B|200:352|200:352,2,70,4|0|0
256,192,107505,12,4,108677
256,192,109146,12,4,111021
