osu file format v9

[General]
AudioFilename: 4minute.mp3
AudioLeadIn: 0
PreviewTime: 19100
Countdown: 1
SampleSet: Soft
StackLeniency: 0.7
Mode: 0
LetterboxInBreaks: 1

[Editor]
DistanceSpacing: 1
BeatDivisor: 4
GridSize: 8

[Metadata]
Title:Hot Issue
Artist:4minute
Creator:Wiinter
Version:Wiinter
Source:
Tags:k-pop _llkey_18 dragvon cesc

[Difficulty]
HPDrainRate:5
CircleSize:4
OverallDifficulty:7
ApproachRate:7
SliderMultiplier:1.6
SliderTickRate:1

[Events]
//Background and Video events
0,0,"032067.jpg"
//Break Periods
2,108877,110121
2,155752,156996
//Storyboard Layer 0 (Background)
//Storyboard Layer 1 (Fail)
//Storyboard Layer 2 (Pass)
//Storyboard Layer 3 (Foreground)
//Storyboard Sound Samples
//Background Colour Transformations
3,100,163,162,255

[TimingPoints]
11646,468.75,4,2,0,81,1,0
95903,-133.333333333333,4,2,0,80,0,0
96606,-100,4,2,0,79,0,0
99653,-133.333333333333,4,2,0,81,0,0
100356,-100,4,2,0,79,0,0
189653,-133.333333333333,4,2,0,80,0,0
190356,-100,4,2,0,80,0,0
193403,-133.333333333333,4,2,0,80,0,0
194106,-100,4,2,0,80,0,0
204419,-100,4,2,0,0,0,0

[Colours]
Combo1 : 148,40,255
Combo2 : 255,83,169
Combo3 : 0,105,210

[HitObjects]
96,56,19146,1,0
176,56,19380,2,0,B|264:56,1,80,0|8
288,128,19849,1,0
368,128,20083,2,0,B|448:128,1,80
440,208,20552,1,8
360,208,20786,1,0
256,280,21021,5,8
408,72,21489,1,8
160,72,21958,1,8
256,312,22427,1,8
448,120,22896,5,0
384,176,23130,1,0
328,232,23364,2,0,B|248:232,1,80,8|0
192,176,23833,2,0,B|256:88,1,80
304,64,24302,2,0,B|392:64,1,80,8|0
456,152,24771,5,0
456,152,25005,1,0
456,152,25239,2,8,B|456:32|456:56|456:56,2,80,8|8|0
376,152,25942,5,2
376,232,26177,1,8
296,152,26411,1,2
296,232,26646,1,0
136,304,27114,1,8
192,248,27349,1,0
112,232,27583,5,0
80,160,27817,1,0
144,112,28052,2,0,B|144:48|224:48,1,80,8|0
232,120,28521,1,0
312,112,28755,2,0,B|322:123|312:48|232:48,1,80,0|8
232,120,29224,1,0
80,80,29692,5,2
104,160,29927,1,8
184,160,30161,1,2
272,160,30396,2,0,B|360:160,1,80
353,160,30864,2,0,B|425:104,1,80,8|0
495,111,31333,2,0,B|383:111,1,80
382,39,31802,2,0,B|422:119,1,80,8|0
256,192,32271,8,12,33677
256,56,34146,5,6
400,136,34614,1,8
456,200,34849,2,0,B|460:195|464:224|464:264|400:264,1,80,0|0
344,264,35317,1,0
320,184,35552,1,8
192,88,36021,5,0
256,40,36255,1,0
320,88,36489,1,8
256,40,36724,1,0
256,120,36958,1,0
256,200,37192,1,0
312,256,37427,2,2,B|344:264|368:248|408:256,1,80,8|0
408,96,37896,5,4
216,80,38364,1,8
136,80,38599,1,0
136,160,38833,1,0
216,160,39067,1,0
216,80,39302,1,8
280,224,39771,6,0,B|384:224,1,80
440,224,40239,1,8
440,144,40474,2,0,B|344:144,1,80,0|0
280,144,40942,1,0
280,64,41177,2,0,B|384:64,1,80,8|0
256,192,41646,5,4
400,264,42114,1,8
328,304,42349,1,0
256,336,42583,1,0
184,304,42817,1,0
112,264,43052,1,8
112,104,43521,5,0
152,176,43755,1,0
192,104,43989,2,0,B|280:104,1,80,8|0
304,176,44458,1,0
352,112,44692,1,0
400,176,44927,1,8
256,192,45396,8,12,46802
152,224,47271,5,8
96,72,47739,1,8
256,56,48208,1,8
256,136,48442,1,8
256,216,48677,2,0,B|248:232|264:272|256:304,1,80
368,320,49146,5,4
464,192,49614,1,8
376,56,50083,1,0
304,200,50552,1,8
384,200,50786,1,0
304,200,51021,1,0
224,200,51255,1,0
144,200,51489,1,8
224,200,51724,1,0
264,136,51958,2,0,B|232:128|192:72|400:32|240:-16|240:-16,2,160,0|8|0
56,80,53130,6,0,B|144:80,1,80,0|8
192,136,53599,1,0
272,136,53833,1,0
352,136,54067,1,0
312,208,54302,1,8
392,208,54536,1,0
360,280,54771,6,0,B|272:280,1,80
216,240,55239,1,8
288,200,55474,1,0
224,152,55708,1,0
288,104,55942,1,2
360,136,56177,2,0,B|360:216,2,80
216,152,56880,6,0,B|160:96,1,80,0|8
216,152,57349,1,0
296,152,57583,2,0,B|352:96,1,80
296,152,58052,1,8
248,216,58286,1,0
152,88,58755,1,0
232,88,58989,1,8
312,88,59224,1,0
360,200,59458,6,0,B|312:136,1,80,0|0
184,136,59927,2,0,B|128:224,1,80,8|0
224,256,60396,2,2,B|320:256,2,80,0|0|8
56,80,61567,6,2,B|144:80,2,80,2|10|2
216,104,62271,1,0
288,120,62505,1,0
352,160,62739,2,0,B|360:200|392:256|352:328,1,160,8|2
88,144,63677,6,0,B|104:144|128:144|184:144,1,80,8|0
208,208,64146,1,0
288,208,64380,1,0
256,280,64614,1,8
336,280,64849,1,0
416,280,65083,1,0
416,200,65317,5,0
496,200,65552,1,8
496,280,65786,1,0
496,200,66021,1,0
416,200,66255,1,0
416,120,66489,1,8
496,120,66724,1,0
416,120,66958,2,2,B|416:16,3,80,0|0|8|0
112,72,67896,6,2,B|192:72,1,80
192,72,68364,1,8
192,152,68599,2,2,B|96:152,1,80,0|0
112,152,69067,1,0
112,232,69302,2,2,B|208:232,2,80,8|0|0
112,312,70005,1,0
192,312,70239,1,8
112,312,70474,1,0
112,232,70708,2,0,B|200:232,2,80,0|0|8
192,232,71411,1,0
312,144,71646,6,0,B|336:176|312:224,1,80
248,176,72114,1,8
184,224,72349,2,0,B|152:176|184:136,1,80
248,176,72817,1,0
312,144,73052,2,0,B|336:176|312:224,1,80,8|0
256,192,73521,8,8,76567
112,64,77271,5,0
400,64,77739,1,8
344,216,78208,1,0
184,216,78677,1,8
72,56,79146,5,0
176,56,79380,2,0,B|264:56,1,80
256,56,79849,1,0
256,136,80083,2,0,B|168:136,1,80
176,56,80552,1,8
256,56,80786,1,0
328,248,81021,5,0
416,112,81489,1,8
480,256,81958,1,0
344,168,82427,1,8
112,288,82896,5,0
184,248,83130,1,0
264,248,83364,1,8
344,216,83599,1,0
344,136,83833,2,0,B|248:136,1,80
264,56,84302,2,0,B|352:56,1,80,8|0
192,56,84771,5,0
112,56,85005,1,0
56,112,85239,2,0,B|56:192,2,80,8|0|0
200,208,85942,5,0
272,248,86177,1,8
352,248,86411,1,0
424,216,86646,1,0
296,128,87114,1,8
224,128,87349,1,0
152,88,87583,5,0
72,88,87817,1,0
152,168,88052,2,0,B|64:168,1,80,8|0
72,88,88521,1,0
72,88,88755,2,0,B|160:88,1,80,0|8
152,168,89224,1,0
408,96,89692,5,0
328,96,89927,1,8
248,96,90161,1,0
248,184,90396,2,0,B|224:224|248:272,1,80
320,264,90864,2,0,B|344:216|320:176,1,80,8|0
168,184,91333,2,0,B|144:224|168:272,1,80
400,264,91802,2,0,B|424:216|400:176,1,80,8|0
256,192,92271,8,8,93677
72,80,94146,5,0
176,136,94614,1,8
64,192,95083,1,0
176,136,95552,1,8
176,136,96021,2,0,B|216:120|248:144|328:136,1,120,0|8
393,139,96724,1,0
449,195,96958,1,0
393,251,97192,1,0
449,307,97427,1,8
448,80,97896,5,0
336,136,98364,1,8
448,192,98833,1,0
336,136,99302,1,8
336,136,99771,2,0,B|304:120|264:152|192:136,1,120,0|8
128,160,100474,1,0
176,224,100708,1,0
128,160,100942,1,0
176,224,101177,1,8
208,104,101646,5,0
368,104,102114,1,8
368,264,102583,1,0
208,264,103052,1,8
336,144,103521,2,0,B|363:137|347:97|299:65|219:113|267:153,1,160,0|8
256,232,104224,5,0
184,264,104458,1,0
256,232,104692,1,0
184,264,104927,1,8
112,224,105161,1,0
176,152,105396,2,0,B|280:152,1,80
256,72,105864,2,0,B|168:72,1,80,8|0
176,152,106333,2,0,B|280:152,1,80
256,72,106802,2,0,B|168:72,1,80,8|0
208,232,107271,5,0
224,152,107505,1,0
264,136,107622,1,0
304,128,107739,1,8
344,128,107856,1,0
376,152,107974,1,0
440,200,108208,1,0
472,272,108442,1,0
416,328,108677,1,8
88,80,111021,5,0
136,144,111255,1,0
184,80,111489,1,8
232,144,111724,1,0
280,80,111958,1,0
328,144,112192,1,0
376,80,112427,1,8
424,144,112661,2,0,B|488:80,1,80
496,280,113130,5,0
440,224,113364,1,8
384,280,113599,1,0
328,224,113833,1,0
272,280,114067,1,0
216,224,114302,1,8
216,224,114536,2,0,B|160:288,1,80
112,224,115005,1,0
64,288,115239,1,8
96,160,115474,5,0
168,200,115708,1,0
224,144,115942,1,0
288,200,116177,2,0,B|392:200,1,80,8|0
416,264,116646,5,0
344,304,116880,1,0
264,328,117114,1,8
192,296,117349,1,0
120,256,117583,1,0
184,216,117817,1,0
264,216,118052,2,0,B|272:200|312:192|352:232|368:216,1,80,8|0
128,72,118755,5,0
208,72,118989,1,8
288,72,119224,1,0
352,120,119458,2,0,B|352:144|352:168|352:224,3,80,0|0|8|0
424,304,120630,2,0,B|424:264|424:248|424:208,3,80,0|8|0|0
336,224,121567,1,0
336,224,121802,1,8
256,224,122036,1,0
144,112,122505,5,0
144,112,122739,1,8
224,112,122974,1,0
224,112,123208,1,0
304,112,123442,1,0
384,112,123677,1,8
304,112,123911,1,0
384,112,124146,5,0
336,264,124614,1,8
176,264,125083,1,0
120,208,125317,1,0
176,152,125552,1,8
240,208,125786,6,0,B|280:208|336:208,1,80,0|0
376,272,126255,1,0
456,272,126489,1,8
456,192,126724,1,0
376,192,126958,1,0
376,272,127192,1,0
456,272,127427,1,8
456,192,127661,1,0
456,48,127896,5,0
376,48,128130,1,0
376,128,128364,1,8
456,128,128599,1,0
376,48,128833,2,0,B|288:48,2,80,0|0|8
456,48,129536,1,0
456,128,129771,6,0,B|456:208,5,80,0|0|8|0|0|0
456,288,131177,1,8
376,288,131411,1,0
376,288,131646,1,0
296,288,131880,1,0
288,208,132114,2,0,B|200:208,3,80,8|8|0|8
120,112,133052,5,8
200,112,133286,1,0
280,112,133521,1,0
280,192,133755,1,0
200,192,133989,1,8
200,112,134224,1,0
280,112,134458,1,0
360,112,134692,1,0
360,192,134927,1,8
248,320,135161,5,0
328,296,135396,1,0
392,248,135630,1,0
424,176,135864,1,8
376,112,136099,1,0
304,80,136333,2,0,B|200:80,1,80,0|8
152,112,136802,1,8
104,176,137036,1,0
144,248,137271,1,0
208,296,137505,1,0
256,192,137739,8,8,138677
368,272,139146,5,0
64,256,139614,1,8
304,64,140083,1,0
112,80,141021,6,0,B|176:160,1,80
240,144,141489,1,8
208,216,141724,2,0,B|288:216,1,80,0|0
400,224,142192,1,0
344,280,142427,1,8
264,280,142661,1,0
208,112,142896,5,0
88,224,143364,1,8
208,328,143833,1,0
208,112,144302,1,8
384,112,144771,5,0
344,184,145005,1,0
424,184,145239,1,8
448,256,145474,2,0,B|360:256,1,80
328,328,145942,2,0,B|416:328,1,80,0|8
288,248,146411,5,0
208,248,146646,1,0
208,168,146880,2,0,B|296:168,3,80,0|8|0|0
344,248,147817,5,0
424,232,148052,1,8
384,80,148521,1,0
240,144,148989,1,8
240,224,149224,1,0
408,152,149692,5,0
408,152,149927,2,0,B|408:232,1,80,8|0
328,232,150396,1,0
328,232,150630,2,0,B|328:144,1,80,0|8
368,80,151099,1,0
248,40,151567,5,0
248,120,151802,1,8
168,120,152036,1,0
168,200,152271,2,0,B|168:288,1,80
248,280,152739,2,0,B|248:192,1,80,8|0
328,200,153208,2,0,B|416:200,1,80
408,280,153677,2,0,B|328:280,1,80,8|0
256,192,154146,8,8,155552
64,48,157896,5,0
64,88,158013,1,0
64,128,158130,1,0
144,152,158364,1,8
184,152,158481,1,0
224,152,158599,1,0
288,200,158833,1,0
328,200,158950,1,0
368,200,159067,1,0
416,264,159302,5,8
424,104,159771,5,0
384,104,159888,1,0
344,104,160005,1,0
264,104,160239,1,8
224,104,160356,1,0
184,104,160474,1,0
104,104,160708,1,0
104,144,160825,1,0
104,184,160942,1,0
168,232,161177,5,8
320,272,161646,5,0
360,272,161763,1,0
400,272,161880,1,0
440,200,162114,1,8
400,200,162231,1,0
360,200,162349,1,0
288,160,162583,1,0
248,160,162700,1,0
208,160,162817,1,0
240,232,163052,5,8
88,184,163521,5,0
88,104,163755,2,0,B|192:104,1,80,0|8
176,184,164224,2,0,B|288:184,1,80
304,128,164692,1,0
416,192,164927,1,8
304,256,165161,1,0
416,192,165396,1,0
304,128,165630,1,0
184,168,165864,2,0,B|184:272,2,80,8|0|0
432,104,166802,6,0,B|344:104,1,80,8|0
392,240,167271,2,0,B|312:240,1,80
192,272,167739,1,8
96,192,167974,1,0
192,112,168208,1,0
96,192,168442,1,0
192,272,168677,1,8
312,232,168911,2,0,B|312:152,3,80,8|0|0|8
312,232,169849,2,0,B|408:232,1,80
448,176,170317,5,0
392,120,170552,1,8
328,72,170786,1,0
248,56,171021,1,0
168,72,171255,1,0
104,120,171489,1,8
40,168,171724,1,0
104,216,171958,1,0
184,216,172192,2,0,B|272:216,2,80,0|8|0
136,112,172896,6,0,B|240:112,1,80
216,112,173364,1,8
216,112,173599,2,0,B|296:112,1,80,0|0
344,176,174067,1,0
400,232,174302,1,8
344,176,174536,1,0
400,232,174771,5,0
488,96,175239,1,8
328,96,175708,2,0,B|328:192,1,80,0|8
328,176,176177,1,8
88,160,176646,5,0
168,160,176880,1,0
168,80,177114,1,8
248,80,177349,2,0,B|248:168,3,80,8|0|0|8
328,160,178286,5,0
328,80,178521,1,0
408,80,178755,2,0,B|408:176,3,80,8|8|0|0
344,248,179692,5,0
264,264,179927,1,8
184,248,180161,1,0
184,168,180396,1,0
264,152,180630,1,0
344,168,180864,2,0,B|344:208|344:280,1,80,8|0
448,136,181567,5,0
448,216,181802,2,0,B|448:296,1,80,8|0
448,296,182271,1,0
368,296,182505,2,0,B|272:296,1,80,0|8
288,296,182974,1,0
160,200,183442,5,0
80,200,183677,1,8
80,120,183911,1,0
160,120,184146,2,0,B|256:120,1,80
240,120,184614,2,0,B|320:192,1,80,8|0
299,173,185083,2,0,B|408:176,3,80,0|0|8|0
256,192,186021,8,8,187427
72,128,187896,6,0,B|184:128,1,80
168,208,188364,2,0,B|264:208,1,80,8|0
272,128,188833,2,0,B|368:128,1,80
384,200,189302,2,0,B|480:200,1,80,8|0
384,288,189771,2,0,B|232:288,1,120,0|8
184,288,190474,1,0
104,288,190708,1,0
104,208,190942,1,0
184,208,191177,1,8
288,96,191646,6,0,B|232:176,1,80
280,232,192114,2,0,B|376:232,1,80,8|0
408,168,192583,2,0,B|360:88,1,80
328,160,193052,1,8
376,336,193521,2,0,B|320:336|256:336,1,120,0|8
256,248,194224,1,0
336,248,194458,1,0
416,248,194692,1,0
336,248,194927,1,8
192,96,195396,6,0,B|112:96,1,80
112,176,195864,2,0,B|200:176,1,80,8|0
192,96,196333,2,0,B|104:96,1,80
112,176,196802,1,8
224,288,197271,1,0
304,80,197739,5,8
384,80,197974,1,0
384,160,198208,1,0
304,160,198442,1,0
304,240,198677,1,8
224,240,198911,1,0
192,160,199146,6,0,B|80:160,3,80,0|0|8|0
112,80,200083,1,0
192,80,200317,1,0
192,160,200552,1,8
192,240,200786,1,0
256,192,201021,8,8,202427
152,112,203833,5,0
368,112,204067,1,0
256,288,204302,1,8
256,192,204419,8,8,206177
