osu file format v7

[General]
AudioFilename: 4minute - HUH.mp3
AudioLeadIn: 0
PreviewTime: 78641
Countdown: 1
SampleSet: Normal
StackLeniency: 0.2
Mode: 0
LetterboxInBreaks: 1

[Editor]
Bookmarks: 20362,73108,77165,86509,91919,110116,198641,204050,205034
DistanceSpacing: 1
BeatDivisor: 4
GridSize: 8

[Metadata]
Title:HUH
Artist:4minute
Creator:Sunny Holic
Version:Normal+
Source:
Tags:

[Difficulty]
HPDrainRate:5
CircleSize:4
OverallDifficulty:5
SliderMultiplier:1.4
SliderTickRate:2

[Events]
//Background and Video events
0,0,"HUH.jpg"
//Break Periods
2,102447,108916
2,165398,181703
//Storyboard Layer 0 (Background)
//Storyboard Layer 1 (Fail)
//Storyboard Layer 2 (Pass)
//Storyboard Layer 3 (Foreground)
//Storyboard Sound Samples
//Background Colour Transformations
3,100,163,162,255

[TimingPoints]
16182,491.803278688525,4,1,0,80,1,0
182657,-100,4,2,0,80,0,0
191079,-100,4,1,0,80,0,0

[Colours]
Combo1 : 255,255,255
Combo2 : 179,175,177
Combo3 : 94,92,103
Combo4 : 50,46,45

[HitObjects]
82,108,16181,1,4
181,207,16673,1,8
248,208,16919,2,0,L|352:208|320:272,1,140
300,300,17657,1,8
159,300,18149,1,0
77,185,18641,1,8
146,185,18886,2,0,L|249:185|231:152,1,140
204,88,19624,1,8
344,88,20116,5,4
279,212,20608,1,8
349,212,20854,2,0,L|453:212|421:276,1,140
398,302,21591,1,8
257,302,22083,1,0
216,167,22575,1,8
145,167,22821,2,0,L|41:167|73:231,1,140
95,257,23559,1,8
234,257,24050,5,4
374,257,24542,1,8
305,134,25034,1,0
445,134,25526,1,8
409,73,25772,5,0
374,133,26018,1,4
445,134,26263,1,8
409,73,26509,1,8
374,133,26755,1,0
409,193,27001,5,0
371,252,27247,1,8
335,191,27493,1,8
374,133,27739,1,0
303,133,27985,1,4
203,33,28477,5,8
133,33,28722,2,0,L|29:33|61:97,1,140
89,119,29460,1,8
229,119,29952,1,4
328,218,30444,1,12
257,218,30690,1,0
257,218,30936,1,4
328,218,31182,1,0
397,218,31427,1,12
397,77,31919,5,0
256,77,32411,1,8
156,176,32903,1,0
296,176,33395,2,0,L|184:176,1,70,8|0
193,237,33886,5,0
122,237,34132,1,8
191,115,34624,1,8
261,115,34870,1,0
401,115,35362,5,8
500,214,35854,2,0,L|452:262|372:262,1,140,0|8
239,262,36837,1,0
98,262,37329,2,0,L|178:262,1,70,8|0
203,201,37821,1,0
273,201,38067,1,8
132,201,38559,1,8
62,201,38804,1,0
100,66,39296,5,8
170,66,39542,1,0
240,66,39788,2,0,B|334:59|358:167,1,140,0|8
348,276,40772,1,0
277,276,41018,1,0
207,276,41263,1,8
242,336,41509,2,0,L|388:336,1,140
418,275,42247,1,8
451,213,42493,1,0
422,148,42739,1,0
296,209,43231,1,8
366,209,43477,1,0
330,268,43722,6,0,L|282:268|255:303|173:303,2,140,0|8|0
366,209,44952,1,0
396,144,45198,1,8
325,144,45444,1,0
255,144,45690,5,0
205,193,45936,1,8
336,146,46427,1,8
385,195,46673,1,0
285,294,47165,6,0,L|99:294,1,140,8|0
45,194,48149,1,8
144,94,48641,1,0
242,192,49132,1,8
207,252,49378,1,0
171,192,49624,1,0
206,131,49870,1,0
346,131,50362,5,0
416,131,50608,1,0
382,192,50854,1,0
416,131,51100,1,8
452,190,51345,1,0
419,252,51591,2,0,L|344:252,1,70,0|8
249,152,52329,5,0
199,102,52575,1,0
128,102,52821,1,0
57,102,53067,1,8
57,102,53313,1,0
93,161,53559,2,0,L|180:161,1,70,0|8
373,161,54542,5,0
422,111,54788,1,0
372,61,55034,1,8
322,10,55280,2,0,L|237:11|199:58,1,140
161,111,56018,1,8
259,209,56509,5,0
188,209,56755,1,0
117,209,57001,1,8
151,269,57247,2,0,L|296:269,1,140
329,209,57985,1,8
361,269,58231,1,0
399,212,58477,2,0,L|399:149|364:114|299:114,1,140,0|8
266,114,59214,1,0
195,114,59460,6,0,L|50:114,1,140,0|8
55,254,60444,2,0,L|206:254,1,140,0|8
294,154,61427,1,0
343,203,61673,1,0
293,252,61919,1,8
343,203,62165,1,0
413,203,62411,1,0
483,203,62657,1,0
483,203,62903,1,8
435,71,63395,6,0,L|329:71|347:103,1,140,0|8
478,150,64378,2,0,L|495:182|390:182,1,140,0|8
249,182,65362,5,0
108,182,65854,1,8
179,62,66345,1,0
249,62,66591,1,0
319,62,66837,1,8
359,196,67329,6,0,L|463:196|446:228,1,140,0|8
306,228,68313,2,0,L|202:228|218:195,1,140,0|8
294,78,69296,6,0,L|294:30|294:30|230:30|230:30|230:78|230:78|174:78,1,210
130,28,70280,1,0
80,77,70526,1,0
129,126,70772,1,8
268,126,71263,5,4
367,225,71755,1,8
367,225,72001,1,0
324,280,72247,1,0
183,280,72739,1,8
130,150,73231,6,0,L|26:150|43:182,1,140,0|8
128,292,74214,1,0
250,223,74706,1,8
366,145,75198,5,4
251,64,75690,1,8
180,64,75936,1,0
109,64,76181,1,0
145,123,76427,1,0
74,123,76673,1,8
106,185,76919,1,0
176,185,77165,6,0,L|280:185|263:217,1,140,0|8
184,332,78149,1,0
324,332,78641,1,8
422,233,79132,6,0,L|276:233,1,140,4|8
282,92,80116,2,0,L|442:92,1,140,0|8
300,21,81100,5,4
230,21,81345,1,8
159,21,81591,1,8
280,91,82083,1,0
209,91,82329,1,8
138,91,82575,1,8
259,159,83067,6,0,L|111:159,1,140,4|8
119,299,84050,2,0,L|259:299,1,140,0|8
358,199,85034,1,4
258,99,85526,1,4
117,99,86018,1,4
18,197,86509,5,4
117,296,87001,2,0,L|272:296,1,140,0|8
327,296,87739,1,0
291,235,87985,1,0
361,235,88231,1,0
326,174,88477,1,8
395,174,88722,1,0
361,112,88968,6,0,L|465:112|448:144,1,140,0|8
323,207,89952,2,0,L|305:238|410:238,1,140,0|8
467,110,90936,5,4
368,11,91427,1,8
297,11,91673,1,0
333,71,91919,1,0
262,71,92165,1,0
333,71,92411,1,8
262,71,92657,1,0
191,71,92903,6,0,L|87:71|104:103,1,140,0|8
176,222,93886,1,0
239,250,94132,1,0
303,222,94378,1,8
402,122,94870,6,0,L|240:122,1,140,4|8
262,262,95854,2,0,L|424:262,1,140,0|8
402,121,96837,5,4
352,71,97083,1,8
302,120,97329,1,8
252,70,97575,1,0
202,119,97821,1,0
152,69,98067,1,8
102,118,98313,1,8
152,69,98559,1,0
221,69,98804,6,0,L|325:69|308:101,1,140,4|8
177,151,99788,2,0,L|158:182|264:182,1,140,0|8
404,182,100772,5,4
305,280,101263,1,4
205,180,101755,1,4
304,80,102247,5,4
114,83,110116,5,0
255,83,110608,1,0
395,83,111100,1,8
255,83,111591,1,0
114,83,112083,2,0,L|2:83,1,70,8|0
44,153,112575,5,0
114,153,112821,1,8
254,153,113313,1,8
183,153,113559,1,0
83,252,114050,5,8
182,351,114542,2,0,L|255:351|302:303,1,140,0|8
401,203,115526,1,0
360,68,116018,2,0,L|280:68,1,70,8|0
219,68,116509,5,0
169,117,116755,1,8
268,216,117247,1,8
218,265,117493,1,0
118,165,117985,5,8
160,109,118231,1,0
218,70,118477,2,0,B|293:12|371:90,1,140,0|8
446,168,119460,5,0
412,229,119706,1,0
481,229,119952,1,8
446,289,120198,2,0,L|300:289,1,140
256,338,120936,1,8
206,288,121181,1,0
255,238,121427,1,0
114,238,121919,1,8
43,238,122165,1,0
78,177,122411,6,0,L|125:177|152:142|201:142,2,140,0|8|0
39,118,123641,1,0
7,177,123886,1,8
43,238,124132,1,0
113,237,124378,5,0
43,238,124624,1,8
109,114,125116,1,8
70,54,125362,1,0
210,54,125854,6,0,L|396:54,1,140,4|0
449,153,126837,1,8
349,252,127329,1,0
209,252,127821,1,8
279,252,128067,1,0
209,252,128313,1,0
138,252,128559,1,0
138,111,129050,5,0
68,111,129296,1,0
102,172,129542,1,0
68,111,129788,1,8
32,170,130034,1,0
65,232,130280,2,0,L|140:232,1,70,0|8
241,138,131018,5,0
291,88,131263,1,0
362,88,131509,1,0
433,88,131755,1,8
433,88,132001,1,0
397,147,132247,2,0,L|310:147,1,70,0|8
143,250,133231,5,0
93,200,133477,1,0
93,129,133722,1,8
142,79,133968,2,0,L|227:80|265:127,1,140
235,188,134706,1,8
158,304,135198,5,0
108,254,135444,1,0
58,204,135690,1,8
107,154,135936,2,0,L|252:154,1,140
247,224,136673,1,8
317,224,136919,1,0
387,224,137165,2,0,L|387:161|352:126|287:126,1,140,0|8
254,126,137903,1,0
183,126,138149,6,0,L|38:126,1,140,0|8
43,266,139132,2,0,L|194:266,1,140,0|8
282,166,140116,5,0
331,117,140362,1,0
380,167,140608,1,8
331,117,140854,1,0
331,47,141100,1,0
331,117,141345,1,0
331,117,141591,1,8
191,124,142083,6,0,L|86:124|103:156,1,140,0|8
225,224,143067,2,0,L|242:256|137:256,1,140,0|8
2,244,144050,5,0
101,144,144542,1,8
200,44,145034,1,0
270,44,145280,1,0
340,44,145526,1,8
423,156,146018,6,0,L|527:156|510:188,1,140,0|8
411,286,147001,2,0,L|307:286|323:253,1,140,0|8
368,120,147985,6,0,L|368:72|368:72|304:72|304:72|304:120|304:120|248:120,1,210
204,70,148968,1,0
154,119,149214,1,0
203,168,149460,1,8
343,168,149952,5,4
243,267,150444,1,8
243,267,150690,1,0
172,267,150936,1,0
73,168,151427,1,8
172,68,151919,6,0,L|276:68|259:100,1,140,0|8
201,227,152903,1,0
341,227,153395,1,8
439,128,153886,5,4
339,28,154378,1,8
339,28,154624,1,0
268,28,154870,1,0
304,87,155116,1,0
233,87,155362,1,8
269,146,155608,1,0
198,146,155854,6,0,L|94:146|111:178,1,140,0|8
178,300,156837,1,0
318,300,157329,1,8
381,175,157821,6,0,L|235:175,1,140,4|8
241,34,158804,2,0,L|401:34,1,140,0|8
480,133,159788,5,4
480,133,160034,1,8
409,133,160280,1,8
337,133,160526,1,0
268,133,160772,1,0
268,133,161018,1,8
337,133,161263,1,8
398,258,161755,6,0,L|414:289|306:289,1,140,4|8
170,289,162739,2,0,L|65:289|82:258,1,140,0|8
164,144,163722,5,4
304,144,164214,1,4
232,23,164706,1,4
232,23,165198,5,4
383,126,182903,5,0
244,126,183395,1,4
145,225,183886,1,0
145,225,184132,1,0
188,280,184378,1,0
329,280,184870,1,0
382,150,185362,6,0,L|486:150|469:182,1,140
384,292,186345,1,0
262,223,186837,1,0
146,145,187329,5,4
261,64,187821,1,0
332,64,188067,1,0
403,64,188313,1,0
367,123,188559,1,0
438,123,188804,1,0
406,185,189050,1,0
336,185,189296,6,0,L|232:185|249:217,1,140
328,332,190280,1,0
188,332,190772,1,0
90,233,191263,6,0,L|236:233,1,140,0|8
230,92,192247,2,0,L|70:92,1,140,0|8
230,92,193231,5,4
230,92,193477,1,8
301,92,193723,1,8
373,92,193968,1,0
442,92,194215,1,0
442,92,194461,1,8
373,92,194706,1,8
230,92,195198,6,0,L|79:92,1,140,4|8
92,232,196182,2,0,L|232:232,1,140,0|8
369,229,197165,5,4
471,132,197657,1,4
371,32,198149,1,4
271,131,198641,1,4
369,229,199132,6,4,L|214:229,1,140,4|12
159,229,199870,1,0
195,168,200116,1,0
125,168,200362,1,0
160,107,200608,1,8
91,107,200854,1,0
125,45,201100,6,0,L|21:45|38:77,1,140,0|8
163,140,202083,2,0,L|180:171|76:171,1,140,0|8
125,45,203067,5,4
265,45,203559,1,8
336,45,203804,1,0
300,105,204050,1,0
371,105,204296,1,0
300,105,204542,1,8
371,105,204788,1,0
336,165,205034,6,0,L|440:165|423:197,1,140,0|8
338,308,206018,1,0
275,336,206263,1,0
211,308,206509,1,8
116,115,207001,6,0,L|278:115,1,140,4|8
256,255,207985,2,0,L|94:255,1,140,0|8
116,114,208968,5,4
166,64,209214,1,8
216,113,209460,1,8
266,63,209706,1,0
316,112,209952,1,0
366,63,210198,1,8
416,111,210444,1,8
366,63,210690,1,0
297,63,210936,6,0,L|193:63|210:95,1,140,4|8
341,144,211919,2,0,L|358:175|254:175,1,140,0|8
114,175,212903,5,4
213,273,213395,1,4
313,173,213886,1,4
214,73,214378,5,4
