osu file format v12

[General]
AudioFilename: 4Story-Hintergrundmusik-Feldlager der Geisterjger[mp3truck.com].mp3
AudioLeadIn: 1000
PreviewTime: 20933
Countdown: 0
SampleSet: Soft
StackLeniency: 0.7
Mode: 0
LetterboxInBreaks: 1
EpilepsyWarning: 1
WidescreenStoryboard: 0

[Editor]
DistanceSpacing: 0.8
BeatDivisor: 4
GridSize: 8

[Metadata]
Title:Encampment of the ghost hunters
TitleUnicode:Encampment of the ghost hunters
Artist:4Story
ArtistUnicode:4Story
Creator:- Melody
Version:Normal
Source:4Story
Tags:mmorpg rpg ost - Miomio Chii -
BeatmapID:256588
BeatmapSetID:95568

[Difficulty]
HPDrainRate:4
CircleSize:4
OverallDifficulty:4
ApproachRate:4
SliderMultiplier:1.4
SliderTickRate:2

[Events]
//Background and Video events
0,0,"BG.jpg",0,0
//Break Periods
//Storyboard Layer 0 (Background)
//Storyboard Layer 1 (Fail)
//Storyboard Layer 2 (Pass)
//Storyboard Layer 3 (Foreground)
Sprite,Foreground,Centre,"white.png",320,240 M,0,21058,,318,221 S,0,21058,,1.264259 F,0,21058,21183,0,1 F,0,21183,21308,1,0 F,0,21308,,0 F,0,21308,,0 F,0,21308,,0 F,0,21308,29058,0 F,0,29058,29183,0,1 F,0,29183,29433,1,0.008000016 F,0,29433,52933,0.008000016,0 F,0,52933,53183,0,1 F,0,53183,53433,1,0 F,0,53433,60933,0,0.003870975 F,0,60933,61183,0.003870975,1 F,0,61183,61433,1,0.004000008
Sprite,Foreground,Centre,"black.png",320,240 S,0,0,,1.264258 F,0,0,1183,1,0 F,0,1183,1308,0,1 F,0,1308,1433,1,0 F,0,1433,3183,0 F,0,3183,3308,0,1 F,0,3308,3433,1,0 F,0,3433,5183,0,0.008000016 F,0,5183,5308,0.008000016,1 F,0,5308,5433,1,0.008000016 F,0,5433,7183,0.008000016,0.02387199 F,0,7183,7308,0.02387199,1 F,0,7308,7433,1,0.02387199 F,0,7433,9183,0.02387199 F,0,9183,9308,0.02387199,1 F,0,9308,9433,1,0.02387199 F,0,9433,11183,0.02387199 F,0,11183,11308,0.02387199,1 F,0,11308,11433,1,0.02387199 F,0,11433,13183,0.02387199 F,0,13183,13308,0.02387199,1 F,0,13308,13433,1,0.02387199 F,0,13433,15183,0.02387199 F,0,15183,15308,0.02387199,1 F,0,15308,15433,1,0.02387199 F,0,15433,17183,0.02387199 F,0,17183,17308,0.02387199,1 F,0,17308,17433,1,0.02387199 F,0,17433,19183,0.02387199 F,0,19183,19308,0.02387199,1 F,0,19308,19433,1,0.02387199 F,0,19433,20433,0.02387199,0 F,0,20433,20933,0,0.996 F,0,20933,21183,0.996,0 F,0,21183,28683,0 F,0,28683,28933,0,1 F,0,28933,29183,1,0 F,0,29183,29433,0 F,0,29433,52683,0 F,0,52683,52933,0,1 F,0,52933,53183,1,0 F,0,53183,60683,0,0.004000008 F,0,60683,60933,0.004000008,1 F,0,60933,61183,1,0.004000008 F,0,61183,68933,0.004000008,0 F,0,68933,69183,0,1 F,0,69183,69433,1,0 F,0,69433,69683,0 F,0,69683,69808,0,1 F,0,69808,69933,1 F,0,69933,71758,1
//Storyboard Sound Samples
//Background Colour Transformations
3,100,163,162,255

[TimingPoints]
1168,500,4,2,0,50,1,0
20418,-100,4,1,1,50,0,0
21168,-100,4,2,0,50,0,1
37168,-100,4,2,0,50,0,0
42793,-100,4,2,0,5,0,0
43043,-100,4,2,0,50,0,0
52418,-100,4,1,1,50,0,0
53168,-100,4,2,0,50,0,1
69168,-100,4,2,0,50,0,0

[Colours]
Combo1 : 128,64,64
Combo2 : 128,128,0
Combo3 : 128,128,128

[HitObjects]
32,104,1168,2,0,P|96:64|112:104,1,140,2|0,0:0|0:0,0:0:0:0:
112,328,2668,1,0,0:0:0:0:
224,328,3168,2,0,P|288:296|232:256,1,140,2|0,0:0|0:0,0:0:0:0:
168,112,4418,2,0,P|248:88|320:96,1,140
360,104,5168,5,2,0:0:0:0:
400,144,5418,1,0,0:0:0:0:
416,200,5668,1,2,0:0:0:0:
200,248,6668,5,0,0:0:0:0:
256,152,7168,1,0,0:0:0:0:
296,192,7418,1,0,0:0:0:0:
320,240,7668,1,2,0:0:0:0:
192,352,8418,2,0,P|136:368|64:328,1,140
40,288,9168,6,0,L|40:144,1,140,0|2,0:0|0:0,0:0:0:0:
224,24,10668,1,2,0:0:0:0:
152,112,11168,2,0,P|152:152|176:184,1,70
200,224,11668,1,2,0:0:0:0:
336,120,12418,5,2,0:0:0:0:
376,160,12668,1,0,0:0:0:0:
416,200,12918,1,2,0:0:0:0:
456,240,13168,6,0,P|440:280|344:304,1,140,0|2,0:0|0:0,0:0:0:0:
184,160,14668,1,2,0:0:0:0:
192,272,15168,1,2,0:0:0:0:
242,297,15418,1,0,0:0:0:0:
292,322,15668,1,2,0:0:0:0:
280,152,16418,5,2,0:0:0:0:
336,136,16668,1,0,0:0:0:0:
368,96,16918,1,2,0:0:0:0:
376,40,17168,6,0,L|232:40,1,140,0|2,0:0|0:0,0:0:0:0:
48,160,18668,1,0,0:0:0:0:
147,213,19168,1,2,0:0:0:0:
192,244,19418,2,0,P|223:258|268:258,1,70
401,260,20418,5,8,0:0:0:0:
441,221,20668,1,8,0:0:0:0:
469,172,20918,1,8,0:0:0:0:
425,136,21168,6,0,B|241:136|275:72|241:16|385:16|372:73|385:136|209:136,1,420,0|8,0:0|0:0,0:0:0:0:
117,79,23168,2,0,P|101:143|141:215,1,140,0|8,0:0|0:0,0:0:0:0:
244,209,24168,2,0,P|265:166|321:145,2,105,0|0|0,0:0|0:0|0:0,0:0:0:0:
272,256,25168,6,0,P|241:296|42:247,2,280
366,195,27668,1,8,0:0:0:0:
332,94,28168,2,0,P|276:54|220:110,1,140,0|8,0:0|0:0,0:0:0:0:
217,201,29168,6,0,P|152:144|70:349,1,420,4|8,0:0|0:0,0:0:0:0:
123,356,30918,1,0,0:0:0:0:
178,359,31168,2,0,P|206:316|138:263,1,140,0|8,0:0|0:0,0:0:0:0:
96,259,31918,1,0,0:0:0:0:
40,252,32168,2,0,P|20:206|87:164,1,140,0|8,0:0|0:0,0:0:0:0:
140,162,32918,1,0,0:0:0:0:
195,165,33168,6,0,P|241:230|447:77,2,420,0|8|0,0:0|0:0|0:0,0:0:0:0:
160,58,36668,1,8,0:0:0:0:
271,67,37168,6,0,P|383:67|411:87,1,140,0|8,0:0|0:0,0:0:0:0:
466,171,38168,2,0,P|450:243|409:297,1,140,0|8,0:0|0:0,0:0:0:0:
380,187,39168,2,0,P|402:125|398:51,1,140,0|8,0:0|0:0,0:0:0:0:
322,134,40168,2,0,P|294:202|245:249,1,140,0|8,0:0|0:0,0:0:0:0:
138,282,41168,6,0,P|98:258|290:58,2,490
236,335,45168,6,0,P|304:342|389:319,1,140,0|8,0:0|0:0,0:0:0:0:
422,299,45918,1,0,0:0:0:0:
472,275,46168,2,0,P|440:243|335:247,1,140,0|8,0:0|0:0,0:0:0:0:
305,273,46918,1,0,0:0:0:0:
259,305,47168,6,0,P|212:307|184:214,1,140,0|8,0:0|0:0,0:0:0:0:
210,189,47918,1,0,0:0:0:0:
264,174,48168,2,0,P|320:158|304:89,1,140,0|8,0:0|0:0,0:0:0:0:
256,192,49168,12,0,51168,0:0:0:0:
224,160,51668,6,0,P|248:224|328:240,1,140
368,232,52418,1,8,0:0:0:0:
416,200,52668,1,8,0:0:0:0:
448,152,52918,1,8,0:0:0:0:
444,96,53168,6,0,P|334:31|247:68,1,210,4|0,0:0|0:0,0:0:0:0:
228,96,54168,2,0,P|220:198|301:279,1,210
340,288,55168,2,0,P|425:250|455:133,1,210
444,96,56168,2,0,P|334:31|247:68,1,210,0|0,0:0|0:0,0:0:0:0:
228,96,57168,1,0,0:0:0:0:
256,192,57293,12,0,60668,0:0:0:0:
208,288,61168,6,0,P|112:280|96:176,1,210,4|0,0:0|0:0,0:0:0:0:
112,128,62168,2,0,P|184:128|264:24,1,210
320,32,63168,2,0,P|320:104|424:184,1,210
472,200,64168,6,0,P|448:256|240:256,1,280
160,208,65668,1,4,0:0:0:0:
80,128,66168,1,0,0:0:0:0:
192,104,66668,1,4,0:0:0:0:
248,200,67168,5,0,0:0:0:0:
312,288,67668,1,4,0:0:0:0:
368,192,68168,1,0,0:0:0:0:
304,104,68668,1,4,0:0:0:0:
416,104,69168,6,8,P|454:147|418:290,1,210,2|2,0:0|0:0,0:0:0:0:
