osu file format v9

[General]
AudioFilename: WHY.mp3
AudioLeadIn: 2000
PreviewTime: 103476
Countdown: 0
SampleSet: Normal
StackLeniency: 0.7
Mode: 0
LetterboxInBreaks: 0

[Editor]
Bookmarks: 48523,83138,94446,95599
DistanceSpacing: 0.7
BeatDivisor: 4
GridSize: 4

[Metadata]
Title:WHY
Artist:4Minute
Creator:IchiGUN
Version:Insane
Source:
Tags:k-pop wowshakhov black_cherry_ita

[Difficulty]
HPDrainRate:7
CircleSize:3
OverallDifficulty:7
ApproachRate:8
SliderMultiplier:2.4
SliderTickRate:2

[Events]
//Background and Video events
0,0,"wallp.jpg"
Video,100,"WHY.avi"
//Break Periods
2,70876,73619
2,122569,136388
//Storyboard Layer 0 (Background)
//Storyboard Layer 1 (Fail)
//Storyboard Layer 2 (Pass)
//Storyboard Layer 3 (Foreground)
//Storyboard Sound Samples
//Background Colour Transformations
3,100,163,162,255

[TimingPoints]
523,461.538461538462,4,1,0,60,1,0
7907,-100,4,2,0,60,0,1
7965,-100,4,1,0,60,0,1
22215,-100,4,1,0,60,0,0
26311,-100,4,2,0,60,0,0
26426,-100,4,1,0,60,0,0
38946,-133.333333333333,4,1,0,60,0,0
39407,-100,4,1,0,60,0,0
55907,-100,4,1,0,60,0,1
63234,-100,4,2,0,60,0,1
63349,-100,4,1,0,60,0,1
63696,-100,4,2,0,60,0,1
63811,-100,4,1,0,60,0,1
70215,-100,4,1,0,60,0,0
79792,-100,4,2,0,80,0,0
80484,-100,4,2,0,60,0,0
81176,-100,4,1,0,60,0,0
103907,-100,4,1,0,60,0,1
111234,-100,4,2,0,60,0,1
111349,-100,4,1,0,60,0,1
111696,-100,4,2,0,60,0,1
111811,-100,4,1,0,60,0,1
118215,-100,4,1,0,60,0,0
137484,-100,4,2,0,60,0,0
138638,-200,4,2,0,60,0,0
139330,-100,4,2,0,60,0,0
140080,-100,4,2,0,30,0,0
140196,-100,4,2,0,60,0,0
143773,-100,4,2,0,30,0,0
143888,-100,4,2,0,60,0,0
145792,-200,4,2,0,60,0,0
146484,-100,4,2,0,60,0,0
147465,-100,4,2,0,30,0,0
147580,-100,4,2,0,60,0,0
150523,-100,4,1,0,60,0,0
153753,-100,4,2,0,60,0,1
153811,-100,4,1,0,60,0,1
168465,-100,4,2,0,60,0,1
168580,-100,4,1,0,60,0,1
175792,-100,4,2,0,60,0,1
176023,-100,4,1,0,60,0,1
183292,-100,4,1,0,60,0,0

[Colours]
Combo1 : 240,5,5
Combo2 : 255,128,64
Combo3 : 243,216,20
SliderBorder : 255,255,255

[HitObjects]
140,312,523,2,0,B|256:368|372:312,1,240,4|8
364,192,1215,1,0
256,252,1446,1,0
256,252,1907,2,2,B|256:132,1,120,2|0
156,64,2369,5,0
256,132,2599,1,0
148,184,2830,1,8
156,64,3061,1,0
128,64,3176,1,0
96,64,3292,1,0
256,132,3523,5,0
256,252,3753,1,8
256,132,3984,1,0
360,36,4215,6,2,B|336:68|362:95|384:120|360:148,1,120,2|0
365,271,4676,1,8
256,320,4907,1,0
148,272,5138,1,0
256,224,5369,1,0
84,276,6061,5,0
68,252,6176,1,0
52,224,6292,1,2
28,204,6407,1,0
24,172,6523,1,2
20,144,6638,1,0
36,116,6753,1,0
40,88,6869,1,2
44,60,6984,5,0
72,68,7099,1,2
100,76,7215,1,0
128,80,7330,1,0
160,80,7446,2,2,B|288:80,1,120,2|0
436,252,7907,6,0,B|420:193|436:133,1,120,4|0
76,185,8369,2,0,B|91:244|76:304,1,120,4|0
40,92,8830,1,0
188,308,9292,5,8
144,108,9523,1,0
188,308,9753,2,2,B|247:323|306:308,1,120,2|0
452,328,10215,1,8
308,308,10446,1,0
160,120,10907,5,0
36,192,11138,1,8
160,120,11369,1,0
308,188,11599,2,2,B|293:247|308:307,1,120,2|0
160,240,12061,2,2,B|174:180|159:121,1,120,2|0
328,79,12523,1,0
328,79,12984,5,8
328,80,13215,1,0
292,196,13446,1,4
216,288,13676,1,0
96,320,13907,1,8
96,320,14138,2,0,B|128:200|96:80,1,240,0|0
216,288,14830,1,8
332,312,15061,1,0
216,56,15292,5,2
300,224,15753,1,2
144,336,16215,1,0
428,292,16676,5,8
300,224,16907,1,0
444,216,17138,1,0
324,300,17369,2,0,B|206:331|86:299,1,240,2|0
256,80,18292,5,0
348,56,18523,1,8
324,148,18753,1,0
396,212,18984,5,0
280,244,19214,1,0
280,244,19330,1,0
188,168,19561,1,0
188,168,19676,1,0
68,148,19907,2,0,B|68:12,2,120,8|0|8
120,256,20599,5,0
228,308,20830,1,0
344,284,21061,1,0
344,284,21176,1,0
396,176,21407,1,0
396,176,21523,1,0
336,56,21753,1,8
336,56,21984,2,2,B|208:56,1,120
124,272,22676,6,0,B|172:328,3,60
192,312,23138,2,0,B|268:320,3,60
280,308,23599,2,0,B|344:276,3,60
336,252,24061,2,0,B|360:180,3,60
352,164,24523,5,0
344,136,24638,1,0
332,108,24753,1,0
332,76,24869,1,0
312,52,24984,1,0
284,48,25099,1,0
256,56,25215,1,0
228,48,25330,1,0
200,56,25446,1,0
172,48,25561,1,0
148,64,25676,5,2
256,192,25907,1,2
256,192,26369,6,0,B|256:336,1,120,4|0
256,192,26830,1,8
256,192,27061,2,0,B|256:72,1,120
256,192,27522,1,0
136,216,27753,1,2
56,128,27984,5,0
256,72,28215,1,4
456,128,28446,1,0
456,128,28561,1,0
456,128,28677,1,8
304,272,28907,5,0
192,228,29138,1,0
200,108,29369,1,0
308,156,29599,2,0,B|468:84|524:252,1,240,8|0
436,312,30292,5,0
404,312,30408,1,0
376,312,30523,1,8
256,296,30753,1,0
136,284,30984,1,0
256,296,31215,2,0,B|256:176,1,120,0|2
316,72,31676,6,0,B|256:58|197:73,1,120,0|0
96,140,32138,1,0
88,168,32253,1,0
80,196,32369,1,8
144,300,32599,5,0
264,304,32830,1,0
256,192,33061,1,0
256,192,33292,2,0,B|231:163|253:138|279:111|255:79,1,120,8|0
256,80,33753,5,4
144,64,33984,1,0
144,64,34099,1,0
144,64,34215,1,8
72,160,34446,2,0,B|160:192|128:296,1,120
48,336,34907,1,0
48,336,35023,1,0
48,336,35138,2,2,B|292:336,1,240,8|4
472,336,35830,5,0
472,336,35946,1,0
472,336,36061,1,8
384,248,36292,2,0,B|384:80,1,120
256,192,36753,1,0
128,128,36984,2,0,B|-4:128,2,120,8|0|0
224,320,37676,5,0
400,300,37907,1,8
368,120,38138,1,0
192,148,38369,1,0
224,320,38599,1,0
400,300,38830,1,8
400,300,39061,2,0,B|400:192,1,89.9999973177911
308,152,39523,5,0
240,40,39753,1,8
144,112,39984,1,0
208,216,40215,1,0
208,216,40676,5,8
208,240,40791,1,0
208,264,40907,1,0
208,288,41022,1,0
208,312,41138,1,4
168,48,41599,5,8
48,184,41830,1,0
240,88,42061,1,0
120,224,42292,1,0
288,160,42523,1,8
168,296,42753,2,2,B|208:352|208:352|304:376|368:304,1,240
472,152,43446,5,8
328,48,43676,1,0
408,208,43907,1,0
264,96,44138,1,0
344,256,44369,1,8
200,152,44599,1,0
256,192,44830,12,0,45753
328,312,46215,5,8
328,312,46446,1,0
328,312,46676,2,0,B|416:288|416:288|464:192|408:96,1,240,0|8
184,72,47369,5,0
184,72,47599,1,0
184,72,47830,1,0
184,72,48061,2,0,B|96:96|96:96|48:192|104:288,1,240,8|0
408,312,48984,5,8
408,312,49446,1,0
288,304,49676,1,0
352,208,49907,1,8
360,88,50138,2,0,B|384:8|504:24,2,120
256,144,50830,2,0,B|176:120|192:0,1,120,8|0
80,96,51292,6,0,B|48:256,1,120
56,336,51753,2,0,B|136:208|312:272,1,240,8|0
376,304,52446,1,0
424,272,52561,1,0
472,240,52676,1,8
392,168,52907,6,0,B|232:240|168:48,1,240
304,80,53599,1,8
392,167,53830,2,2,B|374:342|176:301,1,240
256,192,54753,12,0,55676
160,152,55907,5,4
352,232,56138,1,0
216,96,56369,1,8
296,288,56599,1,0
296,96,56830,1,0
296,96,57292,5,8
212,288,57523,1,0
352,152,57753,1,2
160,232,57984,1,0
352,232,58215,1,8
160,152,58446,1,0
48,312,58907,5,0
48,192,59138,1,8
48,72,59369,1,0
316,48,59599,6,0,B|256:80|256:144,1,120,2|0
196,48,60061,2,0,B|256:80|256:144,1,120,2|0
316,336,60523,2,0,B|256:304|256:240,1,120,0|0
196,336,60985,2,0,B|256:304|256:240,1,120,8|0
256,120,61446,5,4
171,35,61676,1,0
256,120,61907,1,8
340,35,62138,1,0
256,120,62369,5,0
256,192,62599,1,0
256,264,62830,1,8
256,336,63061,1,0
144,288,63292,6,0,B|24:248,1,120,4|0
368,288,63753,2,0,B|488:248,1,120,4|0
308,216,64215,2,0,B|255:252|195:216,1,120
64,152,64676,5,8
112,64,64907,1,0
208,32,65138,1,0
304,32,65369,1,2
400,64,65600,1,8
448,152,65831,1,0
368,336,66292,6,0,B|256:292|256:292|144:336,1,240
144,335,66984,1,0
104,264,67215,6,0,B|56:176,1,60
180,232,67561,2,0,B|148:160,1,60
256,216,67907,2,0,B|256:96,2,120,8|0|8
256,340,68599,1,0
256,216,68830,5,0
332,232,69061,2,0,B|364:160,1,60
408,264,69407,2,0,B|456:176,1,60
420,92,69753,5,8
256,36,69984,1,2
92,92,70215,1,8
256,268,70676,5,4
196,304,74369,5,4
316,304,74599,1,0
316,304,74715,1,0
316,304,74830,1,8
404,220,75061,2,0,B|364:140|476:80,1,120
308,124,75523,2,0,B|180:152,1,120,0|2
72,124,75984,5,0
72,124,76099,1,0
72,124,76215,2,0,B|32:184|68:292,1,120
128,336,76676,1,8
220,252,76907,2,0,B|60:196|-16:356,1,240
128,120,77599,1,8
128,120,77830,1,0
244,152,78061,5,4
336,76,78292,1,0
336,76,78407,1,0
336,76,78523,1,8
404,176,78753,2,0,B|352:336|176:312,1,240
52,152,79446,5,2
456,48,79907,5,4
368,128,80138,1,0
368,128,80253,1,0
368,128,80369,1,0
264,152,80599,2,0,B|176:176|136:68,2,120
340,232,81292,1,8
256,304,81523,1,8
256,304,81638,1,8
256,304,81753,6,0,B|244:248|244:248|256:184,1,120,4|0
255,186,82215,1,2
256,68,82446,2,0,B|267:129|267:129|255:186,1,120
256,304,82907,1,0
148,304,83138,1,2
364,304,83599,6,0,B|368:228|480:200,1,120,4|0
424,180,83946,1,8
292,104,84292,2,0,B|216:100|188:-12,1,120
203,33,84753,1,0
204,152,84984,2,0,B|200:228|88:256,1,120,8|0
133,240,85446,5,0
209,316,85676,1,0
209,316,85907,1,8
209,316,86138,1,0
364,296,86369,1,0
428,156,86599,1,0
320,44,86830,1,8
168,88,87061,2,0,B|148:172|40:156,1,120
33,320,87523,5,0
152,320,87753,1,8
272,320,87984,1,0
392,320,88215,2,2,B|508:256|456:124|456:124|376:180|376:180|428:72|344:20,1,480,2|6
224,232,89599,6,0,B|284:276|364:248,1,120,8|0
472,208,90061,1,0
472,208,90292,1,0
472,208,90523,1,8
336,160,90753,2,0,B|256:152|248:64,1,120,0|4
112,48,91215,6,0,B|144:192,1,120,0|8
32,68,91676,1,0
32,68,91907,2,0,B|56:188,1,120
80,336,92369,1,8
200,320,92599,1,0
280,232,92830,5,0
200,320,93061,2,0,B|328:336,1,120,0|8
280,232,93523,2,0,B|416:248,1,120,0|0
352,136,93984,2,0,B|480:144,1,120,0|8
216,40,94446,5,0
96,56,94676,1,0
35,159,94907,1,0
296,344,95369,5,0
416,328,95599,1,0
477,225,95830,1,0
456,112,96061,1,8
456,112,96523,1,4
216,116,96984,5,8
96,80,97215,1,0
216,116,97446,1,0
216,236,97676,1,0
216,116,97907,1,8
324,60,98138,1,0
160,352,98599,6,0,B|0:312|40:136,1,240
240,152,99292,1,8
248,272,99523,1,0
164,348,99753,1,8
240,152,99984,2,0,B|292:4|464:64,1,240
312,344,100907,5,0
200,344,101138,1,2
372,272,101369,1,0
140,272,101600,1,2
256,192,101830,12,0,102984
256,48,103446,5,0
320,144,103676,1,0
256,240,103907,1,4
192,136,104138,1,0
192,136,104369,5,8
256,240,104600,1,0
192,328,104831,1,0
320,136,105292,5,8
256,240,105523,1,0
320,328,105753,1,2
384,240,105984,1,0
320,136,106215,1,8
320,136,106446,1,0
88,88,106907,5,0
32,192,107138,1,8
80,304,107369,1,0
208,320,107599,2,0,B|224:348|256:352|288:348|312:320,1,120,2|0
311,63,108061,2,0,B|288:36|256:32|224:36|208:64,1,120,2|0
256,192,108523,5,0
256,192,108984,1,8
136,176,109215,5,0
376,208,109446,1,2
136,176,109676,1,0
360,120,109907,1,8
144,264,110137,1,0
376,208,110369,5,0
272,56,110599,1,0
136,176,110830,1,8
240,328,111061,1,0
256,40,111292,5,4
256,40,111523,1,0
256,344,111753,1,4
256,344,111984,1,0
256,344,112215,6,0,B|432:344,1,120,0|0
256,40,112676,1,8
212,152,112907,1,0
332,132,113138,1,0
256,40,113369,2,0,B|112:40,2,120,2|8|0
160,224,114292,5,0
328,288,114523,1,8
296,112,114753,1,0
160,224,114984,5,0
40,216,115215,1,0
40,216,115330,1,0
136,144,115561,1,0
136,144,115676,1,0
256,136,115907,1,8
168,56,116138,1,0
256,136,116369,1,8
352,224,116599,5,0
352,224,116830,1,4
472,216,117061,1,0
472,216,117176,1,0
376,144,117407,1,0
376,144,117522,1,0
256,136,117753,1,8
344,56,117984,1,0
256,136,118215,1,8
312,269,118676,6,0,B|256:248,1,60
200,269,118906,2,0,B|256:248,1,60
256,372,119138,2,0,B|256:312,2,60
312,114,119599,6,0,B|256:136,1,60
200,113,119829,2,0,B|256:136,1,60
256,12,120061,2,0,B|256:72,2,60
424,192,120523,6,0,B|488:192,2,60
360,192,120870,2,0,B|392:112,1,60
364,196,121100,2,0,B|388:260,1,60
88,192,121446,6,0,B|24:192,2,60
152,192,121793,2,0,B|120:112,1,60
156,196,122023,2,0,B|132:260,1,60
256,192,122369,5,4
256,192,137138,5,4
456,64,137599,5,0
440,96,137830,1,0
408,112,138061,1,0
376,112,138292,1,0
344,96,138523,1,0
312,80,138753,2,0,B|252:20|184:72,1,120
112,140,139446,5,0
112,172,139676,1,0
100,204,139907,1,0
124,232,140138,1,4
156,252,140369,1,0
172,284,140599,1,0
184,316,140830,1,0
336,304,141292,5,0
360,280,141523,1,0
360,240,141754,1,0
344,208,141985,1,0
312,192,142216,1,0
200,72,142676,5,0
96,136,143138,1,0
88,168,143369,1,0
80,200,143599,1,0
72,232,143830,1,0
64,264,144061,1,0
56,296,144292,1,0
48,328,144523,1,0
192,320,144984,5,0
332,288,145446,1,0
348,256,145676,1,0
368,224,145907,1,0
384,192,146138,2,0,B|384:64,1,120
320,20,146830,1,0
240,44,147061,1,0
192,112,147292,5,0
168,192,147523,1,4
144,272,147753,1,0
120,352,147984,1,0
392,328,148907,5,0
312,312,149138,1,0
232,296,149368,1,0
152,280,149599,1,0
72,256,149830,1,0
256,192,150292,5,0
256,192,150753,12,4,151907
256,192,153292,5,0
136,192,153523,1,0
192,88,153753,1,4
312,88,153984,1,0
376,192,154215,1,8
312,296,154446,1,0
192,296,154676,1,0
312,88,155138,6,0,B|464:80,1,120,8|0
192,296,155599,2,0,B|48:304,1,120,2|0
256,192,156061,1,8
256,192,156292,1,0
448,252,156753,6,0,B|448:184,2,60,0|0|8
316,220,157215,1,0
216,320,157446,2,0,B|168:256|24:292,1,180
80,236,157907,2,0,B|8:204|16:100,1,120,8|0
104,56,158369,1,0
104,56,158599,1,0
104,56,158715,1,0
104,56,158830,1,8
200,128,159061,6,0,B|264:144|360:72,1,120
314,102,159523,1,0
424,144,159753,1,8
328,216,159984,1,0
208,248,160215,2,0,B|120:272|96:368,2,120,0|0|8
444,300,161138,5,4
396,192,161369,1,0
440,80,161599,1,8
396,192,161830,1,0
304,272,162061,1,0
304,272,162523,5,8
188,240,162753,1,0
184,120,162984,1,0
184,120,163215,1,2
188,240,163446,1,8
80,296,163676,1,0
420,188,164138,6,0,B|452:36,2,120,0|8|0
372,300,164830,1,0
256,332,165061,1,0
140,300,165292,1,8
92,188,165523,1,0
92,188,165753,1,0
68,72,165984,1,0
68,72,166099,1,0
68,72,166215,1,8
308,80,166676,5,2
204,140,166907,1,0
172,256,167138,1,8
276,196,167369,1,0
172,256,167599,1,0
44,232,167830,1,0
44,232,167946,1,0
44,232,168061,1,8
140,144,168292,1,0
276,196,168523,6,0,B|364:180|420:260,1,120,4|0
172,132,168984,2,0,B|156:56|236:16,1,120,8|0
316,92,169446,1,0
304,312,169907,5,8
188,312,170138,1,0
176,180,170369,1,2
88,256,170599,1,0
40,148,170830,1,8
48,28,171061,1,0
368,104,171523,5,0
368,104,171753,1,8
368,104,171984,1,0
456,328,172215,5,2
216,300,172676,1,2
368,104,173138,1,0
176,24,173599,5,8
80,68,173830,1,0
180,112,174061,1,2
80,152,174292,1,0
180,196,174523,1,8
80,236,174753,1,0
180,280,174984,1,0
80,316,175215,1,0
80,316,175446,1,8
80,316,175676,1,0
256,284,175907,5,4
472,280,176369,1,8
364,68,176830,1,0
352,308,177292,5,8
252,240,177523,1,0
252,120,177753,1,0
364,68,177984,2,0,B|484:68,2,120,2|8|0
144,92,178907,6,0,B|80:108|33:57|33:57|72:152|8:220,1,240
152,212,179599,1,0
68,300,179830,2,0,B|68:364,1,60
172,300,180176,2,0,B|172:364,1,60
256,272,180523,6,0,B|256:152,2,120,8|0|8
256,272,181215,1,0
356,340,181446,1,0
356,340,181676,2,0,B|356:268,1,60
456,344,182023,2,0,B|456:276,1,60
456,163,182369,1,8
352,84,182599,6,2,B|416:100|463:49|463:49|424:144|488:212,1,240,2|0
344,208,183292,1,4
