osu file format v9

[General]
AudioFilename: WHY.mp3
AudioLeadIn: 2000
PreviewTime: 103476
Countdown: 0
SampleSet: Soft
StackLeniency: 0.7
Mode: 0
LetterboxInBreaks: 0

[Editor]
DistanceSpacing: 0.8
BeatDivisor: 4
GridSize: 4

[Metadata]
Title:WHY
Artist:4Minute
Creator:IchiGUN
Version:Hard
Source:
Tags:k-pop wowshakhov black_cherry_ita

[Difficulty]
HPDrainRate:6
CircleSize:4
OverallDifficulty:6
ApproachRate:7
SliderMultiplier:1.8
SliderTickRate:2

[Events]
//Background and Video events
0,0,"wallp.jpg"
Video,100,"WHY.avi"
//Break Periods
2,22876,25469
2,70876,73469
2,118876,121469
//Storyboard Layer 0 (Background)
//Storyboard Layer 1 (Fail)
//Storyboard Layer 2 (Pass)
//Storyboard Layer 3 (Foreground)
//Storyboard Sound Samples
//Background Colour Transformations
3,100,163,162,255

[TimingPoints]
523,461.538461538462,4,2,0,80,1,0
7907,-100,4,2,0,80,0,1
22215,-100,4,2,0,80,0,0
22561,-100,4,1,0,80,0,0
22792,-100,4,2,0,80,0,0
55907,-100,4,2,0,80,0,1
70215,-100,4,2,0,80,0,0
70561,-100,4,1,0,80,0,0
70792,-100,4,2,0,80,0,0
92830,-200,4,2,0,80,0,0
94215,-100,4,2,0,80,0,0
103907,-100,4,2,0,80,0,1
118215,-100,4,2,0,80,0,0
118561,-100,4,1,0,80,0,0
118792,-100,4,2,0,80,0,0
143599,-200,4,2,0,80,0,0
144523,-100,4,2,0,80,0,0
153753,-100,4,2,0,80,0,1
183292,-100,4,2,0,80,0,0

[Colours]
Combo1 : 240,5,5
Combo2 : 255,128,64
Combo3 : 243,216,20
SliderBorder : 255,255,255

[HitObjects]
100,88,523,1,4
236,40,984,2,0,B|320:72,1,90,8|0
384,104,1446,2,0,B|356:196,1,90
336,260,1907,1,8
204,320,2369,5,0
132,304,2599,1,0
80,252,2830,1,8
52,184,3061,2,0,B|36:120,2,45
120,160,3523,1,0
184,132,3753,1,8
312,68,4215,6,0,B|356:56|356:56|400:72,1,90
452,120,4676,2,0,B|464:164|464:164|448:208,1,90,8|0
400,260,5138,2,0,B|358:275|358:275|314:263,1,90
172,100,6061,2,0,B|220:100,4,45,0|2|2|0|2
172,244,6984,2,0,B|220:244,4,45,0|2|0|0|2
36,196,7907,5,4
96,64,8369,1,8
240,32,8830,1,0
384,32,9292,2,0,B|480:64|496:160,1,180,8|0
496,304,10215,1,8
496,304,10446,1,0
496,160,10907,6,0,B|496:64,3,90,0|10|0|0
360,24,12061,1,8
256,128,12522,1,0
360,232,12984,1,8
256,328,13446,1,0
256,256,13676,2,0,B|256:208|192:208,1,90,2|0
180,280,14138,2,0,B|68:264|116:128,1,180,8|2
40,32,15292,5,4
184,32,15753,1,8
40,32,16215,1,0
40,176,16676,2,0,B|144:176,1,90,8|0
40,240,17138,2,0,B|136:240,1,90,2|0
40,304,17599,2,0,B|136:304,1,90,8|0
200,304,18061,1,0
328,240,18523,1,8
200,176,18984,5,8
252,224,19215,1,0
300,172,19446,1,0
248,124,19676,1,2
300,76,19907,1,8
352,124,20138,1,0
404,76,20369,1,0
404,76,20599,6,0,B|460:76|444:140,1,90,0|8
488,196,21061,1,0
424,236,21292,1,2
488,276,21523,1,0
424,316,21753,1,8
488,356,21984,1,0
488,356,22215,1,4
368,276,22676,5,4
480,192,26369,5,4
264,192,27061,1,8
264,192,27292,1,0
260,48,27753,2,0,B|172:48,3,90,8|2|0|0
96,48,28676,2,0,B|28:120,1,90,8|0
36,184,29138,1,2
180,184,29599,1,8
112,312,30061,5,4
328,312,30753,1,8
328,312,30984,1,0
464,356,31446,2,0,B|424:340|424:340|424:292,1,90,8|0
448,224,31907,2,0,B|488:208|488:208|488:160,1,90,2|0
488,88,32369,2,0,B|448:72|448:72|448:24,1,90,8|0
448,24,32830,1,0
376,24,33061,2,0,B|280:24,1,90,2|8
140,24,33753,5,4
32,216,34446,1,8
32,216,34676,1,0
32,360,35138,1,8
88,312,35369,1,0
144,360,35599,1,0
200,312,35830,1,0
256,360,36061,1,8
312,312,36292,1,2
384,312,36523,2,0,B|496:312|480:184,1,180,0|8
376,96,37446,6,0,B|312:32,1,90,2|0
328,136,37907,2,0,B|264:72,1,90,8|0
280,176,38369,2,0,B|216:112,1,90
232,216,38830,2,0,B|168:152,1,90,8|0
116,100,39292,5,0
8,24,39753,1,8
8,168,40215,1,0
8,312,40676,1,8
152,296,41138,6,0,B|232:352,1,90,4|0
280,296,41599,2,0,B|360:352,1,90,8|0
424,344,42061,2,0,B|424:248,1,90,2|0
424,184,42523,1,8
424,40,42984,1,0
280,40,43446,1,8
280,184,43907,6,0,B|376:184,1,90,2|0
432,220,44369,1,8
376,264,44599,2,0,B|376:352|376:352|192:352,1,270,0|8
48,352,45753,5,0
48,208,46215,1,8
48,144,46446,1,0
88,96,46676,1,2
216,32,47138,1,8
344,96,47599,1,2
384,144,47830,1,0
384,208,48061,1,8
240,208,48523,5,0
288,72,48984,1,8
152,24,49446,1,0
16,72,49907,1,8
64,208,50369,1,0
152,96,50830,1,8
240,208,51292,1,0
332,96,51753,6,0,B|364:80|440:96|424:212,1,180,8|0
332,96,52676,2,0,B|300:80|224:96|240:212,1,180,8|0
256,352,53599,1,8
400,360,54061,6,0,B|472:296,1,90,2|0
420,244,54523,2,0,B|344:184,1,90,8|0
380,124,54984,2,0,B|472:100,1,90,2|0
472,176,55446,1,8
472,320,55907,5,4
472,176,56369,1,8
472,320,56830,1,0
328,320,57292,6,0,B|328:232,1,90,8|0
260,204,57753,2,0,B|260:300,1,90
192,320,58215,2,0,B|192:232,1,90,8|0
48,232,58907,5,0
32,160,59138,1,8
88,112,59369,1,0
144,68,59599,2,0,B|232:16|328:68,2,180,2|8|8
256,156,60984,1,8
324,132,61215,1,2
392,108,61446,1,0
472,232,61907,5,8
392,109,62369,1,0
324,132,62600,1,2
256,156,62831,1,8
376,232,63292,5,4
312,356,63753,1,8
168,356,64215,1,0
56,264,64676,2,0,B|-16:184|56:104,1,180,8|0
184,32,65599,2,0,B|290:18|316:124,1,180,8|0
428,32,66523,1,8
316,124,66984,5,8
380,160,67215,1,2
316,196,67446,1,0
380,232,67676,1,0
444,268,67907,1,8
444,268,68138,1,2
444,268,68369,1,8
444,348,68599,6,0,B|364:296,1,90,0|0
296,300,69061,1,2
256,360,69292,1,8
216,300,69523,1,0
176,360,69753,1,8
136,300,69984,1,2
96,240,70215,1,8
96,96,70676,5,4
256,360,74369,21,4
256,144,75061,1,8
256,144,75292,1,0
68,36,75984,5,0
128,76,76215,1,0
68,116,76446,1,0
128,156,76676,1,8
68,196,76907,1,2
128,232,77138,2,0,B|192:292|192:292|288:292,1,180,0|8
428,292,78061,5,4
436,76,78753,1,0
396,136,78984,1,2
356,76,79215,1,0
316,136,79446,1,8
212,36,79907,1,8
140,36,80138,1,0
16,124,80599,2,0,B|16:32,1,90,2|8
20,128,81061,2,0,B|20:218,1,90,0|8
16,360,81753,5,4
232,364,82446,1,8
232,364,82676,1,0
376,364,83138,2,0,B|480:352|480:240,1,180,2|8
480,168,83830,1,0
480,24,84292,1,8
480,24,84522,1,0
480,168,84984,1,2
356,92,85446,5,4
212,92,85907,2,0,B|28:92,2,180,8|0|8
284,92,87061,1,4
256,192,87292,12,4,89138
168,192,89599,5,8
256,76,90061,1,0
344,192,90522,1,8
256,304,90984,1,0
344,192,91446,1,8
256,76,91907,1,0
168,192,92369,1,8
128,324,92830,6,0,B|180:356|180:356|332:356|332:356|380:324,1,270,2|8
476,220,94676,6,0,B|476:36,1,180,0|8
344,92,95599,2,0,B|160:92,1,180,0|8
32,32,96522,1,4
32,176,96984,5,8
32,320,97446,1,0
32,176,97907,1,8
176,176,98369,1,0
176,320,98830,5,8
248,320,99061,1,2
300,268,99292,1,0
412,176,99753,1,8
300,84,100215,1,0
244,40,100446,1,2
172,40,100676,1,8
172,184,101138,1,0
172,184,101369,1,2
172,184,101599,1,8
256,192,101830,12,8,103446
256,192,103907,5,4
400,192,104369,1,8
328,316,104830,1,0
184,316,105292,2,0,B|88:284|72:184,1,180,8|0
72,44,106215,1,8
72,44,106446,1,0
184,136,106907,6,0,B|184:44,3,90,0|8|0|2
328,48,108061,1,8
456,112,108522,1,0
328,180,108984,1,8
328,252,109215,1,0
328,324,109446,2,0,B|216:312|236:196,1,180,0|8
244,128,110138,2,0,B|268:48|392:48,1,180,0|2
440,100,110830,1,8
324,188,111292,6,0,B|324:372,2,180,4|8|0
200,260,112676,1,8
64,312,113138,1,0
96,172,113599,1,8
116,28,114061,2,0,B|216:28,3,90,0|2|8|0
280,28,114984,5,8
352,28,115215,1,2
316,92,115446,1,0
388,92,115676,1,8
424,156,115907,1,2
424,156,116138,1,2
424,156,116369,1,8
464,216,116599,6,0,B|464:312,1,90,0|10
412,356,117061,1,0
360,308,117292,1,8
308,356,117522,1,0
256,308,117753,1,8
204,256,117984,1,2
204,256,118215,1,8
204,112,118676,5,4
40,192,122369,21,0
184,192,122830,1,8
328,192,123292,1,0
472,192,123753,1,8
448,64,124215,6,0,B|360:28,1,90,2|0
452,68,124676,2,0,B|364:100,1,90,8|0
456,72,125138,2,0,B|408:164,1,90,2|0
460,76,125599,2,0,B|484:164,1,90,8|0
472,236,126061,5,0
328,212,126522,1,8
184,212,126984,1,0
40,236,127446,1,8
40,364,127907,6,0,B|132:364,1,90,2|0
132,292,128369,2,0,B|224:292,1,90,8|0
224,364,128830,2,0,B|316:364,1,90,2|0
316,292,129292,2,0,B|408:292,1,90,8|0
408,364,129753,1,4
464,176,130215,6,0,B|464:56|348:56,1,180,8|0
404,212,131138,2,0,B|404:332|296:332,1,180,8|0
48,176,132061,2,0,B|48:56|152:56,1,180,8|0
108,212,132984,2,0,B|108:332|212:332,1,180,8|0
416,228,133907,5,8
304,136,134369,1,0
444,164,134830,1,8
308,204,135292,1,0
408,104,135753,1,8
368,244,136215,1,0
340,104,136676,1,8
432,216,137138,1,0
432,360,137599,6,0,B|387:360|356:320,1,90,8|0
308,264,138061,2,0,B|285:225|235:218,1,90,2|0
164,212,138522,2,0,B|119:212|88:172,1,90,8|0
40,116,138984,1,0
40,44,139215,1,0
40,116,139446,1,8
40,44,139676,1,0
112,44,139907,6,0,B|200:44,1,90,2|0
202,44,140369,1,8
272,44,140599,2,0,B|368:20|456:92|464:200,1,270,2|8
316,193,141753,5,0
256,260,141984,1,0
196,192,142215,1,8
256,124,142446,1,0
316,192,142676,1,0
256,260,142907,1,0
196,192,143138,1,8
84,268,143599,6,0,B|148:320|212:224|272:268,1,180,0|8
392,296,144984,1,0
256,340,145446,1,8
120,296,145907,1,0
80,176,146369,5,2
104,108,146599,1,0
156,60,146830,1,8
220,28,147061,1,0
292,28,147292,1,2
356,60,147522,1,0
408,108,147753,1,8
432,176,147984,2,0,B|492:236|496:316|404:348|320:268,1,270,0|8
276,232,148907,5,0
220,276,149138,1,0
212,204,149369,1,0
156,248,149599,1,8
148,176,149830,1,0
24,104,150292,1,2
256,192,150753,12,8,153291
416,320,153753,5,4
272,352,154215,1,8
128,352,154676,2,0,B|32:320|16:224,1,180,0|8
16,80,155599,1,0
16,80,155830,1,0
16,80,156061,1,8
16,152,156292,2,0,B|16:248,3,90,0|2|0|8
152,360,157446,5,0
256,256,157907,1,8
152,152,158369,1,0
256,56,158830,1,8
256,128,159061,2,0,B|256:176|320:176,2,90,0|2|0
320,96,159753,2,0,B|360:92|432:120|420:192|384:228,1,180,8|0
395,215,160446,1,0
395,215,160676,1,8
476,116,161138,5,4
352,40,161599,1,8
208,40,162061,1,0
104,136,162522,2,0,B|32:216|104:296,1,180,8|0
232,368,163446,2,0,B|338:382|363:277,1,180,8|0
388,208,164138,5,0
400,136,164369,1,8
396,64,164599,1,0
400,136,164830,1,0
328,136,165061,2,0,B|224:136,1,90,0|8
272,200,165523,2,0,B|176:200,1,90,0|0
212,264,165984,2,0,B|116:264,1,90,0|8
56,136,166676,6,0,B|44:68|120:48,3,90,0|0|8|8
90,60,167599,1,2
90,60,167830,1,0
90,60,168061,1,8
232,60,168523,5,4
284,192,168984,1,8
232,328,169446,1,0
88,324,169907,2,0,B|40:264|156:224|68:156,1,180,8|0
16,32,170830,1,8
16,32,171061,1,0
160,32,171523,6,0,B|256:32,3,90,0|8|0|0
396,32,172676,1,8
472,156,173138,1,0
328,156,173599,1,8
184,160,174061,1,0
184,232,174292,2,0,B|184:280|248:280,1,90,0|8
248,200,174753,2,0,B|292:196|360:216|352:300|304:336,1,180,0|0
321,317,175446,1,8
465,317,175907,5,4
322,317,176369,1,8
465,316,176830,1,0
464,172,177292,2,0,B|360:172,1,90,8|0
464,108,177753,2,0,B|368:108,1,90,2|0
464,44,178215,2,0,B|368:44,1,90,8|0
228,60,178907,5,8
156,60,179138,1,0
192,124,179369,1,2
120,124,179599,1,8
84,188,179830,1,0
84,188,180061,1,0
84,188,180292,1,0
48,252,180523,6,0,B|8:292|48:344,1,90,8|0
40,332,180984,1,10
112,332,181215,1,0
184,332,181446,1,8
256,332,181676,1,0
304,276,181907,1,2
304,276,182138,1,0
304,276,182369,1,8
256,220,182599,6,0,B|256:128,1,90,2|8
256,130,183292,1,4
