osu file format v9

[General]
AudioFilename: WHY.mp3
AudioLeadIn: 2000
PreviewTime: 103476
Countdown: 0
SampleSet: Normal
StackLeniency: 0.8
Mode: 0
LetterboxInBreaks: 0

[Editor]
Bookmarks: 42061,55446
DistanceSpacing: 0.9
BeatDivisor: 4
GridSize: 4

[Metadata]
Title:WHY
Artist:4Minute
Creator:IchiGUN
Version:Easy
Source:
Tags:k-pop wowshakhov black_cherry_ita

[Difficulty]
HPDrainRate:2
CircleSize:3
OverallDifficulty:2
ApproachRate:2
SliderMultiplier:1
SliderTickRate:2

[Events]
//Background and Video events
0,0,"wallp.jpg"
Video,100,"WHY.avi"
//Break Periods
2,22876,24809
2,70876,72809
2,118876,120809
//Storyboard Layer 0 (Background)
//Storyboard Layer 1 (Fail)
//Storyboard Layer 2 (Pass)
//Storyboard Layer 3 (Foreground)
//Storyboard Sound Samples
//Background Colour Transformations
3,100,163,162,255

[TimingPoints]
523,461.538461538462,4,1,0,60,1,0
7792,-100,4,2,0,60,0,0
7907,-100,4,2,0,60,0,1
8023,-100,4,1,0,60,0,1
22215,-100,4,1,0,60,0,0
26311,-100,4,2,0,60,0,0
26426,-100,4,1,0,60,0,0
55907,-100,4,1,0,60,0,1
63234,-100,4,2,0,60,0,1
63349,-100,4,1,0,60,0,1
70215,-100,4,1,0,60,0,0
79792,-100,4,2,0,80,0,0
80484,-100,4,2,0,60,0,0
81176,-100,4,1,0,60,0,0
103907,-100,4,1,0,60,0,1
111234,-100,4,2,0,60,0,1
111349,-100,4,1,0,60,0,1
111696,-100,4,2,0,60,0,1
111811,-100,4,1,0,60,0,1
118215,-100,4,1,0,60,0,0
137484,-100,4,2,0,60,0,0
151907,-100,4,1,0,60,0,0
153753,-100,4,2,0,60,0,1
153811,-100,4,1,0,60,0,1
168465,-100,4,2,0,60,0,1
168580,-100,4,1,0,60,0,1
175792,-100,4,2,0,60,0,1
176023,-100,4,1,0,60,0,1
183292,-100,4,1,0,60,0,0

[Colours]
Combo1 : 240,5,5
Combo2 : 255,128,64
Combo3 : 243,216,20
SliderBorder : 255,255,255

[HitObjects]
156,196,523,2,0,B|156:316|360:316|360:192,1,300,0|8
392,116,2369,1,0
392,116,2830,2,0,B|344:92|284:120,1,100,8|0
256,292,4215,5,0
180,244,4676,1,8
188,156,5138,2,0,B|208:108|260:88|260:88|308:108|332:164,1,200
344,244,6523,2,0,B|396:260|444:244,1,100,8|0
392,72,7907,5,4
392,72,8369,2,0,B|336:104|296:104,1,100,8|0
232,44,9292,2,0,B|132:152|323:172|224:288,1,250,8|0
28,188,11599,5,0
28,188,12061,2,0,B|132:188,1,100,8|0
124,96,12984,2,0,B|256:96|256:284|112:284,1,300,8|0
28,132,15292,5,4
96,76,15753,1,8
168,132,16215,1,0
348,140,17138,2,0,B|372:188|348:244,2,100,0|8|0
272,188,18523,6,0,B|156:188,1,100,8|0
260,320,19907,2,0,B|109:332|0:196|112:4|276:48,1,500
256,136,22676,1,4
104,288,26369,5,4
256,192,27292,1,0
316,124,27753,2,0,B|360:164|344:228,1,100,8|0
360,304,28676,2,0,B|420:320|472:300,2,100,8|0|8
284,352,30061,5,4
256,192,30984,1,0
196,124,31446,2,0,B|152:164|168:228,1,100,8|0
152,304,32369,2,0,B|92:320|40:300,2,100,8|0|8
228,352,33753,5,4
164,184,34676,2,0,B|164:52|348:52|348:184,1,300,0|8
256,180,36523,2,0,B|256:288,2,100,0|8|0
256,192,37907,12,4,41138
124,68,42061,6,0,B|199:18|257:91|257:91|328:18|390:70,1,300,2|10
336,160,43907,2,0,B|336:272,2,100,0|8|0
256,320,45753,6,0,B|160:348|160:348|60:320,1,200
76,232,47138,1,8
140,168,47599,1,0
180,88,48061,1,8
256,36,48523,5,4
256,124,48984,2,0,B|256:228,1,100,8|0
208,300,49907,2,0,B|256:332|320:296,2,100,8|0|8
252,220,51292,2,0,B|200:188|136:220,2,100,0|8|0
256,40,53138,5,0
312,112,53599,1,8
368,40,54061,1,0
420,112,54523,1,8
420,112,54984,2,0,B|420:220,2,100,0|8|4
348,60,56369,6,0,B|296:48|244:60,1,100,8|0
172,104,57292,1,8
112,176,57753,2,0,B|108:244|236:244|256:300|256:300|280:244|408:244|408:164,1,400,0|4
460,104,60061,2,0,B|412:76|352:108,1,100,8|0
256,248,61446,5,0
256,160,61907,1,8
256,160,62369,2,0,B|164:72|164:200|70:136,1,200,0|4
120,64,63753,6,0,B|152:24|212:20,1,100,8|0
288,60,64676,1,8
356,116,65138,2,0,B|400:216|356:320,1,200
256,164,66984,5,0
256,256,67446,1,8
256,344,67907,1,0
436,344,68830,5,0
436,252,69292,1,8
436,164,69753,1,0
380,96,70215,2,0,B|332:80|332:80|284:96,1,100,0|4
80,196,74369,5,4
256,192,75292,1,0
316,128,75753,2,0,B|348:92|348:92|408:92,2,100,8|0|8
256,192,77138,2,0,B|256:300,2,100,0|8|4
256,32,78984,5,0
200,104,79446,2,0,B|164:144|164:144|108:144,1,100,8|0
140,232,80369,2,0,B|148:292|256:344|360:292|376:228,1,300,8|4
384,140,82215,6,0,B|337:140|337:140|301:100,1,100,8|0
240,32,83138,1,0
160,72,83599,2,0,B|35:72|35:276|170:276,1,300,0|8
176,188,85446,6,0,B|236:196|252:248,1,100,0|8
208,324,86369,2,0,B|256:352|304:328,1,100,0|8
356,256,87292,2,0,B|372:204|356:152,2,100,0|8|0
488,136,89138,5,4
488,136,89599,2,0,B|488:36,1,100,8|0
400,44,90523,1,8
312,60,90984,2,0,B|184:96|220:232,1,200
224,300,92369,1,8
308,328,92830,2,0,B|432:312|452:192,1,200
324,80,94676,6,0,B|260:84|240:148,1,100,0|8
328,168,95599,2,2,B|304:220|232:220,2,100,2|8|2
188,52,97446,6,0,B|80:176|180:344,1,300,2|10
260,336,99292,2,0,B|364:300|372:172,1,200
372,96,100676,1,8
284,84,101138,6,2,B|224:80|180:100,1,100,2|8
132,172,102061,2,2,B|132:228|180:264,2,100,2|8|2
256,300,103907,5,4
340,256,104369,1,8
352,168,104830,1,0
392,88,105292,2,0,B|316:64|268:108|260:140|260:140|252:108|204:64|124:88,1,300,8|0
172,168,107138,5,8
172,168,107599,2,0,B|172:276,2,100,4|8|0
336,340,109446,2,0,B|241:251|432:151|324:43,1,300,0|8
272,124,111292,6,0,B|228:164|236:232,1,100,4|8
236,304,112215,1,0
160,352,112676,2,0,B|48:324,2,100,8|0|8
236,304,114061,1,0
412,260,114984,5,4
372,180,115446,1,8
304,120,115907,1,0
260,44,116369,1,8
204,116,116830,6,0,B|172:164|116:164,1,100,4|8
36,192,117753,2,0,B|24:248|52:300,2,100,0|8|4
256,192,122369,5,4
312,120,122830,2,0,B|368:120|368:120|404:144,1,100,8|0
436,228,123753,1,8
436,228,124215,2,0,B|340:280|220:224,1,200
176,176,125599,1,8
92,140,126061,6,0,B|124:88|188:92,2,100,4|8|0
176,176,127446,1,8
248,224,127907,2,0,B|328:224|328:224|380:204|380:204|464:204,2,200
256,136,130215,5,8
304,60,130676,1,0
392,36,131138,2,0,B|448:48|456:108,2,100,8|0|8
360,120,132523,2,0,B|196:240,1,200,0|4
136,300,133907,1,8
40,148,134830,6,0,B|56:96|116:80,1,100,8|0
136,168,135753,2,0,B|192:160|216:108,2,100,8|0|8
188,240,137138,1,0
256,304,137599,5,8
320,240,138061,2,0,B|352:212|352:212|424:212,1,100,0|8
484,160,138984,2,2,B|472:40|344:48,1,200
256,48,140369,2,2,B|172:48|52:108|36:224,1,300,10|2
108,276,142215,6,0,B|128:328|188:352,1,100,8|0
264,324,143138,2,0,B|308:292|296:228,1,100,8|0
328,152,144061,1,8
380,76,144523,2,0,B|328:52|276:76,2,100,4|8|0
376,164,145907,1,8
320,236,146369,5,4
320,236,146830,2,0,B|276:268|212:244,1,100,8|0
256,164,147753,2,0,B|136:136|68:228,1,200,8|8
68,308,149138,1,0
152,280,149599,6,0,B|196:256|196:256|248:284,1,100,8|0
324,308,150523,2,0,B|376:332|376:332|428:304,2,100,8|0|8
280,228,151907,5,4
236,148,152369,1,8
192,68,152830,1,0
148,148,153292,1,8
100,224,153753,5,4
168,284,154215,2,0,B|224:316,2,50,8|0|0
100,224,155138,2,0,B|148:136|280:124,1,200,8|8
352,152,156523,2,0,B|324:212|256:208,2,100,0|8|0
268,124,157907,5,8
188,84,158369,1,0
108,124,158830,1,8
40,184,159292,6,0,B|72:228|144:216,1,100,0|8
108,124,160215,2,0,B|160:112|216:128,2,100,0|8|4
156,204,161599,5,8
232,252,162061,1,0
308,304,162523,2,0,B|360:248|360:248|360:116,1,200,8|8
340,36,163907,2,0,B|280:52|264:108,2,100,0|8|0
364,124,165292,6,0,B|346:189|285:215|225:202|194:158|194:158|129:223,1,300,10|2
68,276,167138,2,0,B|140:328|208:272,2,150,8|0|4
136,216,168984,6,0,B|136:108,1,100,8|0
220,80,169907,1,8
300,116,170369,2,0,B|300:232,1,100,0|8
252,292,171292,1,0
180,348,171753,2,0,B|124:368|60:344,2,100,8|4|8
252,292,173138,6,0,B|276:236|324:220,1,100,0|8
388,160,174061,2,0,B|328:100|256:156|256:156|172:100|108:172,1,300,2|10
184,224,175907,6,0,B|132:264|72:244,2,100,4|8|0
228,144,177292,1,8
304,96,177753,2,0,B|392:172|204:292|312:372,1,300,2|10
256,192,179599,12,4,183292
