osu file format v13

[General]
AudioFilename: 4MINUTE - Volume Up.mp3
AudioLeadIn: 0
PreviewTime: 83637
Countdown: 0
SampleSet: None
StackLeniency: 0.6
Mode: 0
LetterboxInBreaks: 0
WidescreenStoryboard: 0

[Editor]
DistanceSpacing: 0.8
BeatDivisor: 4
GridSize: 4
TimelineZoom: 1

[Metadata]
Title:Volume Up
TitleUnicode:볼륨업
Artist:4Minute
ArtistUnicode:포미닛
Creator:OscaR CUBE
Version:Normal
Source:
Tags:girlband pop group kpop k-pop cube entertainment
BeatmapID:455822
BeatmapSetID:191483

[Difficulty]
HPDrainRate:5
CircleSize:3
OverallDifficulty:4
ApproachRate:5
SliderMultiplier:0.799999999999999
SliderTickRate:1

[Events]
//Background and Video events
0,0,"2.jpg",0,0
Video,-89,"4Minute - Volume Up.avi"
//Break Periods
2,113175,126560
2,201991,213283
//Storyboard Layer 0 (Background)
//Storyboard Layer 1 (Fail)
//Storyboard Layer 2 (Pass)
//Storyboard Layer 3 (Foreground)
//Storyboard Sound Samples
//Background Colour Transformations
3,100,163,162,255

[TimingPoints]
24560.4669611215,461.538461538462,4,2,0,40,1,0
39329,-66.6666666666667,4,2,0,45,0,0
46714,-66.6666666666667,4,2,1,45,0,0
46945,-66.6666666666667,4,2,0,45,0,0
47636,-66.6666666666667,4,2,1,45,0,0
47868,-66.6666666666667,4,2,0,45,0,0
48560,-66.6666666666667,4,2,1,45,0,0
48791,-66.6666666666667,4,2,0,45,0,0
50406,-66.6666666666667,4,2,1,45,0,0
50637,-66.6666666666667,4,2,0,45,0,0
52252,-66.6666666666667,4,2,1,45,0,0
52483,-66.6666666666667,4,2,0,45,0,0
68868,-66.6666666666667,4,2,0,60,0,0
83175,-66.6666666666667,4,2,2,60,0,0
83637,-55.5555555555556,4,1,0,70,0,1
98406,-66.6666666666667,4,2,0,60,0,0
157022,-66.6666666666667,4,2,2,60,0,0
157483,-55.5555555555556,4,1,0,70,0,1
172252,-66.6666666666667,4,2,0,60,0,0
187022,-100,4,2,0,45,0,0
188868,-100,4,2,3,25,0,0
189098,-100,4,2,0,45,0,0
192560,-100,4,2,3,25,0,0
192791,-100,4,2,0,45,0,0
196252,-100,4,2,3,25,0,0
196483,-100,4,2,0,45,0,0
216098,-100,4,2,2,45,0,0
216560,-55.5555555555556,4,1,0,70,0,1
231329,-66.6666666666667,4,2,0,60,0,0
246098,-100,4,2,0,30,0,0
252791,-100,4,2,0,20,0,0
253252,-100,4,2,0,12,0,0
253483,-100,4,2,0,5,0,0

[Colours]
Combo1 : 255,177,100
Combo2 : 125,0,0
Combo3 : 255,0,0
Combo4 : 255,149,149
Combo5 : 255,128,0

[HitObjects]
96,160,24560,6,0,P|128:260|264:264,1,240,2|0,0:0|0:0,0:0:0:0:
276,236,26175,2,0,P|303:197|343:188,1,79.9999999999999
424,220,27098,2,0,P|460:205|480:171,1,79.9999999999999
424,96,28022,1,0,0:0:0:0:
424,96,28252,6,0,B|368:60|328:156|264:96,1,160,2|0,0:0|0:0,0:0:0:0:
229,93,29406,2,0,P|170:104|154:147,1,79.9999999999999
128,212,30329,1,0,0:0:0:0:
184,292,30791,2,0,P|224:232|220:180,1,120
188,96,31945,6,0,B|264:68|264:68|340:88|340:88|432:56,1,240,2|0,0:0|0:0,0:0:0:0:
460,80,33560,2,0,P|472:140|456:180,1,79.9999999999999
424,244,34483,1,0,0:0:0:0:
336,284,34945,1,0,0:0:0:0:
260,224,35406,2,0,B|208:168|96:288|68:216,1,200,2|0,0:0|0:0,0:0:0:0:
60,180,36791,6,0,P|72:128|92:108,1,79.9999999999999
184,68,37714,1,0,0:0:0:0:
268,124,38175,2,0,P|304:176|272:256,1,120
178,311,39329,6,0,P|146:262|152:204,1,120.000004577637,0|8,0:0|0:0,0:0:0:0:
240,244,40252,1,0,0:0:0:0:
328,204,40714,2,0,B|340:168|340:168|372:144|372:144|388:100,1,120.000004577637,8|0,0:0|0:0,0:0:0:0:
316,40,41637,1,8,0:0:0:0:
288,80,41868,2,0,P|220:116|176:88,1,120.000004577637
156,64,42560,1,8,0:0:0:0:
72,112,43022,5,0,0:0:0:0:
48,204,43483,1,8,0:0:0:0:
100,284,43945,2,0,B|128:248|128:248|168:268|224:240,1,120.000004577637,0|8,0:0|0:0,0:0:0:0:
280,304,44868,1,0,0:0:0:0:
364,256,45329,1,8,0:0:0:0:
372,160,45791,2,0,B|340:132|340:132|296:132|296:132|228:72,1,120.000004577637,0|12,0:0|0:0,0:0:0:0:
184,56,46714,6,0,L|132:100,1,60.0000022888184,2|0,0:0|0:0,0:0:0:0:
101,126,47175,1,8,0:0:0:0:
124,220,47637,2,0,L|164:288,1,60.0000022888184,2|0,0:0|0:0,0:0:0:0:
196,300,48098,2,0,P|264:276|288:228,1,120.000004577637,8|2,0:0|0:0,0:0:0:0:
284,140,49022,1,8,0:0:0:0:
284,92,49252,2,0,P|308:36|368:28,1,120.000004577637
408,36,49945,1,8,0:0:0:0:
492,84,50406,5,2,0:0:0:0:
488,180,50868,1,8,0:0:0:0:
412,240,51329,2,0,B|392:276|392:276|360:288|360:288|332:336,1,120.000004577637,0|8,0:0|0:0,0:0:0:0:
240,320,52252,1,2,0:0:0:0:
156,276,52714,1,8,0:0:0:0:
124,184,53175,2,0,B|144:152|144:152|180:140|180:140|204:100,1,120.000004577637,0|8,0:0|0:0,0:0:0:0:
300,84,54098,6,0,P|384:112|424:208,1,180.000006866455,4|4,0:3|0:3,0:0:0:0:
348,312,55483,2,0,L|320:252,1,60.0000022888184,8|0,0:0|0:0,0:0:0:0:
300,216,55945,2,0,P|220:280|140:256,1,180.000006866455,4|4,0:3|0:3,0:0:0:0:
68,148,57329,2,0,L|112:88,1,60.0000022888184,8|0,0:0|0:0,0:0:0:0:
132,56,57791,5,4,0:3:0:0:
208,112,58252,1,8,0:0:0:0:
284,52,58714,1,0,0:0:0:0:
360,112,59175,1,8,0:0:0:0:
432,52,59637,2,0,P|448:136|384:204,1,180.000006866455,4|4,0:3|0:3,0:0:0:0:
264,272,61022,1,8,0:0:0:0:
172,240,61483,6,0,P|112:168|144:72,1,180.000006866455,4|4,0:3|0:3,0:0:0:0:
260,56,62868,1,8,0:0:0:0:
296,144,63329,2,0,B|348:172|348:172|380:228|380:228|448:260,1,180.000006866455,4|4,0:3|0:3,0:0:0:0:
303,289,64714,1,8,0:0:0:0:
208,308,65175,5,4,0:3:0:0:
116,284,65637,1,8,0:0:0:0:
76,196,66098,1,0,0:0:0:0:
108,104,66560,1,8,0:0:0:0:
192,56,67022,2,0,L|316:92,1,120.000004577637,4|8,0:3|0:0,0:0:0:0:
352,108,67714,2,0,P|304:180|340:264,1,180.000006866455,4|8,0:3|0:0,0:0:0:0:
256,192,68868,12,0,72098,0:0:0:0:
212,84,73022,5,8,0:0:0:0:
156,160,73483,2,0,P|210:180|284:141,1,120.000004577637,0|8,0:0|0:0,0:0:0:0:
324,84,74406,1,0,0:0:0:0:
396,20,74868,2,0,L|424:88,1,60.0000022888184
408,116,75329,2,0,P|388:176|436:236,1,120.000004577637,0|8,0:0|0:0,0:0:0:0:
360,304,76252,5,2,0:0:0:0:
276,256,76714,1,8,0:0:0:0:
192,304,77175,2,0,P|184:228|216:180,1,120.000004577637,2|8,0:0|0:0,0:0:0:0:
276,128,78098,1,2,0:0:0:0:
348,192,78560,1,8,0:0:0:0:
420,128,79022,2,0,P|444:200|420:256,1,120.000004577637,2|8,0:0|0:0,0:0:0:0:
360,308,79945,5,2,0:0:0:0:
276,264,80406,1,10,0:0:0:0:
256,168,80868,2,0,P|268:100|220:48,1,120.000004577637,2|10,0:0|0:0,0:0:0:0:
172,124,81791,2,0,P|104:112|52:160,1,120.000004577637,2|10,0:0|0:0,0:0:0:0:
128,212,82714,2,0,P|116:280|164:332,1,120.000004577637,2|10,0:0|0:0,0:0:0:0:
252,352,83637,5,4,0:0:0:0:
344,284,84098,2,0,B|376:244|376:244|432:224|432:224|456:188,1,143.999995605469,2|0,0:0|0:0,0:0:0:0:
424,84,85022,1,2,0:0:0:0:
316,48,85483,1,0,0:0:0:0:
272,84,85714,2,0,P|232:108|196:100,1,71.9999978027344
152,120,86175,2,0,P|137:201|164:264,1,143.999995605469
248,184,87098,2,0,L|316:216,1,71.9999978027344
364,244,87560,2,0,P|296:284|304:388,1,143.999995605469
232,368,88252,6,0,P|192:364|168:340,1,71.9999978027344
132,296,88714,2,0,B|88:272|88:272|48:272|48:272|0:244,2,143.999995605469,2|0|2,0:0|0:0|0:0,0:0:0:0:
188,284,89868,2,0,B|232:260|232:260|272:260|272:260|320:232,1,143.999995605469,0|0,0:0|0:0,0:0:0:0:
400,152,90791,2,0,L|336:104,1,71.9999978027344
284,116,91252,2,0,B|240:84|240:84|200:84|200:84|152:48,1,143.999995605469
100,68,91945,6,0,P|72:92|96:192,1,143.999995605469,0|2,0:0|0:0,0:0:0:0:
133,298,92868,2,0,L|184:248,1,71.9999978027344,0|0,0:0|0:0,0:0:0:0:
228,212,93329,2,0,P|268:296|328:316,1,143.999995605469,2|0,0:0|0:0,0:0:0:0:
404,260,94252,1,2,0:0:0:0:
420,204,94483,2,0,P|380:120|320:100,2,143.999995605469,0|0|0,0:0|0:0|0:0,0:0:0:0:
320,196,95868,5,0,0:0:0:0:
272,168,96098,1,2,0:0:0:0:
248,116,96329,2,0,P|176:120|120:176,1,143.999995605469
32,236,97252,2,0,P|84:279|165:275,1,143.999995605469
268,240,98175,1,0,0:0:0:0:
268,240,98406,6,0,B|316:306|316:306|401:266|515:249|577:172|512:66|436:56|376:112|376:112|376:32|252:-24|188:70|210:173|274:225,1,840.000032043457,4|2,0:0|0:0,0:0:0:0:
176,256,102098,6,0,L|92:296,2,60.0000022888184,0|0|8,0:0|0:0|0:0,0:0:0:0:
220,236,102791,2,0,B|260:220|260:220|296:220|296:220|356:192,1,120.000004577637
376,176,103483,1,8,0:0:0:0:
392,80,103945,6,0,L|476:120,2,60.0000022888184,0|0|8,0:0|0:0|0:0,0:0:0:0:
344,64,104638,2,0,B|304:80|304:80|268:80|268:80|230:97,1,120.000004577637
188,120,105329,1,8,0:0:0:0:
256,192,105791,12,0,108560,0:0:0:0:
100,144,109483,6,0,P|124:100|156:88,2,60.0000022888184,0|0|8,0:0|0:0|0:0,0:0:0:0:
104,192,110175,2,0,B|120:244|212:188|208:312,1,120.000004577637
212,300,110868,1,8,0:0:0:0:
300,260,111329,6,0,P|324:304|356:316,2,60.0000022888184,0|0|8,0:0|0:0|0:0,0:0:0:0:
304,212,112021,2,0,B|320:160|412:216|408:92,1,120.000004577637
420,104,112714,1,8,0:0:0:0:
92,88,127945,6,0,P|180:112|220:212,1,180.000006866455,4|4,0:3|0:3,0:0:0:0:
316,292,129329,2,0,P|352:288|380:268,1,60.0000022888184
408,236,129791,2,0,P|320:172|316:124,1,120.000004577637,4|8,0:3|0:0,0:0:0:0:
308,120,130483,2,0,P|264:56|144:80,1,180.000006866455,4|8,0:3|0:0,0:0:0:0:
104,128,131637,5,4,0:3:0:0:
88,224,132098,1,8,0:0:0:0:
140,304,132560,2,0,L|232:224,1,120.000004577637,0|8,0:0|0:0,0:0:0:0:
268,317,133483,2,0,B|312:280|312:280|376:268|376:268|444:204,2,180.000006866455,4|4|8,0:3|0:3|0:0,0:0:0:0:
220,332,135098,1,0,0:0:0:0:
172,320,135329,6,0,P|88:280|96:172,1,180.000006866455,4|4,0:3|0:3,0:0:0:0:
96,156,136252,1,0,0:0:0:0:
174,100,136714,1,8,0:0:0:0:
248,36,137175,2,0,P|268:128|196:196,1,180.000006866455,4|4,0:3|0:3,0:0:0:0:
184,220,138098,1,0,0:0:0:0:
256,296,138560,1,8,0:0:0:0:
352,296,139022,5,4,0:3:0:0:
424,232,139483,1,8,0:0:0:0:
424,136,139945,1,0,0:0:0:0:
364,64,140406,2,0,P|284:56|240:100,1,120.000004577637,8|4,0:0|0:3,0:0:0:0:
228,116,141098,2,0,L|152:132,1,60.0000022888184,0|8,0:0|0:0,0:0:0:0:
120,136,141560,1,4,0:3:0:0:
72,220,142022,2,0,L|36:280,2,60.0000022888184,0|8|0,0:0|0:0|0:0,0:0:0:0:
256,192,142714,12,0,145945,0:0:0:0:
164,92,146868,5,8,0:0:0:0:
260,108,147329,1,0,0:0:0:0:
288,200,147791,1,8,0:0:0:0:
220,268,148252,2,0,P|288:296|352:272,1,120.000004577637,0|0,0:0|0:0,0:0:0:0:
380,204,149175,2,0,P|367:146|312:104,1,120.000004577637
228,100,150098,6,0,B|196:72|196:72|156:72|156:72|112:36,1,120.000004577637,2|0,0:0|0:0,0:0:0:0:
80,76,150791,1,0,0:0:0:0:
92,124,151022,2,0,B|124:152|124:152|164:152|164:152|193:175,1,120.000004577637,2|0,0:0|0:0,0:0:0:0:
216,212,151714,1,0,0:0:0:0:
252,244,151945,2,0,P|328:248|360:172,1,120.000004577637,2|0,0:0|0:0,0:0:0:0:
364,172,152637,1,0,0:0:0:0:
388,132,152868,2,0,P|452:116|512:156,1,120.000004577637,2|0,0:0|0:0,0:0:0:0:
436,224,153791,5,2,0:0:0:0:
400,312,154252,1,10,0:0:0:0:
308,340,154714,1,2,0:0:0:0:
224,296,155175,1,10,0:0:0:0:
200,204,155637,2,0,P|228:108|280:80,1,120.000004577637,2|2,0:0|0:0,0:0:0:0:
296,176,156560,2,0,P|336:128|335:69,1,120.000004577637,2|4,0:0|0:0,0:0:0:0:
240,98,157483,5,4,0:0:0:0:
124,88,157945,1,2,0:0:0:0:
48,176,158406,1,0,0:0:0:0:
64,288,158868,1,2,0:0:0:0:
164,348,159329,2,0,L|240:348,1,71.9999978027344
292,348,159791,1,2,0:0:0:0:
348,348,160022,2,0,P|329:273|352:207,1,143.999995605469
446,280,160945,2,0,P|465:205|442:139,1,143.999995605469
412,96,161637,1,2,0:0:0:0:
304,60,162098,5,0,0:0:0:0:
248,56,162329,1,0,0:0:0:0:
196,80,162560,2,0,P|164:104|152:152,1,71.9999978027344,2|0,0:0|0:0,0:0:0:0:
152,192,163022,2,0,B|152:244|152:244|168:284|168:284|168:344,2,143.999995605469,0|2|0,0:0|0:0|0:0,0:0:0:0:
188,148,164175,2,0,B|248:112|260:196|352:128,2,143.999995605469,0|0|0,0:0|0:0|0:0,0:0:0:0:
132,148,165329,1,2,0:0:0:0:
156,260,165791,6,0,P|184:304|212:320,1,71.9999978027344
252,340,166252,1,2,0:0:0:0:
308,340,166483,1,0,0:0:0:0:
360,316,166714,2,0,P|400:264|392:176,2,143.999995605469,0|2|0,0:0|0:0|0:0,0:0:0:0:
300,220,168098,1,2,0:0:0:0:
248,192,168329,2,0,B|172:196|212:116|108:116,2,143.999995605469,0|0|0,0:0|0:0|0:0,0:0:0:0:
344,128,169714,6,0,P|386:149|399:188,1,71.9999978027344,0|2,0:0|0:0,0:0:0:0:
404,228,170175,2,0,P|352:312|256:316,1,143.999995605469
200,316,171098,2,0,B|172:276|172:276|124:248|124:248|100:208,1,143.999995605469
212,172,172022,1,0,0:0:0:0:
212,172,172252,6,0,B|356:288|444:312|604:304|596:104|460:28|384:32|192:328,1,840.000032043457,4|2,0:0|0:0,0:0:0:0:
148,236,175945,6,0,L|68:236,2,60.0000022888184,0|0|8,0:0|0:0|0:0,0:0:0:0:
196,236,176637,2,0,B|232:200|276:284|320:228,1,120.000004577637
356,240,177329,1,8,0:0:0:0:
380,148,177791,6,0,L|460:148,2,60.0000022888184,0|0|8,0:0|0:0|0:0,0:0:0:0:
332,148,178483,2,0,B|296:112|252:196|208:140,1,120.000004577637
172,152,179175,1,8,0:0:0:0:
256,192,179637,12,0,182406,0:0:0:0:
136,272,183329,6,0,L|80:320,2,60.0000022888184,0|0|8,0:0|0:0|0:0,0:0:0:0:
176,244,184022,2,0,B|212:220|256:292|296:252,1,120.000004577637
328,232,184714,1,8,0:0:0:0:
388,156,185175,6,0,L|444:204,2,60.0000022888184,0|0|8,0:0|0:0|0:0,0:0:0:0:
348,128,185868,2,0,B|312:104|268:176|228:136,1,120.000004577637
196,116,186560,1,8,0:0:0:0:
100,72,187022,6,0,P|108:176|236:216,1,240,2|0,0:0|0:0,0:0:0:0:
300,152,188868,2,0,P|356:184|376:228,2,79.9999999999999,4|0|0,0:0|0:0|0:0,0:0:0:0:
248,152,190022,2,0,P|192:120|172:76,1,79.9999999999999,0|0,0:0|0:0,0:0:0:0:
148,72,190714,6,0,P|48:128|64:260,1,240,2|0,0:0|0:0,0:0:0:0:
136,300,192560,2,0,B|184:272|240:352|288:308,1,160,4|0,0:0|0:0,0:0:0:0:
364,236,193945,1,0,0:0:0:0:
364,132,194406,6,0,P|432:160|444:180,2,79.9999999999999,2|0|0,0:0|0:0|0:0,0:0:0:0:
272,184,195791,1,0,0:0:0:0:
272,288,196252,2,0,P|212:352|120:324,1,160,4|0,0:0|0:0,0:0:0:0:
100,320,197406,1,0,0:0:0:0:
76,272,197637,1,0,0:0:0:0:
84,220,197868,2,0,P|112:176|152:168,2,79.9999999999999,0|0|0,0:0|0:0|0:0,0:0:0:0:
180,260,199252,6,0,L|224:224,1,40
248,196,199714,2,0,B|272:116|476:136|472:28,1,280
471,46,201791,1,4,3:3:0:0:
256,192,214483,12,4,216098,0:0:0:0:
164,132,217022,5,2,0:0:0:0:
256,60,217483,1,0,0:0:0:0:
348,128,217945,1,2,0:0:0:0:
368,240,218406,2,0,P|400:200|432:196,2,71.9999978027344,0|0|2,0:0|0:0|0:0,0:0:0:0:
344,288,219098,2,0,P|256:332|184:296,1,143.999995605469
260,224,220022,2,0,B|240:176|240:176|208:148|208:148|188:96,1,143.999995605469
168,48,220714,1,2,0:0:0:0:
284,44,221175,5,0,0:0:0:0:
384,100,221637,1,2,0:0:0:0:
396,216,222098,2,0,L|460:252,2,71.9999978027344,0|0|2,0:0|0:0|0:0,0:0:0:0:
344,188,222791,2,0,P|280:224|208:176,1,143.999995605469
144,112,223714,2,0,P|108:172|123:241,1,143.999995605469,0|0,0:0|0:0,0:0:0:0:
160,284,224406,1,2,0:0:0:0:
272,252,224868,6,0,L|336:312,2,71.9999978027344,0|0|2,0:0|0:0|0:0,0:0:0:0:
252,136,225791,2,0,B|300:116|300:116|348:116|348:116|408:92,1,143.999995605469,0|2,0:0|0:0,0:0:0:0:
336,204,226714,2,0,B|294:221|294:221|246:221|246:221|198:241,1,143.999995605469,0|2,0:0|0:0,0:0:0:0:
144,228,227406,2,0,P|85:189|70:121,1,143.999995605469
76,64,228098,1,2,0:0:0:0:
184,28,228560,5,0,0:0:0:0:
276,100,229022,2,0,P|341:138|366:204,1,143.999995605469,2|0,0:0|0:0,0:0:0:0:
256,212,229945,2,0,L|256:292,2,71.9999978027344,2|0|0,0:0|0:0|0:0,0:0:0:0:
172,288,230868,1,2,0:0:0:0:
172,288,231329,2,0,B|108:296|56:208|116:108|214:163|214:163|152:68|224:8|344:24|344:104|302:164|302:164|392:120|464:224|392:296|324:288,1,840.000032043457,4|2,0:0|0:0,0:0:0:0:
256,252,235022,6,0,L|256:328,2,60.0000022888184,0|0|8,0:0|0:0|0:0,0:0:0:0:
256,204,235714,2,0,B|232:136|144:144,1,120.000004577637
116,152,236406,1,8,0:0:0:0:
144,60,236868,6,0,L|76:60,2,60.0000022888184,0|0|8,0:0|0:0|0:0,0:0:0:0:
192,60,237560,2,0,B|232:36|264:92|316:56,1,120.000004577637
356,64,238252,1,8,0:0:0:0:
256,192,238714,12,0,241483,0:0:0:0:
400,280,242406,6,0,L|468:332,2,60.0000022888184,0|0|8,0:0|0:0|0:0,0:0:0:0:
360,252,243098,2,0,P|296:304|236:272,1,120.000004577637
224,276,243791,1,8,0:0:0:0:
244,180,244252,6,0,L|176:128,2,60.0000022888184,0|0|8,0:0|0:0|0:0,0:0:0:0:
284,208,244944,2,0,P|348:156|408:188,1,120.000004577637
416,192,245637,1,8,0:0:0:0:
416,88,246098,6,0,P|284:88|208:172,1,240,2|0,0:0|0:0,0:0:0:0:
196,208,247714,2,0,P|160:244|116:256,1,79.9999999999999
44,200,248637,1,0,0:0:0:0:
64,96,249098,1,0,0:0:0:0:
160,56,249560,1,0,0:0:0:0:
196,96,249791,6,0,B|252:180|372:112,1,160,2|0,0:0|0:0,0:0:0:0:
384,152,250945,2,0,P|424:220|424:252,2,79.9999999999999,0|0|0,0:0|0:0|0:0,0:0:0:0:
324,236,252329,2,0,B|224:236|224:236|220:232|220:232|216:236|216:236|212:240|212:240|208:236|208:236|204:232|204:232|200:236|200:236|196:240|196:240|192:236|192:236|188:232|188:232|184:236|184:236|180:240|180:240|176:236|176:236|172:232|172:232|168:236|168:236|164:240|164:240|160:236|160:236|156:232|156:232|152:236|152:236|148:240|148:240|144:236|144:236,1,200,0|2,0:0|0:0,0:0:0:0:
