osu file format v9

[General]
AudioFilename: 06 Dream Racer.mp3
AudioLeadIn: 0
PreviewTime: 43592
Countdown: 1
SampleSet: Normal
StackLeniency: 0.7
Mode: 0
LetterboxInBreaks: 1

[Editor]
DistanceSpacing: 0.8
BeatDivisor: 4
GridSize: 32

[Metadata]
Title:Dream Racer
Artist:4MINUTE
Creator:Wizard Of Orz
Version:Hard
Source:
Tags:kpop korean pop hyuna 4 minute moe orz pig

[Difficulty]
HPDrainRate:7
CircleSize:5
OverallDifficulty:7
ApproachRate:7
SliderMultiplier:1.4
SliderTickRate:1

[Events]
//Background and Video events
//Break Periods
2,37178,42928
//Storyboard Layer 0 (Background)
//Storyboard Layer 1 (Fail)
//Storyboard Layer 2 (Pass)
//Storyboard Layer 3 (Foreground)
//Storyboard Sound Samples
//Background Colour Transformations
3,100,163,162,255

[TimingPoints]
364,472.44094488189,4,1,0,100,1,0

[HitObjects]
160,64,22332,5,0
192,64,22568,1,0
192,96,22804,1,0
192,96,23041,1,0
192,96,23513,1,0
192,96,23749,1,0
192,96,23986,1,0
192,96,24222,1,0
192,64,24458,1,0
192,96,24694,1,0
192,96,24930,1,0
192,96,25167,1,0
192,96,25403,1,0
192,96,25639,1,0
192,96,25875,1,0
192,96,26112,1,0
192,96,26348,1,0
192,96,26584,1,0
192,96,26820,1,0
192,96,27293,1,0
192,96,27529,1,0
192,96,27765,1,0
192,96,28001,1,0
192,96,28238,1,0
192,96,28474,1,0
192,96,28710,1,0
192,96,28946,1,0
192,96,29182,1,0
192,96,29419,1,0
192,96,29655,1,0
192,160,30127,1,0
192,160,30364,1,0
192,160,30600,1,0
192,160,30836,1,0
192,160,31072,1,0
192,160,31308,1,0
192,160,31545,1,0
192,160,31781,1,0
192,160,32017,1,0
192,160,32489,1,0
192,160,32726,1,0
192,160,32962,1,0
192,160,33198,1,0
192,160,33434,1,0
192,160,33671,1,0
192,160,33907,1,0
192,160,34143,1,0
192,160,34379,1,0
192,160,34615,1,0
192,160,35088,1,0
192,160,35560,1,0
192,160,35797,1,0
192,160,36033,1,0
192,160,36269,1,0
192,160,36505,1,0
192,160,36978,1,0
256,192,43828,12,0,45245
160,128,45718,5,0
160,128,46190,1,0
160,128,46663,1,0
160,128,47017,1,0
160,128,47371,1,0
160,128,47844,1,0
160,128,48080,1,0
160,128,48316,1,0
160,128,48552,1,0
160,128,48789,1,0
160,128,49025,1,0
160,128,49261,1,0
160,128,49497,1,0
160,128,49970,1,0
160,128,50206,1,0
224,192,51623,1,0
224,192,51860,1,0
224,192,52096,1,0
224,192,52332,1,0
224,192,52804,1,0
224,192,53041,1,0
224,192,53277,1,0
224,192,53749,1,0
224,192,54222,1,0
224,192,54576,1,0
224,192,54930,1,0
224,192,55403,1,0
224,192,55639,1,0
224,192,55875,1,0
224,192,56112,1,0
224,192,56348,1,0
224,192,56584,1,0
224,192,56820,1,0
224,192,57056,1,0
224,192,57529,1,0
224,192,57765,1,0
224,192,59655,1,0
224,192,59891,1,0
224,192,60127,1,0
224,192,60364,1,0
224,192,60836,1,0
224,192,61190,1,0
224,192,61308,1,0
224,192,61545,1,0
224,192,62017,1,0
224,192,62253,1,0
224,192,62489,1,0
224,192,62962,1,0
224,192,63198,1,0
224,192,63434,1,0
224,192,63671,1,0
224,192,63907,1,0
224,192,64143,1,0
224,192,64615,1,0
224,192,64970,1,0
224,192,65088,1,0
224,192,65324,1,0
224,192,65797,1,0
224,192,66033,1,0
224,192,66269,1,0
224,192,66505,1,0
224,192,66741,1,0
224,192,66978,1,0
224,192,67214,1,0
224,192,67450,1,0
224,192,67686,1,0
224,192,67922,1,0
224,192,68159,1,0
224,192,68395,1,0
224,192,68749,1,0
224,192,68867,1,0
224,192,69104,1,0
224,192,69576,1,0
224,192,69812,1,0
224,192,70049,1,0
224,192,70521,1,0
224,192,70757,1,0
224,192,70993,1,0
224,192,71230,1,0
224,192,71466,1,0
224,192,71702,1,0
224,192,72175,1,0
224,192,72529,1,0
224,192,72647,1,0
224,192,72883,1,0
224,192,73356,1,0
224,192,73592,1,0
224,192,73828,1,0
224,192,74301,1,0
224,192,74537,1,0
224,192,74773,1,0
224,192,75009,1,0
224,192,75245,1,0
224,192,75482,1,0
160,288,75953,1,0
