osu file format v14

[General]
AudioFilename: Katawa Shoujo - Emi Cutscene.mp3
AudioLeadIn: 0
PreviewTime: -1
Countdown: 1
SampleSet: Soft
StackLeniency: 0.5
Mode: 0
LetterboxInBreaks: 1
WidescreenStoryboard: 0

[Editor]
DistanceSpacing: 1
BeatDivisor: 16
GridSize: 32
TimelineZoom: 1.5

[Metadata]
Title:2x400m Relay
TitleUnicode:2x400m Relay
Artist:4LeafStudios
ArtistUnicode:4LeafStudios
Creator:jloughman14
Version:Hard
Source:Katawa Shoujo
Tags:Katawa Shoujo Visual Novel Emi
BeatmapID:638327
BeatmapSetID:282269

[Difficulty]
HPDrainRate:6
CircleSize:4.3
OverallDifficulty:6
ApproachRate:7.4
SliderMultiplier:1.4
SliderTickRate:1

[Events]
//Background and Video events
Video,-429,"Katawa_Shoujo_-_Emi_Cutscene.flv"
0,0,"EMIIIII.png",0,0
//Break Periods
2,22502,27310
2,47099,49479
//Storyboard Layer 0 (Background)
//Storyboard Layer 1 (Fail)
//Storyboard Layer 2 (Pass)
//Storyboard Layer 3 (Foreground)
//Storyboard Sound Samples

[TimingPoints]
-31.0024323946416,441.176470588235,4,2,0,11,1,0

[Colours]
Combo1 : 255,128,255
Combo2 : 0,202,0
Combo3 : 18,124,255
Combo4 : 242,24,57
Combo5 : 255,192,0
Combo6 : 0,0,255
Combo7 : 255,128,0
Combo8 : 64,0,64

[HitObjects]
256,192,373,6,0,L|256:160,2,23.3333333333333,0|0|0,0:0|0:0|0:0,0:0:0:0:
448,96,1255,2,0,L|448:64,2,23.3333333333333,0|0|0,0:0|0:0|0:0,0:0:0:0:
224,64,2101,2,0,L|192:64,2,23.3333333333333,0|0|0,0:0|0:0|0:0,0:0:0:0:
64,64,3571,6,0,P|64:128|96:160,1,105,0|0,0:0|0:0,0:0:0:0:
192,96,4233,2,0,P|192:128|160:192,1,105,0|0,0:0|0:0,0:0:0:0:
64,256,4895,1,0,0:0:0:0:
160,320,5263,2,0,P|192:288|169:237,1,105
192,224,5667,1,0,0:0:0:0:
192,192,5731,2,0,B|288:96|288:96|352:128,1,201.25
416,192,6549,6,0,B|384:288|352:320|352:320|288:192|288:192|320:160,1,326.666666666667,0|0,0:0|0:0,0:0:0:0:
320,128,7799,2,0,L|320:64,1,58.3333333333333
256,96,8204,1,0,0:0:0:0:
192,128,8424,2,0,L|155:177,1,58.3333333333333
96,224,8829,2,0,P|96:288|128:320,1,105,0|0,0:0|0:0,0:0:0:0:
160,320,9233,1,0,0:0:0:0:
256,256,9564,6,0,P|288:224|306:174,1,93.3333333333333
352,96,10667,1,0,0:0:0:0:
288,64,10860,1,0,0:0:0:0:
224,64,11081,1,0,0:0:0:0:
160,96,11274,1,0,0:0:0:0:
128,160,11494,1,0,0:0:0:0:
128,224,11742,2,0,L|160:256,2,35
224,288,12358,1,0,0:0:0:0:
256,288,12468,1,0,0:0:0:0:
320,224,12763,6,0,P|352:160|293:43,1,210,0|0,0:0|0:0,0:0:0:0:
128,64,13976,1,0,0:0:0:0:
96,96,14049,1,0,0:0:0:0:
96,160,14270,1,0,0:0:0:0:
128,224,14500,2,0,P|160:288|277:251,1,210,0|0,0:0|0:0,0:0:0:0:
256,64,15630,2,0,L|272:79,2,17.5,0|0|0,0:0|0:0|0:0,0:0:0:0:
288,32,15933,1,0,0:0:0:0:
320,96,16264,5,0,0:0:0:0:
320,224,16678,2,0,P|288:256|283:253,1,61.25
128,192,17340,2,0,L|141:175,2,17.5
64,160,17671,1,0,0:0:0:0:
288,96,18415,6,0,P|320:128|352:96,1,96.25
192,96,19214,1,0,0:0:0:0:
160,96,19325,1,0,0:0:0:0:
128,96,19435,2,0,P|96:128|96:192,1,105,0|0,0:0|0:0,0:0:0:0:
320,160,21145,6,0,P|320:128|192:96,1,192.5,0|0,0:0|0:0,0:0:0:0:
128,192,22027,2,0,L|160:224,2,43.75,0|0|0,0:0|0:0|0:0,0:0:0:0:
256,160,28149,6,0,B|288:192|512:384|416:160,1,315,0|0,0:0|0:0,0:0:0:0:
64,96,30878,1,0,0:0:0:0:
320,192,31733,2,0,P|288:256|192:288,2,175,0|0|0,0:0|0:0|0:0,0:0:0:0:
128,128,33443,2,0,B|192:192|192:192|256:96|256:96|320:128,2,271.25,0|0|0,0:0|0:0|0:0,0:0:0:0:
416,64,36889,6,0,P|352:96|288:192,1,183.75,0|0,0:0|0:0,0:0:0:0:
128,192,38020,1,0,0:0:0:0:
192,256,38406,1,0,0:0:0:0:
256,192,38792,1,0,0:0:0:0:
352,256,39178,2,0,B|448:128|448:128|224:64|224:64|64:128,1,560,0|0,0:0|0:0,0:0:0:0:
320,224,41742,2,0,P|256:256|124:140,1,271.25,0|0,0:0|0:0,0:0:0:0:
224,288,44307,6,0,B|288:192|288:192|160:160|160:160|160:192,1,280,0|0,0:0|0:0,0:0:0:0:
416,96,46016,1,0,0:0:0:0:
128,160,46899,1,0,0:0:0:0:
256,192,50318,6,0,L|224:160|192:128,1,87.5,0|0,0:0|0:0,0:0:0:0:
128,96,50869,1,0,0:0:0:0:
224,64,51173,2,0,B|352:64|352:64|384:224,1,288.75,0|0,0:0|0:0,0:0:0:0:
448,128,52882,1,0,0:0:0:0:
384,192,53158,1,0,0:0:0:0:
288,224,53461,1,0,0:0:0:0:
192,224,53737,2,0,P|128:192|192:32,1,280,0|0,0:0|0:0,0:0:0:0:
448,64,55474,5,0,0:0:0:0:
0,352,57184,2,0,B|64:192|64:192|128:352|128:352|192:256|192:256|160:160,1,560,0|0,0:0|0:0,0:0:0:0:
