osu file format v14

[General]
AudioFilename: lycoris.mp3
AudioLeadIn: 0
PreviewTime: 90848
Countdown: 0
SampleSet: Soft
StackLeniency: 0.7
Mode: 3
LetterboxInBreaks: 0
SpecialStyle: 0
WidescreenStoryboard: 0

[Editor]
DistanceSpacing: 0.6
BeatDivisor: 4
GridSize: 4
TimelineZoom: 1

[Metadata]
Title:Isetsu Higanbana Daini -Shuusei no Lycoris-
TitleUnicode:異説彼岸花 第二 -終世のリコリス-
Artist:44teru-k remixed wa.
ArtistUnicode:44teru-k remixed wa.
Creator:liaoxingyao
Version:Hyper
Source:BMS
Tags:SanadaYukimura Of Fighters 2010 BOF2010 HARD RENAISSANCE 田井中 律 Tainaka Ritsu
BeatmapID:545318
BeatmapSetID:235278

[Difficulty]
HPDrainRate:7
CircleSize:4
OverallDifficulty:8
ApproachRate:5
SliderMultiplier:1.4
SliderTickRate:1

[Events]
//Background and Video events
0,0,"_lycoris_title.jpg",0,0
Video,-65,"lycoris_bga.flv"
//Break Periods
//Storyboard Layer 0 (Background)
//Storyboard Layer 1 (Fail)
//Storyboard Layer 2 (Pass)
//Storyboard Layer 3 (Foreground)
//Storyboard Sound Samples

[TimingPoints]
1361,342.857142857143,4,2,0,15,1,0
11989,-100,4,2,1,35,0,0
12332,-100,4,2,1,35,0,0
12503,-100,4,2,0,35,0,0
23303,-100,4,2,1,35,0,0
35646,-100,4,2,1,40,0,0
57589,-100,4,2,1,30,0,0
57761,-100,4,2,0,30,0,0
68218,-100,4,2,1,30,0,0
76618,-100,4,2,1,30,0,0
79532,-100,4,2,1,40,0,0
91875,-100,4,2,1,50,0,1
102161,-100,4,2,1,50,0,0
102846,-100,4,2,1,50,0,1
108332,-100,4,2,1,50,0,0

[HitObjects]
64,192,1361,5,0,0:0:0:0:
448,192,1361,1,0,0:0:0:0:
320,192,1532,1,2,0:0:0:0:
192,192,2046,1,0,0:0:0:0:
320,192,2389,1,0,0:0:0:0:
192,192,2732,1,2,0:0:0:0:
448,192,2732,1,0,0:0:0:0:
448,192,3589,1,0,0:0:0:0:
320,192,3761,1,0,0:0:0:0:
192,192,3932,1,0,0:0:0:0:
64,192,4103,1,0,0:0:0:0:
448,192,4103,1,2,0:0:0:0:
448,192,4789,1,0,0:0:0:0:
320,192,4961,1,0,0:0:0:0:
192,192,5132,1,0,0:0:0:0:
320,192,5303,1,0,0:0:0:0:
64,192,5475,1,0,0:0:0:0:
448,192,5475,1,2,0:0:0:0:
192,192,5989,1,2,0:0:0:0:
320,192,6503,1,2,0:0:0:0:
448,192,6503,1,0,0:0:0:0:
64,192,6846,1,0,0:0:0:0:
192,192,6846,1,2,0:0:0:0:
64,192,7361,1,0,0:0:0:0:
320,192,7361,1,2,0:0:0:0:
192,192,7875,1,2,0:0:0:0:
320,192,8046,1,0,0:0:0:0:
64,192,8218,1,2,0:0:0:0:
448,192,8218,1,0,0:0:0:0:
192,192,8732,1,2,0:0:0:0:
320,192,8732,1,0,0:0:0:0:
192,192,9246,1,2,0:0:0:0:
320,192,9418,1,0,0:0:0:0:
448,192,9589,1,2,0:0:0:0:
64,192,9589,128,0,10961:0:0:0:0:
448,192,10961,128,0,11989:0:0:0:0:
320,192,10961,1,2,0:0:0:0:
64,192,11989,1,6,0:0:0:0:
192,192,11989,1,0,0:0:0:0:
192,192,12332,1,6,0:0:0:0:
320,192,12332,1,0,0:0:0:0:
64,192,12503,1,0,0:0:0:0:
448,192,12675,1,0,0:0:0:0:
320,192,12846,1,0,0:0:0:0:
192,192,13018,1,0,0:0:0:0:
448,192,13189,1,0,0:0:0:0:
64,192,13361,1,0,0:0:0:0:
320,192,13532,1,0,0:0:0:0:
192,192,13703,1,0,0:0:0:0:
320,192,13789,1,0,0:0:0:0:
448,192,13875,1,0,0:0:0:0:
64,192,14046,1,0,0:0:0:0:
320,192,14218,1,0,0:0:0:0:
192,192,14389,1,0,0:0:0:0:
448,192,14561,1,0,0:0:0:0:
320,192,14732,1,0,0:0:0:0:
64,192,14903,1,0,0:0:0:0:
192,192,15075,1,0,0:0:0:0:
320,192,15246,1,0,0:0:0:0:
64,192,15418,1,0,0:0:0:0:
448,192,15589,1,0,0:0:0:0:
320,192,15761,1,0,0:0:0:0:
192,192,15932,1,0,0:0:0:0:
448,192,16103,1,0,0:0:0:0:
320,192,16275,1,0,0:0:0:0:
192,192,16446,1,0,0:0:0:0:
448,192,16618,1,0,0:0:0:0:
192,192,16789,1,0,0:0:0:0:
320,192,16961,1,0,0:0:0:0:
192,192,17132,1,0,0:0:0:0:
320,192,17218,1,0,0:0:0:0:
448,192,17303,1,0,0:0:0:0:
320,192,17475,1,0,0:0:0:0:
192,192,17646,1,0,0:0:0:0:
64,192,17818,1,0,0:0:0:0:
320,192,17989,1,0,0:0:0:0:
448,192,18161,1,0,0:0:0:0:
192,192,18332,1,0,0:0:0:0:
320,192,18503,1,0,0:0:0:0:
192,192,18675,1,0,0:0:0:0:
64,192,18846,1,0,0:0:0:0:
320,192,19018,1,0,0:0:0:0:
192,192,19189,1,0,0:0:0:0:
320,192,19275,1,0,0:0:0:0:
448,192,19361,1,0,0:0:0:0:
192,192,19532,1,0,0:0:0:0:
64,192,19703,1,0,0:0:0:0:
320,192,19875,1,0,0:0:0:0:
192,192,20046,1,0,0:0:0:0:
448,192,20218,1,0,0:0:0:0:
320,192,20389,1,0,0:0:0:0:
64,192,20561,1,0,0:0:0:0:
320,192,20732,1,0,0:0:0:0:
192,192,20903,1,0,0:0:0:0:
448,192,21075,1,0,0:0:0:0:
64,192,21246,1,0,0:0:0:0:
192,192,21418,1,0,0:0:0:0:
448,192,21589,1,0,0:0:0:0:
320,192,21761,1,0,0:0:0:0:
64,192,21932,1,0,0:0:0:0:
320,192,22103,1,0,0:0:0:0:
192,192,22275,1,0,0:0:0:0:
448,192,22446,1,0,0:0:0:0:
320,192,22618,1,0,0:0:0:0:
192,192,22789,1,0,0:0:0:0:
64,192,22961,1,0,0:0:0:0:
192,192,23132,1,0,0:0:0:0:
320,192,23303,1,6,0:0:0:0:
448,192,23303,1,0,0:0:0:0:
192,192,23475,1,2,0:0:0:0:
64,192,23646,1,2,0:0:0:0:
320,192,23818,1,2,0:0:0:0:
448,192,23989,1,2,0:0:0:0:
192,192,24161,1,2,0:0:0:0:
320,192,24332,1,2,0:0:0:0:
448,192,24503,1,2,0:0:0:0:
320,192,24675,1,2,0:0:0:0:
192,192,24761,1,0,0:0:0:0:
64,192,24846,1,2,0:0:0:0:
320,192,25018,1,2,0:0:0:0:
192,192,25189,1,2,0:0:0:0:
64,192,25361,1,2,0:0:0:0:
448,192,25532,1,2,0:0:0:0:
64,192,25703,1,2,0:0:0:0:
192,192,25875,1,2,0:0:0:0:
448,192,26046,1,2,0:0:0:0:
192,192,26218,1,2,0:0:0:0:
320,192,26389,1,2,0:0:0:0:
64,192,26561,1,2,0:0:0:0:
192,192,26732,1,2,0:0:0:0:
448,192,26903,1,2,0:0:0:0:
320,192,27075,1,2,0:0:0:0:
64,192,27246,1,2,0:0:0:0:
192,192,27418,1,2,0:0:0:0:
320,192,27589,1,2,0:0:0:0:
64,192,27761,1,2,0:0:0:0:
448,192,27932,1,2,0:0:0:0:
64,192,28103,1,2,0:0:0:0:
192,192,28189,1,0,0:0:0:0:
320,192,28275,1,2,0:0:0:0:
64,192,28446,1,2,0:0:0:0:
192,192,28618,1,2,0:0:0:0:
448,192,28789,1,2,0:0:0:0:
192,192,28961,1,2,0:0:0:0:
320,192,29132,1,2,0:0:0:0:
64,192,29303,1,2,0:0:0:0:
192,192,29475,1,2,0:0:0:0:
320,192,29646,1,2,0:0:0:0:
448,192,29818,1,2,0:0:0:0:
192,192,29989,1,2,0:0:0:0:
64,192,30161,1,2,0:0:0:0:
192,192,30246,1,0,0:0:0:0:
320,192,30332,1,2,0:0:0:0:
448,192,30503,1,2,0:0:0:0:
192,192,30675,1,2,0:0:0:0:
64,192,30846,1,2,0:0:0:0:
192,192,31018,1,2,0:0:0:0:
448,192,31189,1,2,0:0:0:0:
64,192,31361,1,2,0:0:0:0:
192,192,31532,1,2,0:0:0:0:
320,192,31703,1,2,0:0:0:0:
192,192,31875,1,2,0:0:0:0:
320,192,32046,1,2,0:0:0:0:
64,192,32218,1,2,0:0:0:0:
448,192,32389,1,2,0:0:0:0:
64,192,32561,1,2,0:0:0:0:
448,192,32732,1,2,0:0:0:0:
320,192,32903,1,2,0:0:0:0:
64,192,33075,1,2,0:0:0:70:bd - 2.wav
320,192,33246,1,2,0:0:0:0:
64,192,33418,1,2,0:0:0:70:bd - 3.wav
192,192,33589,1,2,0:0:0:0:
448,192,33761,1,2,0:0:0:70:bd - 4.wav
192,192,33932,1,2,0:0:0:0:
448,192,34103,1,2,0:0:0:70:bd - 5.wav
64,192,34275,1,6,0:0:0:0:
320,192,34275,1,0,0:0:0:0:
448,192,34361,1,0,0:0:0:0:
192,192,34446,1,0,0:0:0:0:
320,192,34532,1,0,0:0:0:0:
64,192,34618,1,0,0:0:0:0:
192,192,34703,1,0,0:0:0:0:
320,192,34789,1,0,0:0:0:0:
448,192,34875,1,0,0:0:0:0:
320,192,34961,1,0,0:0:0:0:
192,192,35046,1,0,0:0:0:0:
64,192,35132,1,0,0:0:0:0:
192,192,35218,1,0,0:0:0:0:
320,192,35303,1,0,0:0:0:0:
448,192,35389,1,0,0:0:0:0:
192,192,35475,1,0,0:0:0:0:
320,192,35561,1,0,0:0:0:0:
64,192,35646,1,0,0:0:0:0:
448,192,35646,1,6,0:0:0:0:
192,192,35818,1,0,0:0:0:0:
320,192,35989,1,2,0:0:0:0:
192,192,36161,1,0,0:0:0:0:
64,192,36332,1,2,0:0:0:0:
192,192,36418,1,0,0:0:0:0:
320,192,36503,1,0,0:0:0:0:
448,192,36675,1,2,0:0:0:0:
320,192,36846,1,0,0:0:0:0:
448,192,37018,1,2,0:0:0:0:
320,192,37103,1,0,0:0:0:0:
192,192,37189,1,0,0:0:0:0:
64,192,37361,1,2,0:0:0:0:
448,192,37532,1,0,0:0:0:0:
320,192,37703,1,2,0:0:0:0:
192,192,37789,1,0,0:0:0:0:
64,192,37875,1,0,0:0:0:0:
448,192,38046,1,2,0:0:0:0:
192,192,38218,1,0,0:0:0:0:
64,192,38389,1,6,0:0:0:0:
448,192,38389,1,0,0:0:0:0:
192,192,38475,1,0,0:0:0:0:
320,192,38561,1,0,0:0:0:0:
448,192,38732,1,2,0:0:0:0:
320,192,38903,1,4,0:0:0:0:
192,192,38903,1,4,0:0:0:0:
64,192,39075,1,2,0:0:0:0:
192,192,39161,1,0,0:0:0:0:
320,192,39246,1,0,0:0:0:0:
192,192,39418,1,0,0:0:0:0:
320,192,39589,1,0,0:0:0:0:
448,192,39761,1,2,0:0:0:0:
192,192,39846,1,0,0:0:0:0:
320,192,39932,1,0,0:0:0:0:
64,192,40103,1,2,0:0:0:0:
192,192,40275,1,0,0:0:0:0:
320,192,40446,1,2,0:0:0:0:
192,192,40532,1,0,0:0:0:0:
64,192,40618,1,0,0:0:0:0:
320,192,40789,1,2,0:0:0:0:
64,192,40961,1,0,0:0:0:0:
192,192,40961,1,6,0:0:0:0:
320,192,41046,1,4,0:0:0:0:
448,192,41046,1,0,0:0:0:0:
64,192,41132,1,0,0:0:0:0:
192,192,41132,1,6,0:0:0:0:
320,192,41218,1,0,0:0:0:0:
448,192,41303,1,0,0:0:0:0:
192,192,41475,1,2,0:0:0:0:
320,192,41646,1,0,0:0:0:0:
448,192,41818,1,2,0:0:0:0:
320,192,41903,1,0,0:0:0:0:
64,192,41989,1,0,0:0:0:0:
192,192,42161,1,2,0:0:0:0:
320,192,42332,1,0,0:0:0:0:
192,192,42503,1,2,0:0:0:0:
320,192,42589,1,0,0:0:0:0:
448,192,42675,1,0,0:0:0:0:
192,192,42846,1,0,0:0:0:0:
64,192,43018,1,0,0:0:0:0:
320,192,43189,1,2,0:0:0:0:
192,192,43275,1,0,0:0:0:0:
64,192,43361,1,0,0:0:0:0:
448,192,43532,1,2,0:0:0:0:
320,192,43703,1,0,0:0:0:0:
64,192,43703,1,4,0:0:0:0:
192,192,43789,1,4,0:0:0:0:
448,192,43789,1,0,0:0:0:0:
64,192,43875,1,6,0:0:0:0:
320,192,43875,1,0,0:0:0:0:
192,192,43961,1,0,0:0:0:0:
320,192,44046,1,0,0:0:0:0:
448,192,44218,1,2,0:0:0:0:
192,192,44389,1,0,0:0:0:0:
64,192,44389,1,4,0:0:0:0:
448,192,44561,1,2,0:0:0:0:
320,192,44646,1,0,0:0:0:0:
64,192,44732,1,0,0:0:0:0:
192,192,44903,1,2,0:0:0:0:
320,192,45075,1,0,0:0:0:0:
64,192,45246,1,6,0:0:0:0:
192,192,45246,1,0,0:0:0:0:
320,192,45589,1,0,0:0:0:0:
448,192,45589,1,6,0:0:0:0:
192,192,45761,1,2,0:0:0:0:
448,192,46103,1,0,0:0:0:0:
64,192,46103,1,6,0:0:0:0:
192,192,46275,1,2,0:0:0:0:
64,192,46361,1,2,0:0:0:0:
320,192,46446,1,6,0:0:0:0:
192,192,46446,1,0,0:0:0:0:
448,192,46618,1,0,0:0:0:0:
64,192,46618,1,6,0:0:0:0:
192,192,46703,1,0,0:0:0:0:
320,192,46789,1,0,0:0:0:0:
448,192,46961,1,2,0:0:0:0:
192,192,47132,1,0,0:0:0:0:
64,192,47303,1,2,0:0:0:0:
192,192,47389,1,0,0:0:0:0:
320,192,47475,1,0,0:0:0:0:
192,192,47646,1,2,0:0:0:0:
448,192,47818,1,0,0:0:0:0:
320,192,47989,1,2,0:0:0:0:
192,192,48075,1,0,0:0:0:0:
64,192,48161,1,0,0:0:0:0:
320,192,48332,1,2,0:0:0:0:
64,192,48503,1,0,0:0:0:0:
192,192,48675,1,2,0:0:0:0:
320,192,48761,1,0,0:0:0:0:
448,192,48846,1,0,0:0:0:0:
192,192,49018,1,2,0:0:0:0:
320,192,49189,1,0,0:0:0:0:
64,192,49361,1,0,0:0:0:0:
448,192,49361,1,6,0:0:0:0:
192,192,49446,1,0,0:0:0:0:
320,192,49532,1,0,0:0:0:0:
192,192,49703,1,2,0:0:0:0:
64,192,49875,1,4,0:0:0:0:
448,192,49875,1,0,0:0:0:0:
320,192,50046,1,2,0:0:0:0:
192,192,50132,1,0,0:0:0:0:
448,192,50218,1,0,0:0:0:0:
320,192,50389,1,2,0:0:0:0:
64,192,50561,1,0,0:0:0:0:
192,192,50732,1,2,0:0:0:0:
320,192,50818,1,0,0:0:0:0:
448,192,50903,1,0,0:0:0:0:
192,192,51075,1,2,0:0:0:0:
64,192,51246,1,0,0:0:0:0:
320,192,51418,1,2,0:0:0:0:
192,192,51503,1,0,0:0:0:0:
320,192,51589,1,0,0:0:0:0:
64,192,51761,1,2,0:0:0:0:
320,192,51932,1,6,0:0:0:0:
448,192,51932,1,0,0:0:0:0:
64,192,52018,1,0,0:0:0:0:
192,192,52018,1,4,0:0:0:0:
320,192,52103,1,6,0:0:0:0:
448,192,52103,1,0,0:0:0:0:
192,192,52189,1,0,0:0:0:0:
64,192,52275,1,0,0:0:0:0:
320,192,52446,1,2,0:0:0:0:
448,192,52618,1,0,0:0:0:0:
64,192,52789,1,2,0:0:0:0:
192,192,52875,1,0,0:0:0:0:
448,192,52961,1,0,0:0:0:0:
320,192,53132,1,2,0:0:0:0:
192,192,53303,1,0,0:0:0:0:
448,192,53475,1,2,0:0:0:0:
192,192,53561,1,0,0:0:0:0:
64,192,53646,1,0,0:0:0:0:
320,192,53818,1,2,0:0:0:0:
192,192,53989,1,0,0:0:0:0:
64,192,54161,1,2,0:0:0:0:
192,192,54246,1,0,0:0:0:0:
320,192,54332,1,0,0:0:0:0:
192,192,54503,1,2,0:0:0:0:
64,192,54675,1,4,0:0:0:0:
448,192,54675,1,0,0:0:0:0:
192,192,54761,1,4,0:0:0:0:
320,192,54761,1,0,0:0:0:0:
64,192,54846,1,6,0:0:0:0:
448,192,54846,1,0,0:0:0:0:
192,192,54932,1,0,0:0:0:0:
320,192,55018,1,0,0:0:0:0:
192,192,55189,1,2,0:0:0:0:
448,192,55361,1,0,0:0:0:0:
320,192,55361,1,4,0:0:0:0:
64,192,55532,1,2,0:0:0:0:
192,192,55618,1,0,0:0:0:0:
320,192,55703,1,0,0:0:0:0:
192,192,55875,1,2,0:0:0:0:
320,192,56046,1,0,0:0:0:0:
64,192,56218,1,6,0:0:0:0:
192,192,56218,1,0,0:0:0:0:
448,192,56303,1,0,0:0:0:0:
64,192,56389,1,0,0:0:0:0:
448,192,56475,1,0,0:0:0:0:
64,192,56561,1,0,0:0:0:0:
448,192,56646,1,0,0:0:0:0:
64,192,56732,1,0,0:0:0:0:
448,192,56818,1,0,0:0:0:0:
192,192,56903,1,0,0:0:0:0:
320,192,56989,1,0,0:0:0:0:
192,192,57075,1,0,0:0:0:0:
320,192,57161,1,0,0:0:0:0:
192,192,57246,1,0,0:0:0:0:
320,192,57332,1,0,0:0:0:0:
192,192,57418,1,0,0:0:0:0:
320,192,57503,1,0,0:0:0:0:
64,192,57589,1,0,0:0:0:0:
448,192,57589,1,6,0:0:0:0:
320,192,57761,1,2,0:0:0:0:
192,192,57932,1,0,0:0:0:0:
320,192,58103,1,2,0:0:0:0:
64,192,58275,1,0,0:0:0:0:
320,192,58446,1,2,0:0:0:0:
448,192,58618,1,0,0:0:0:0:
192,192,58789,1,2,0:0:0:0:
320,192,58961,1,0,0:0:0:0:
192,192,59046,1,0,0:0:0:0:
64,192,59132,1,2,0:0:0:0:
192,192,59303,1,0,0:0:0:0:
448,192,59475,1,2,0:0:0:0:
64,192,59646,1,0,0:0:0:0:
320,192,59818,1,2,0:0:0:0:
448,192,59989,1,0,0:0:0:0:
192,192,60161,1,2,0:0:0:0:
64,192,60332,1,0,0:0:0:0:
320,192,60503,1,2,0:0:0:0:
448,192,60675,1,0,0:0:0:0:
64,192,60846,1,2,0:0:0:0:
192,192,61018,1,0,0:0:0:0:
448,192,61189,1,2,0:0:0:0:
320,192,61361,1,0,0:0:0:0:
64,192,61532,1,0,0:0:0:0:
192,192,61703,1,0,0:0:0:0:
320,192,61875,1,2,0:0:0:0:
64,192,62046,1,0,0:0:0:0:
192,192,62218,1,2,0:0:0:0:
448,192,62389,1,0,0:0:0:0:
320,192,62475,1,0,0:0:0:0:
192,192,62561,1,2,0:0:0:0:
448,192,62732,1,0,0:0:0:0:
192,192,62903,1,2,0:0:0:0:
64,192,63075,1,0,0:0:0:0:
320,192,63246,1,2,0:0:0:0:
64,192,63418,1,0,0:0:0:0:
192,192,63589,1,2,0:0:0:0:
448,192,63761,1,0,0:0:0:0:
64,192,63932,1,2,0:0:0:0:
448,192,64103,1,0,0:0:0:0:
192,192,64275,1,2,0:0:0:0:
64,192,64446,1,0,0:0:0:0:
320,192,64532,1,0,0:0:0:0:
448,192,64618,1,2,0:0:0:0:
192,192,64789,1,0,0:0:0:0:
64,192,64961,1,2,0:0:0:0:
448,192,65132,1,0,0:0:0:0:
320,192,65303,1,2,0:0:0:0:
192,192,65475,1,0,0:0:0:0:
320,192,65646,1,2,0:0:0:0:
64,192,65818,1,0,0:0:0:0:
448,192,65989,1,2,0:0:0:0:
64,192,66161,1,0,0:0:0:0:
448,192,66332,1,2,0:0:0:0:
192,192,66503,1,0,0:0:0:0:
320,192,66675,1,2,0:0:0:0:
192,192,66846,1,0,0:0:0:0:
320,192,67018,1,2,0:0:0:0:
448,192,67189,1,0,0:0:0:0:
192,192,67361,1,2,0:0:0:0:
448,192,67532,1,0,0:0:0:0:
192,192,67703,1,2,0:0:0:0:
64,192,67875,1,0,0:0:0:0:
320,192,68046,1,0,0:0:0:0:
64,192,68218,1,8,0:0:0:0:
320,192,68389,128,0,68561:0:0:0:0:
448,192,68561,1,0,0:0:0:0:
192,192,68561,1,4,0:0:0:0:
64,192,68732,1,0,0:0:0:0:
448,192,68903,1,8,0:0:0:0:
320,192,69075,1,0,0:0:0:0:
448,192,69246,1,0,0:0:0:0:
192,192,69418,1,0,0:0:0:0:
64,192,69589,1,8,0:0:0:0:
320,192,69761,1,0,0:0:0:0:
64,192,69932,1,0,0:0:0:0:
192,192,70018,1,0,0:0:0:0:
320,192,70103,1,0,0:0:0:0:
448,192,70275,1,8,0:0:0:0:
192,192,70446,1,0,0:0:0:0:
320,192,70618,1,0,0:0:0:0:
64,192,70618,128,0,70789:0:0:0:0:
448,192,70789,1,8,0:0:0:0:
192,192,70961,1,0,0:0:0:0:
320,192,71132,1,0,0:0:0:0:
448,192,71303,1,0,0:0:0:0:
320,192,71475,1,0,0:0:0:0:
192,192,71646,1,8,0:0:0:0:
64,192,71818,1,0,0:0:0:0:
320,192,71989,1,0,0:0:0:0:
448,192,72161,1,0,0:0:0:0:
192,192,72332,1,8,0:0:0:0:
320,192,72503,1,0,0:0:0:0:
448,192,72675,128,0,72846:0:0:0:0:
64,192,72675,1,8,0:0:0:0:
192,192,72846,1,0,0:0:0:0:
320,192,73018,128,0,73189:0:0:0:0:
64,192,73018,1,8,0:0:0:0:
192,192,73189,1,0,0:0:0:0:
448,192,73361,1,0,0:0:0:0:
320,192,73446,1,0,0:0:0:0:
192,192,73532,1,8,0:0:0:0:
64,192,73703,1,0,0:0:0:0:
320,192,73875,128,0,74046:0:0:0:0:
192,192,74046,1,6,0:0:0:0:
448,192,74046,1,0,0:0:0:0:
64,192,74218,1,0,0:0:0:0:
320,192,74389,1,8,0:0:0:0:
448,192,74561,1,0,0:0:0:0:
192,192,74732,1,0,0:0:0:0:
320,192,74903,1,0,0:0:0:0:
448,192,75075,1,8,0:0:0:0:
192,192,75246,1,6,0:0:0:0:
64,192,75246,1,0,0:0:0:0:
320,192,75418,1,6,0:0:0:0:
448,192,75418,1,0,0:0:0:0:
192,192,75503,1,0,0:0:0:0:
64,192,75589,1,0,0:0:0:0:
320,192,75761,1,8,0:0:0:0:
192,192,75932,1,0,0:0:0:0:
64,192,76103,128,4,76275:0:0:0:0:
448,192,76275,1,8,0:0:0:0:
192,192,76446,1,0,0:0:0:0:
64,192,76618,1,6,0:0:0:0:
320,192,76618,1,0,0:0:0:0:
192,192,76703,1,6,0:0:0:0:
448,192,76703,1,0,0:0:0:0:
64,192,76789,1,6,0:0:0:0:
320,192,76789,1,0,0:0:0:0:
192,192,76961,1,0,0:0:0:0:
320,192,77132,1,0,0:0:0:0:
64,192,77303,1,0,0:0:0:0:
192,192,77303,1,6,0:0:0:0:
320,192,77389,1,6,0:0:0:0:
448,192,77389,1,0,0:0:0:0:
64,192,77475,1,0,0:0:0:0:
192,192,77475,1,6,0:0:0:0:
448,192,77646,1,0,0:0:0:0:
192,192,77818,1,0,0:0:0:0:
64,192,77989,1,6,0:0:0:0:
448,192,77989,1,0,0:0:0:0:
192,192,78075,1,6,0:0:0:0:
320,192,78075,1,0,0:0:0:0:
64,192,78161,1,6,0:0:0:0:
448,192,78161,1,0,0:0:0:0:
192,192,78332,1,0,0:0:0:0:
64,192,78503,1,0,0:0:0:0:
320,192,78503,1,6,0:0:0:0:
448,192,78675,1,0,0:0:0:0:
64,192,78846,1,6,0:0:0:0:
320,192,78846,1,0,0:0:0:0:
192,192,78932,1,6,0:0:0:0:
448,192,78932,1,0,0:0:0:0:
64,192,79018,1,6,0:0:0:0:
320,192,79018,1,0,0:0:0:0:
448,192,79189,1,0,0:0:0:0:
192,192,79189,1,6,0:0:0:0:
64,192,79275,1,6,0:0:0:0:
320,192,79275,1,0,0:0:0:0:
192,192,79361,1,6,0:0:0:0:
448,192,79361,1,0,0:0:0:0:
64,192,79532,1,6,0:0:0:0:
320,192,79532,1,0,0:0:0:0:
448,192,79703,1,2,0:0:0:0:
64,192,79875,1,2,0:0:0:0:
448,192,80046,1,2,0:0:0:0:
192,192,80218,1,2,0:0:0:0:
320,192,80389,1,2,0:0:0:0:
192,192,80561,1,2,0:0:0:0:
320,192,80732,1,2,0:0:0:0:
448,192,80903,1,2,0:0:0:0:
192,192,81075,1,2,0:0:0:0:
448,192,81246,1,2,0:0:0:0:
192,192,81418,1,2,0:0:0:0:
64,192,81589,1,2,0:0:0:0:
320,192,81761,1,2,0:0:0:0:
64,192,81932,1,2,0:0:0:0:
320,192,82103,1,2,0:0:0:0:
192,192,82189,1,2,0:0:0:0:
64,192,82275,1,2,0:0:0:0:
448,192,82446,1,2,0:0:0:0:
192,192,82618,1,2,0:0:0:0:
320,192,82789,1,2,0:0:0:0:
448,192,82961,1,2,0:0:0:0:
192,192,83132,1,2,0:0:0:0:
320,192,83303,1,2,0:0:0:0:
64,192,83475,1,2,0:0:0:0:
192,192,83646,1,2,0:0:0:0:
448,192,83818,1,2,0:0:0:0:
64,192,83989,1,2,0:0:0:0:
320,192,84161,1,2,0:0:0:0:
192,192,84332,1,2,0:0:0:0:
64,192,84503,1,2,0:0:0:0:
192,192,84589,1,2,0:0:0:0:
320,192,84675,1,2,0:0:0:0:
448,192,84846,1,2,0:0:0:0:
64,192,85018,1,2,0:0:0:0:
320,192,85189,1,2,0:0:0:0:
64,192,85361,1,2,0:0:0:0:
320,192,85532,1,2,0:0:0:0:
192,192,85703,1,2,0:0:0:0:
320,192,85875,1,2,0:0:0:0:
192,192,86046,1,2,0:0:0:0:
320,192,86132,1,2,0:0:0:0:
448,192,86218,1,2,0:0:0:0:
320,192,86303,1,0,0:0:0:0:
64,192,86389,1,2,0:0:0:0:
192,192,86561,1,2,0:0:0:0:
320,192,86732,1,2,0:0:0:0:
448,192,86903,1,2,0:0:0:0:
192,192,87075,1,2,0:0:0:0:
320,192,87246,1,2,0:0:0:0:
448,192,87418,1,2,0:0:0:0:
320,192,87503,1,2,0:0:0:0:
192,192,87589,1,2,0:0:0:0:
64,192,87675,1,2,0:0:0:0:
448,192,87761,1,2,0:0:0:0:
192,192,87932,1,2,0:0:0:0:
64,192,88018,1,2,0:0:0:0:
448,192,88103,1,2,0:0:0:0:
192,192,88275,1,2,0:0:0:0:
64,192,88361,1,2,0:0:0:0:
448,192,88446,1,2,0:0:0:0:
64,192,88618,1,2,0:0:0:0:
192,192,88703,1,0,0:0:0:0:
448,192,88789,1,2,0:0:0:0:
320,192,88961,1,2,0:0:0:0:
192,192,89046,1,2,0:0:0:0:
64,192,89132,1,2,0:0:0:0:
448,192,89218,1,2,0:0:0:0:
192,192,89303,1,0,0:0:0:70:bd - 2.wav
448,192,89475,1,2,0:0:0:0:
64,192,89561,1,2,0:0:0:0:
320,192,89646,1,0,0:0:0:70:bd - 3.wav
64,192,89818,1,2,0:0:0:0:
448,192,89903,1,2,0:0:0:0:
192,192,89989,1,0,0:0:0:70:bd - 4.wav
448,192,90161,1,2,0:0:0:0:
64,192,90246,1,2,0:0:0:0:
320,192,90332,1,0,0:0:0:70:bd - 5.wav
64,192,90503,5,2,0:0:0:0:
448,192,90846,128,0,91189:0:0:0:50:violin - 001.wav
320,192,91189,128,0,91532:0:0:0:50:violin - 002.wav
192,192,91532,128,0,91875:0:0:0:50:violin - 003.wav
64,192,91875,1,6,0:0:0:0:
448,192,91875,1,0,0:0:0:50:violin - 004.wav
320,192,92046,1,0,0:0:0:0:
448,192,92218,1,2,0:0:0:0:
320,192,92389,1,0,0:0:0:0:
192,192,92561,1,0,0:0:0:0:
64,192,92732,1,0,0:0:0:0:
448,192,92903,1,2,0:0:0:0:
320,192,93075,1,0,0:0:0:0:
64,192,93246,1,2,0:0:0:0:
192,192,93332,1,0,0:0:0:0:
320,192,93418,1,0,0:0:0:0:
192,192,93589,1,2,0:0:0:0:
64,192,93761,1,0,0:0:0:0:
448,192,93932,1,2,0:0:0:0:
320,192,94103,1,0,0:0:0:0:
192,192,94275,1,2,0:0:0:0:
64,192,94446,1,0,0:0:0:0:
320,192,94618,1,2,0:0:0:0:
448,192,94789,1,0,0:0:0:0:
192,192,94961,1,2,0:0:0:0:
320,192,95132,1,0,0:0:0:0:
64,192,95303,1,2,0:0:0:0:
192,192,95475,1,0,0:0:0:0:
448,192,95646,1,2,0:0:0:0:
320,192,95818,1,0,0:0:0:0:
192,192,95989,1,2,0:0:0:0:
448,192,96161,1,0,0:0:0:0:
64,192,96332,1,2,0:0:0:0:
320,192,96503,1,0,0:0:0:0:
64,192,96675,1,2,0:0:0:0:
192,192,96761,1,0,0:0:0:0:
320,192,96846,1,0,0:0:0:0:
448,192,97018,1,2,0:0:0:0:
192,192,97189,1,2,0:0:0:0:
320,192,97361,1,2,0:0:0:0:
448,192,97532,1,0,0:0:0:0:
192,192,97703,1,2,0:0:0:0:
448,192,97875,1,0,0:0:0:0:
320,192,98046,1,2,0:0:0:0:
192,192,98218,1,0,0:0:0:0:
64,192,98389,1,2,0:0:0:0:
320,192,98561,1,0,0:0:0:0:
64,192,98732,1,2,0:0:0:0:
192,192,98818,1,0,0:0:0:0:
320,192,98903,1,0,0:0:0:0:
192,192,99075,1,2,0:0:0:0:
448,192,99246,1,0,0:0:0:0:
320,192,99418,1,2,0:0:0:0:
64,192,99589,1,0,0:0:0:0:
448,192,99761,1,2,0:0:0:0:
192,192,99932,1,0,0:0:0:0:
320,192,100103,1,2,0:0:0:0:
448,192,100275,1,0,0:0:0:0:
320,192,100446,1,2,0:0:0:0:
192,192,100618,1,0,0:0:0:0:
64,192,100789,1,2,0:0:0:0:
192,192,100961,1,0,0:0:0:0:
320,192,101132,1,2,0:0:0:0:
448,192,101303,1,0,0:0:0:0:
64,192,101475,1,6,0:0:0:0:
192,192,101475,1,0,0:0:0:0:
320,192,101818,1,2,0:0:0:0:
320,192,101989,1,2,0:0:0:0:
192,192,102075,1,2,0:0:0:0:
64,192,102161,1,0,0:0:0:35:violin - 022.wav
448,192,102161,1,6,0:0:0:0:
192,192,102418,1,0,0:0:0:35:violin - 023.wav
320,192,102418,1,6,0:0:0:0:
64,192,102675,1,0,0:0:0:35:violin - 024.wav
448,192,102675,1,6,0:0:0:0:
192,192,102846,1,0,0:0:0:35:violin - 025.wav
320,192,102846,1,6,0:0:0:0:
448,192,103018,1,0,0:0:0:0:
64,192,103189,1,2,0:0:0:0:
192,192,103361,1,0,0:0:0:0:
320,192,103532,1,2,0:0:0:0:
448,192,103703,1,0,0:0:0:0:
192,192,103875,1,2,0:0:0:0:
320,192,104046,1,0,0:0:0:0:
64,192,104218,1,2,0:0:0:0:
192,192,104303,1,0,0:0:0:0:
320,192,104389,1,0,0:0:0:0:
448,192,104561,1,2,0:0:0:0:
192,192,104732,1,0,0:0:0:0:
320,192,104903,1,2,0:0:0:0:
64,192,105075,1,0,0:0:0:0:
448,192,105246,1,2,0:0:0:0:
192,192,105418,1,0,0:0:0:0:
320,192,105589,1,2,0:0:0:0:
64,192,105761,1,0,0:0:0:0:
192,192,105932,1,2,0:0:0:0:
448,192,106103,1,0,0:0:0:0:
320,192,106275,1,2,0:0:0:0:
448,192,106446,1,0,0:0:0:0:
192,192,106618,1,2,0:0:0:0:
64,192,106789,1,0,0:0:0:0:
320,192,106961,1,2,0:0:0:0:
192,192,107132,1,0,0:0:0:0:
448,192,107303,1,2,0:0:0:0:
320,192,107475,1,0,0:0:0:0:
448,192,107646,1,2,0:0:0:0:
320,192,107732,1,0,0:0:0:0:
192,192,107818,1,0,0:0:0:0:
64,192,107989,1,2,0:0:0:0:
192,192,108161,1,2,0:0:0:0:
320,192,108332,1,0,0:0:0:50:violin - 035.wav
448,192,108332,1,6,0:0:0:0:
64,192,109532,1,6,0:0:0:0:
192,192,109532,1,0,0:0:0:0:
320,192,109703,1,6,0:0:0:0:
448,192,109703,1,0,0:0:0:50:violin - 036.wav
320,192,110903,1,6,0:0:0:0:
448,192,110903,1,0,0:0:0:0:
64,192,110989,1,0,0:0:0:0:
192,192,110989,1,6,0:0:0:0:
320,192,111075,1,6,0:0:0:0:
448,192,111075,1,0,0:0:0:50:violin - 039.wav
64,192,111589,1,0,0:0:0:0:
192,192,111589,1,2,0:0:0:0:
320,192,111675,1,2,0:0:0:0:
448,192,111675,1,0,0:0:0:0:
64,192,111761,1,0,0:0:0:0:
192,192,111761,1,2,0:0:0:0:
192,192,112275,1,2,0:0:0:0:
320,192,112275,1,0,0:0:0:0:
64,192,112361,1,2,0:0:0:0:
448,192,112361,1,0,0:0:0:0:
192,192,112446,1,2,0:0:0:0:
320,192,112446,1,0,0:0:0:50:violin - 040.wav
448,192,112618,1,0,0:0:0:70:bd - 2.wav
192,192,112789,1,6,0:0:0:0:
320,192,112789,1,0,0:0:0:0:
64,192,112961,1,0,0:0:0:70:bd - 2.wav
320,192,113132,1,2,0:0:0:0:
448,192,113132,1,0,0:0:0:0:
192,192,113218,1,2,0:0:0:0:
64,192,113218,1,0,0:0:0:0:
320,192,113303,1,2,0:0:0:0:
448,192,113303,1,0,0:0:0:70:bd - 2.wav
192,192,113475,1,6,0:0:0:0:
320,192,113475,1,0,0:0:0:0:
64,192,113561,1,6,0:0:0:0:
448,192,113561,1,0,0:0:0:0:
192,192,113646,1,6,0:0:0:0:
320,192,113646,1,0,0:0:0:70:bd - 2.wav
64,192,113818,1,6,0:0:0:0:
448,192,113818,1,0,0:0:0:0:
