osu file format v9

[General]
AudioFilename: Daini.mp3
AudioLeadIn: 500
PreviewTime: 90835
Countdown: 0
SampleSet: Normal
StackLeniency: 0.7
Mode: 0
LetterboxInBreaks: 0

[Editor]
DistanceSpacing: 1.3
BeatDivisor: 4
GridSize: 8

[Metadata]
Title:Higanbana Daini -Shuusei no Lycoris-
Artist:44teru-k remixed wa.
Creator:Fear
Version:Hyper
Source:BMS
Tags:K-ON Tainaka Ritsu gowww swish soulfear Thite

[Difficulty]
HPDrainRate:5
CircleSize:4
OverallDifficulty:7
ApproachRate:8
SliderMultiplier:1.6
SliderTickRate:1

[Events]
//Background and Video events
Video,-40,"lycoris_bga.flv"
0,0,"lycoris_title.jpg"
//Break Periods
//Storyboard Layer 0 (Background)
//Storyboard Layer 1 (Fail)
//Storyboard Layer 2 (Pass)
//Storyboard Layer 3 (Foreground)
//Storyboard Sound Samples
//Background Colour Transformations
3,100,163,162,255

[TimingPoints]
1350,342.857142857143,4,2,1,60,1,0
1435,-100,4,2,1,30,0,0
1692,-100,4,2,1,10,0,0
1864,-100,4,2,1,60,0,0
2635,-100,4,2,1,40,0,0
3064,-100,4,2,1,10,0,0
3492,-100,4,2,1,60,0,0
4007,-100,4,2,1,40,0,0
4435,-100,4,2,1,10,0,0
4778,-100,4,2,1,60,0,0
5378,-100,4,2,1,40,0,0
5807,-100,4,2,1,10,0,0
5892,-100,4,2,1,60,0,0
6321,-100,4,2,1,10,0,0
6407,-100,4,2,1,60,0,0
11635,-100,4,2,1,10,0,0
11978,-50,4,1,1,40,0,1
12150,-50,4,2,1,5,0,0
12321,-50,4,1,1,40,0,0
12407,-100,4,2,1,70,0,0
23207,-100,4,1,1,80,0,0
31392,-100,4,1,1,70,0,0
31950,-100,4,1,1,75,0,0
32635,-100,4,1,1,80,0,0
33278,-100,4,1,1,85,0,0
33621,-100,4,1,1,90,0,0
33964,-100,4,1,1,95,0,0
34264,-100,4,2,1,100,0,0
35592,-100,4,2,1,90,0,0
46607,-100,4,2,1,95,0,0
68464,-100,4,1,1,80,0,0
79178,-50,4,1,1,95,0,1
79264,-50,4,2,1,80,0,0
79350,-100,4,1,1,95,0,0
90835,-100,4,1,1,95,0,1
91521,-100,4,2,1,95,0,1
91778,-100,4,1,1,95,0,1
91864,-100,4,1,1,95,0,0
101721,-100,4,1,1,80,0,0
102107,-100,4,2,1,100,0,0
102750,-100,4,1,1,85,0,0
112564,-100,4,1,1,90,0,0
112821,-100,4,1,1,95,0,0
113164,-100,4,1,1,100,0,0
113550,-100,4,2,1,100,0,0

[Colours]
Combo1 : 255,85,85
Combo2 : 255,0,0
Combo3 : 255,255,255

[HitObjects]
344,72,1350,1,2
344,72,1521,2,0,B|360:120|352:160,2,80,4|0|0
272,40,2035,2,0,B|208:16|136:48|112:96,1,160,2|0
48,216,2721,2,0,B|112:240|184:208|208:160,2,160,2|0|2
64,136,3578,5,0
64,136,3750,1,0
64,136,3921,1,0
64,136,4092,2,0,B|104:176|104:256|96:288,2,160,2|0|2
104,64,4949,5,0
184,48,5121,1,0
248,96,5292,1,0
320,56,5464,2,0,B|368:56|368:160|448:144,1,160,2|0
432,56,5978,2,0,B|384:56|384:160|304:144,1,160
376,184,6492,2,0,B|360:232|408:232|360:280,1,80
424,328,6835,5,2
184,280,7349,1,2
256,48,7864,1,2
256,48,8035,1,2
256,48,8207,2,0,B|208:72|192:112,1,80,4|2
72,192,8721,5,2
256,344,9235,1,2
320,296,9407,1,0
256,192,9578,12,0,11635
328,136,11978,6,0,B|376:120|376:120|400:128|400:128|400:160|400:160|336:192,2,160,0|0|4
256,192,12492,5,0
192,128,12664,2,0,B|144:160|160:224,1,80,0|0
256,192,13007,1,2
208,48,13178,2,0,B|144:40|120:88,1,80
256,192,13521,1,0
216,272,13692,5,2
216,272,13778,1,0
216,272,13864,1,0
160,328,14035,1,0
264,344,14207,1,0
344,280,14378,1,2
344,176,14550,1,0
288,112,14721,5,0
288,112,14807,1,0
288,112,14892,1,0
208,136,15064,1,2
208,136,15235,1,0
152,200,15407,6,0,B|112:168|128:120,1,80
160,304,15750,2,0,B|200:272|184:224,1,80,2|0
104,368,16092,2,0,B|64:336|80:280,1,80,0|0
80,168,16435,2,0,B|120:200|104:248,1,80,2|0
24,224,16778,5,0
60,124,16950,1,0
152,80,17121,1,4
152,80,17207,1,0
152,80,17292,1,2
152,80,17464,1,4
248,56,17635,1,0
224,160,17807,5,2
208,80,17978,1,0
288,104,18150,1,0
224,160,18321,1,0
328,136,18492,5,2
296,232,18664,1,0
224,160,18835,1,0
304,176,19007,1,0
248,240,19178,5,2
248,240,19264,1,0
248,240,19350,1,0
168,232,19521,2,0,B|112:248|104:312,1,80
160,344,19864,5,2
264,360,20035,1,0
360,328,20207,2,0,B|400:304|416:240,1,80
400,104,20550,6,0,B|384:152|400:200,1,80,2|0
336,48,20892,1,0
336,48,21064,1,0
200,104,21235,2,0,B|248:120|288:104,1,80,2|0
136,152,21578,1,0
136,152,21750,1,0
176,224,21921,6,0,B|160:272|120:288,1,80,2|0
336,160,22264,2,0,B|352:112|392:96,1,80,2|0
256,256,22607,1,4
256,256,22692,1,0
256,256,22778,1,0
256,128,22950,1,4
256,128,23035,1,0
256,128,23121,1,4
320,80,23292,5,4
336,160,23464,1,0
256,128,23635,1,0
360,112,23807,1,0
256,128,23978,5,4
208,40,24150,1,0
112,64,24321,1,0
88,152,24492,1,0
256,128,24664,5,4
256,128,24750,1,0
256,128,24835,1,0
184,88,25007,1,0
112,128,25178,1,0
184,200,25350,1,0
256,128,25521,1,0
328,200,25692,1,0
400,128,25864,1,0
408,208,26035,5,4
408,208,26121,1,0
408,208,26207,1,0
320,344,26378,2,0,B|328:288|368:264,1,80
248,288,26721,1,4
248,288,26807,1,0
248,288,26892,1,0
96,256,27064,2,0,B|152:264|176:304,1,80
40,192,27407,5,4
40,192,27492,1,0
40,192,27578,1,0
136,72,27750,2,0,B|128:128|88:152,1,80
48,80,28092,1,4
48,80,28178,1,0
48,80,28264,2,0,B|64:48,4,20
136,24,28607,1,0
224,80,28778,5,4
296,40,28950,1,0
296,120,29121,1,0
242,30,29292,1,0
336,80,29464,5,4
244,129,29635,1,0
336,184,29807,2,0,B|352:208,4,20,4|0|0|0|0
256,208,30150,5,4
256,208,30235,1,0
256,208,30321,1,0
312,264,30492,2,0,B|296:304|248:312,1,80
152,296,30835,1,0
56,248,31007,1,0
56,144,31178,1,0
152,88,31350,6,0,B|176:72,4,20,4|0|0|0|0
256,88,31692,1,0
352,40,31864,1,0
344,144,32035,2,0,B|352:176,4,20,4|0|0|0|0
256,200,32378,1,0
344,256,32550,1,0
264,280,32721,6,0,B|232:288,4,20,4|0|0|0|0
168,328,33064,1,0
80,272,33235,1,0
80,192,33407,2,0,B|80:160,4,20,4|0|0|0|0
168,136,33750,1,0
80,88,33921,1,4
168,40,34092,2,0,B|200:40,3,20,4|0|0|0
208,40,34264,6,0,B|248:56,3,40,4|0|2|0
264,136,34607,2,0,B|312:120,3,40,0|0|2|0
328,48,34950,2,0,B|368:64,3,40,4|0|2|0
416,128,35292,2,0,B|464:112,3,40,4|0|2|0
472,80,35635,6,0,B|488:128|480:176|472:200,1,120,4|0
432,184,35978,2,0,B|456:224|464:288|416:320,1,120,4|0
400,288,36321,2,0,B|360:256|280:264|280:280,1,120
264,280,36664,1,0
240,288,36749,1,0
216,296,36835,1,2
192,304,36921,1,0
168,312,37007,6,0,B|128:328|80:328,1,80,4|0
56,304,37264,1,0
96,296,37349,2,0,B|120:256|88:200|80:208,2,80,0|2|0
16,232,37864,1,2
48,136,38035,1,0
128,72,38207,1,2
232,56,38378,6,0,B|272:48|304:96|376:48,1,120,4|0
384,24,38721,2,0,B|440:24|472:88|448:128,1,120,4|0
440,120,39064,1,0
424,144,39149,1,0
416,168,39235,1,2
416,192,39321,1,0
424,216,39407,1,0
440,232,39492,1,0
448,256,39578,1,2
448,280,39664,1,0
440,304,39749,6,0,B|408:344|368:352,1,80,4|2
336,336,40007,1,0
312,368,40092,2,0,B|288:384|272:368,3,40
248,328,40435,5,4
200,240,40607,1,2
144,336,40778,1,4
88,248,40949,1,2
88,248,41035,1,0
88,248,41121,5,4
48,176,41292,1,2
88,104,41464,1,4
160,64,41635,1,2
88,104,41807,5,0
160,144,41978,1,2
232,104,42149,2,0,B|256:88|280:104,3,40,0|0|2|0
304,120,42492,2,0,B|328:136|352:120,3,40,4|0|2|0
376,104,42835,2,0,B|400:88|424:104,3,40,0|0|2|0
448,120,43178,5,4
480,216,43349,1,2
432,304,43521,1,0
336,336,43692,1,2
336,336,43778,1,0
336,336,43864,5,4
272,288,44035,1,2
264,368,44207,1,4
322,282,44378,5,2
240,216,44549,1,0
232,320,44721,1,2
328,192,44892,5,0
152,184,45064,1,2
232,320,45235,5,4
232,320,45321,1,0
232,320,45407,1,0
328,192,45578,1,4
328,192,45664,1,0
328,192,45749,1,0
152,184,45921,1,4
152,184,46007,1,0
152,184,46092,1,0
152,184,46178,1,0
152,184,46264,1,4
328,192,46435,1,4
80,144,46607,6,0,B|112:96|184:80|208:152|200:96,1,120,4|0
296,128,46949,2,0,B|264:176|192:192|168:120|176:176,1,120,4|0
152,184,47292,2,0,B|120:208|120:224,3,40,0|0|2|0
128,256,47635,2,0,B|160:280|160:296,3,40,0|0|2|0
224,328,47978,6,0,B|192:352|192:368,3,40,4|0|2|0
288,280,48321,2,0,B|320:256|320:240,3,40,0|0|2|0
352,336,48664,2,0,B|376:368|392:368,3,40,0|0|2|0
416,352,49007,1,0
416,352,49092,1,0
416,352,49178,1,2
416,352,49264,1,0
416,352,49349,6,0,B|440:304|376:272|416:232,1,120,4|0
344,80,49692,2,0,B|320:128|384:160|344:200,1,120,4|0
328,208,50035,1,0
312,224,50121,1,0
288,232,50207,1,2
264,232,50292,1,0
240,224,50378,2,0,B|216:200|176:216,3,40,0|0|2|0
96,232,50721,6,0,B|120:256|160:240,3,40,4|0|2|0
136,168,51064,2,0,B|112:144|72:160,3,40,0|0|2|0
72,120,51407,2,0,B|96:72|160:56|200:64|232:80,1,160,4|4
288,40,51921,5,2
288,40,52007,1,0
288,40,52092,2,0,B|320:80|368:88|408:80,1,120,4|0
224,40,52435,2,0,B|192:80|144:88|104:80,1,120,4|0
256,80,52778,2,0,B|240:120|272:136|256:168,1,80
256,184,53035,1,0
256,208,53121,2,0,B|256:256,3,40,0|0|2|0
168,192,53464,6,0,B|144:176|128:176,3,40,4|0|2|0
344,192,53807,2,0,B|368:176|384:176,3,40,0|0|2|0
256,184,54149,5,0
256,104,54321,1,2
256,264,54492,1,0
184,304,54664,1,2
184,304,54749,1,0
184,304,54835,5,4
104,240,55007,1,2
88,344,55178,1,4
184,304,55349,1,2
104,240,55521,5,0
104,240,55607,1,0
104,240,55692,1,0
104,240,55778,1,0
104,240,55864,2,0,B|120:200|152:192,3,40
136,184,56207,5,4
120,168,56292,1,0
112,144,56378,1,2
120,120,56464,1,0
136,104,56549,1,2
160,96,56635,1,0
184,104,56721,1,2
200,120,56807,1,0
216,144,56892,5,6
240,152,56978,1,0
264,144,57064,1,2
288,128,57149,1,0
296,104,57235,2,0,B|304:80|328:72,3,40
360,64,57578,5,6
440,72,57749,1,2
488,136,57921,1,0
488,216,58092,1,2
496,296,58264,2,0,B|456:344|408:360,1,80,0|2
384,288,58607,2,0,B|344:240|296:224,1,80,0|2
256,280,58949,5,4
256,280,59035,1,0
256,280,59121,1,2
128,280,59292,2,0,B|168:328|216:344,1,80,0|2
192,216,59635,2,0,B|240:176|256:128,1,80,0|2
112,200,59978,2,0,B|72:152|24:136,1,80,0|2
56,64,60321,5,4
56,64,60492,1,2
216,64,60664,2,0,B|176:48|160:96|128:56,1,80
296,64,61007,5,4
296,64,61178,1,2
456,64,61349,2,0,B|416:48|400:96|368:56,1,80,0|2
296,64,61692,6,0,B|288:112|304:160,1,80,4|2
216,320,62035,2,0,B|224:272|208:224,1,80,0|2
200,224,62292,1,0
184,208,62378,2,0,B|175:186|152:184,2,40,0|0|2
120,288,62721,1,0
216,320,62892,1,2
304,256,63064,5,4
368,208,63235,1,2
376,288,63407,1,0
314,204,63578,5,2
410,242,63749,1,4
410,242,63835,1,0
410,242,63921,1,2
328,304,64092,1,0
328,304,64178,1,0
328,304,64264,1,2
256,264,64435,5,4
256,264,64521,1,0
256,264,64607,1,2
200,200,64778,1,0
314,204,64949,1,2
88,200,65121,2,0,B|56:224|56:272,1,80,4|2
144,112,65464,1,4
200,200,65635,1,6
256,88,65807,5,4
256,88,65978,1,2
256,88,66149,1,4
256,88,66321,1,2
256,296,66492,5,4
256,296,66664,1,2
256,296,66835,1,4
256,296,67007,1,2
152,192,67178,5,4
152,192,67349,1,0
360,192,67521,5,4
360,192,67692,1,0
208,128,67864,5,4
208,128,67949,1,2
304,256,68121,1,2
304,256,68207,1,4
256,192,68378,1,4
200,280,68549,5,4
144,192,68721,1,0
240,224,68892,1,0
136,256,69064,1,0
200,168,69235,5,4
264,256,69407,1,0
160,240,69578,1,0
232,160,69749,1,0
248,264,69921,5,4
248,264,70007,1,0
248,264,70092,1,0
344,296,70264,1,0
424,232,70435,1,0
336,176,70607,1,0
256,240,70778,1,0
176,176,70949,1,0
88,232,71121,1,0
96,152,71292,5,4
96,152,71378,1,0
96,152,71464,1,0
192,24,71635,2,0,B|184:80|144:104,1,80
272,40,71978,1,4
272,40,72064,1,0
272,40,72149,1,0
384,144,72321,2,0,B|328:136|304:96,1,80
464,128,72664,5,4
464,128,72749,1,0
464,128,72835,1,0
400,272,73007,2,0,B|408:216|448:192,1,80
480,264,73349,1,4
480,264,73435,1,0
480,264,73521,2,0,B|464:296,4,20
416,352,73864,1,4
320,304,74035,5,4
232,352,74207,1,0
240,248,74378,1,0
288,344,74549,1,0
200,296,74721,5,4
296,248,74892,1,0
208,192,75064,2,0,B|192:168,4,20
280,152,75407,5,4
280,152,75492,1,0
280,152,75578,1,0
208,120,75749,2,0,B|224:80|272:72,1,80
360,88,76092,1,4
456,136,76264,1,0
456,240,76435,1,4
360,296,76607,6,0,B|336:312,4,20,4|0|0|0|0
256,296,76949,1,0
160,344,77121,1,0
168,240,77292,2,0,B|160:208,4,20,4|0|0|0|0
256,184,77635,1,0
168,128,77807,1,4
256,72,77978,2,0,B|288:64,4,20,4|0|0|0|0
360,64,78321,6,0,B|384:72,4,20
480,160,78664,2,0,B|456:168,2,20,4|0|0
432,176,78835,2,0,B|360:200,3,40,4|0|0|0
352,184,79178,6,0,B|312:160|264:176,2,80
304,248,79521,5,4
304,248,79607,1,0
304,248,79692,1,0
192,312,79864,1,8
192,312,80035,1,0
80,248,80207,1,0
80,248,80378,1,0
80,120,80549,1,8
80,120,80721,1,0
168,24,80892,6,0,B|200:56|184:120,1,80,4|0
168,224,81235,2,0,B|208:192|272:208,1,80,8|0
312,96,81578,2,0,B|352:120|360:184,1,80
328,288,81921,2,0,B|360:320|408:320,1,80,8|0
424,192,82264,5,4
424,192,82349,1,0
424,192,82435,1,0
440,64,82607,1,8
440,64,82778,1,0
312,96,82949,1,0
312,96,83121,1,0
192,48,83292,1,8
192,48,83464,1,0
96,136,83635,6,0,B|80:176|96:192,2,40,4|0|0
192,48,83978,1,8
216,176,84149,1,0
152,288,84321,1,0
280,280,84492,2,0,B|304:288,4,20,0|0|0|0|8
408,280,84835,1,0
472,168,85007,6,0,B|448:80,1,80,4|0
320,240,85349,2,0,B|344:152,1,80,8|0
216,144,85692,2,0,B|192:56,1,80
96,312,86035,2,0,B|120:224,1,80,8|0
64,120,86378,6,0,B|48:136,4,20,4|0|0|0|0
152,72,86721,1,8
216,144,86892,1,0
304,80,87064,1,0
352,168,87235,1,0
432,128,87407,2,0,B|448:104,4,20,8|0|0|0|0
432,208,87750,5,4
384,272,87921,2,0,B|392:304,4,20,0|0|0|0|8
296,224,88264,1,0
232,312,88435,1,0
168,200,88607,2,0,B|160:168,4,20,0|0|0|0|8
72,312,88950,1,0
56,208,89121,5,4
48,184,89207,1,0
48,160,89292,1,0
56,136,89378,1,0
72,120,89464,1,4
96,104,89550,1,0
120,96,89635,1,0
144,96,89721,1,0
168,96,89807,6,0,B|200:96,4,20,4|0|0|0|0
344,96,90150,2,0,B|312:96,4,20,4|0|0|0|0
256,192,90492,12,4,91521
384,256,91864,6,0,B|344:216|288:216,1,80,4|0
432,344,92207,1,8
280,256,92378,1,0
224,344,92550,1,0
328,336,92721,1,0
432,344,92892,1,8
384,256,93064,1,0
432,96,93235,6,0,B|464:200,1,80,4|0
328,152,93578,2,0,B|296:256,1,80,8|0
184,48,93921,2,0,B|216:152,1,80
96,160,94264,2,0,B|64:264,1,80,8|0
80,288,94607,6,0,B|48:184,1,80,4|0
184,232,94950,2,0,B|216:128,1,80,8|0
328,336,95292,2,0,B|296:232,1,80
416,224,95635,2,0,B|448:120,1,80,8|0
360,96,95978,5,4
360,96,96064,1,0
360,96,96150,1,0
264,184,96321,1,8
384,144,96492,2,0,B|344:112|288:160|208:112,1,160,4|0
312,264,97007,5,8
208,192,97178,1,0
264,64,97350,2,0,B|224:32|168:40,1,80,4|0
152,144,97692,2,0,B|112:176|56:168,1,80,8|0
248,320,98035,2,0,B|288:352|344:344,1,80
360,240,98378,2,0,B|400:208|456:216,1,80,8|0
256,192,98721,12,4,99750
192,144,100092,6,0,B|176:80|112:120|88:32,1,160,4|0
320,240,100607,2,0,B|336:304|400:264|424:352,1,160,4|0
256,192,101121,1,4
256,192,101207,1,0
256,192,101292,1,0
152,232,101464,5,4
256,32,101807,1,4
336,112,101978,1,4
336,112,102064,1,0
336,112,102150,2,0,B|384:80|400:144|472:112,2,120,4|4|4
256,32,102835,5,4
144,56,103007,1,0
224,136,103178,1,8
256,32,103350,1,0
184,95,103521,5,0
280,120,103692,1,0
256,32,103864,1,8
184,95,104035,1,0
88,160,104207,6,0,B|48:256,1,80,4|0
168,256,104550,2,0,B|208:352,1,80,8|0
320,192,104892,2,0,B|280:288,1,80,0|0
408,256,105235,2,0,B|448:352,1,80,8|0
320,280,105578,6,0,B|384:256|424:312|504:272,1,160,4|0
192,104,106092,2,0,B|128:128|88:72|8:112,1,160
256,192,106607,1,4
256,192,106692,1,0
256,192,106778,1,0
256,192,106950,12,4,107978
240,152,108321,5,4
304,200,108492,1,0
232,232,108664,1,12
288,152,108835,5,0
288,248,109007,1,12
208,192,109178,1,0
336,168,109350,5,12
248,280,109521,1,0
192,144,109692,1,12
192,144,109778,1,0
192,144,109864,1,0
432,64,110207,5,0
432,64,110292,1,0
432,64,110378,1,12
80,64,110721,5,12
80,64,110807,1,0
80,64,110892,1,0
80,64,110978,1,0
80,64,111064,6,0,B|56:96|64:112,3,40,12|0|0|0
80,208,111407,2,0,B|104:176|96:160,3,40,12|0|0|0
192,104,111750,2,0,B|168:136|176:152,3,40,12|0|0|0
208,240,112092,2,0,B|232:208|224:192,3,40,12|0|0|0
256,168,112435,1,4
360,136,112607,6,0,B|360:112,4,20,0|0|0|0|4
424,224,112950,2,0,B|424:248,4,20,0|0|0|0|4
328,280,113292,2,0,B|328:304,4,20,0|0|0|0|4
256,192,113635,1,2
256,192,113807,1,4
