osu file format v9

[General]
AudioFilename: xholic.mp3
AudioLeadIn: 0
PreviewTime: 44518
Countdown: 0
SampleSet: Normal
StackLeniency: 0.6
Mode: 0
LetterboxInBreaks: 0

[Editor]
Bookmarks: 7605,18373,26065,29142,32219,41450,44526,50680,56834,62990,69142,75296,93759,104721,105682,115298
DistanceSpacing: 0.8
BeatDivisor: 4
GridSize: 16

[Metadata]
Title:Yami ~ Shoujo no Yume , Kyomu no Sekai ~
Artist:44teru-k
Creator:AngelHoney
Version:Insane
Source:BMS
Tags:wmfchris xholic

[Difficulty]
HPDrainRate:5
CircleSize:4
OverallDifficulty:5
ApproachRate:7
SliderMultiplier:2
SliderTickRate:1

[Events]
//Background and Video events
0,0,"11624943.JPG"
//Break Periods
2,93959,103725
//Storyboard Layer 0 (Background)
//Storyboard Layer 1 (Fail)
//Storyboard Layer 2 (Pass)
//Storyboard Layer 3 (Foreground)
Sprite,Foreground,Centre,"SB\SB01.jpg",320,240 F,0,99144,100682,0,0.5 S,0,99144,101452,0.8,2 F,0,100682,101452,0.5,0 F,0,101452,102605,0,0.5 M,0,101452,102990,400,300,200,200 S,0,101452,102990,1,1.5 F,0,102605,102990,0.5,0 F,0,102990,104144,0,0.5 M,0,102990,104528,150,350,350,200 S,0,102990,104528,1,1.3 F,0,104144,104528,0.5,0
//Storyboard Sound Samples
//Background Colour Transformations
3,100,0,0,0

[TimingPoints]
1452,384.615384615385,4,1,0,30,1,0
7557,-100,4,1,0,60,0,0
7605,-100,4,1,0,60,0,1
7653,-100,4,1,0,60,0,0
18327,-100,4,1,0,70,0,0
19913,-100,4,1,0,70,0,1
19961,-100,4,1,0,70,0,0
32221,-100,4,1,0,70,0,1
32269,-100,4,1,0,70,0,0
44528,-100,4,1,0,70,0,1
44625,-100,4,1,0,70,0,0
56836,-100,4,1,0,70,0,1
56884,-100,4,1,0,70,0,0
69048,-100,4,1,0,60,0,0
81403,-100,4,1,0,70,0,0
81452,-100,4,1,0,70,0,1
81500,-100,4,1,0,70,0,0
106067,-100,4,1,0,70,0,1
106115,-100,4,1,0,70,0,0
119144,-100,4,1,0,5,0,0

[Colours]
Combo1 : 248,211,171
Combo2 : 171,252,203
Combo3 : 175,221,254
Combo4 : 249,254,186
Combo5 : 240,80,80

[HitObjects]
96,128,7605,6,0,B|40:256|176:320,1,200,4|8
208,240,8182,1,0
272,304,8375,2,0,B|272:368,2,50,0|0|2
336,240,8759,2,0,B|336:176,2,50,8|0|2
400,304,9144,6,0,B|512:240|432:112,1,200,0|8
368,192,9721,2,0,B|336:96,1,100
256,144,10105,1,2
144,192,10298,2,0,B|176:96,1,100,8|2
256,256,10682,5,0
256,256,10875,1,0
336,320,11067,1,8
432,304,11259,1,0
464,208,11452,2,0,B|480:144,2,50,0|0|2
384,96,11836,2,0,B|368:160,2,50,8|0|2
256,128,12221,6,0,B|304:224,2,100,0|0|8
176,176,12798,2,0,B|128:80,2,100,0|0|2
96,224,13375,2,0,B|16:272,2,50,8|0|2
144,320,13759,6,0,B|256:384|352:336,1,200,0|8
256,288,14336,2,0,B|400:288|448:160,1,200,0|2
320,208,14913,2,0,B|384:192|384:112,2,100,8|2|0
288,112,15490,1,0
192,144,15682,2,0,B|176:96|224:32,1,100,8|0
96,48,16067,1,0
32,144,16259,1,2
32,144,16355,1,0
32,144,16452,1,0
32,144,16548,1,0
32,144,16644,1,2
32,256,16836,6,0,B|64:320|144:304,1,100
208,256,17221,1,8
144,176,17413,1,0
240,144,17605,2,0,B|272:80,2,50,0|0|2
336,176,17990,2,0,B|384:224|336:304,1,100,8|2
240,352,18375,5,0
240,352,18471,1,0
240,352,18567,1,0
240,352,18663,1,0
240,352,18759,1,4
80,96,19144,1,0
80,96,19240,1,0
80,96,19336,1,0
80,96,19432,1,0
80,96,19528,1,4
336,112,19913,6,0,B|384:160|352:224,1,100,6|2
256,176,20298,2,0,B|208:144|240:48,2,100,0|2|0
192,256,20875,2,0,B|240:304|304:272,1,100,2|2
368,224,21259,2,0,B|448:128,1,100,0|6
368,80,21644,1,2
304,144,21836,2,0,B|224:64,1,100,0|2
208,176,22221,1,0
128,112,22413,1,2
48,48,22605,6,0,B|-32:160|64:256,1,200,2|6
128,176,23182,1,2
176,272,23375,2,0,B|224:240|232:160,1,100,0|2
320,144,23759,2,0,B|320:208|392:264,2,100,0|2|2
432,128,24336,1,0
448,240,24528,6,0,B|488:360,1,100,6|0
368,304,24913,2,0,B|256:384,1,100,2|0
256,256,25298,2,0,B|176:192,1,100,2|0
176,304,25682,1,2
272,144,25875,1,2
80,128,26067,5,6
144,48,26259,2,0,B|192:16|256:48,1,100,0|2
272,144,26644,2,0,B|336:160|384:96,1,100,2|0
384,224,27028,1,2
336,320,27221,1,2
448,320,27413,1,0
496,208,27605,6,0,B|512:144|464:96,1,100,6|0
384,112,27990,1,2
304,176,28182,2,0,B|240:160|224:112,1,100,2|0
176,32,28567,1,2
80,80,28759,1,2
96,192,28952,1,0
48,304,29144,6,0,B|96:320,2,50,6|0|2
192,336,29528,2,0,B|304:352|368:240,1,200,0|2
256,192,30105,2,0,B|192:192|160:144,2,100,2|2|0
256,192,30682,12,0,31836
96,64,32221,6,0,B|48:96|24:152,1,100,6|0
128,160,32605,2,0,B|160:112|240:112,1,100,2|0
192,224,32990,2,0,B|144:256|128:320,1,100,2|0
240,304,33375,2,0,B|368:304,1,100,2|2
416,240,33759,5,0
464,160,33952,1,0
304,144,34144,6,0,B|256:192|272:272,1,100,2|0
224,112,34528,2,0,B|206:46|129:20,1,100,2|0
304,64,34913,2,0,B|369:81|430:27,1,100,2|2
448,144,35298,5,0
464,240,35490,1,0
256,192,35682,6,0,B|368:192,1,100,2|0
208,256,36067,2,0,B|242:362,1,100,2|0
136,224,36452,2,0,B|45:289,1,100,2|0
152,144,36836,2,0,B|61:78,1,100,2|0
224,120,37221,2,0,B|258:13,1,100,2|2
352,64,37605,5,0
448,96,37798,1,0
448,208,37990,6,0,B|448:272|400:320,1,100,6|2
352,224,38375,2,0,B|368:176|336:96,1,100,2|2
256,192,38759,2,0,B|256:256|176:288,1,100
160,192,39144,2,0,B|160:144|112:96,1,100,2|2
64,192,39528,2,0,B|59:255|112:304,1,100,0|0
160,192,39913,2,0,B|192:256|256:256,1,100,2|2
256,160,40298,2,0,B|320:176|384:128,1,100
304,64,40682,2,0,B|368:64|400:-16,1,100,2|2
208,32,41067,2,0,B|144:32|112:96,1,100
32,224,41452,5,0
32,224,41548,1,0
32,224,41644,1,0
32,224,41740,1,0
32,224,41836,2,2,B|80:272|144:254,1,100
240,128,42221,1,0
240,128,42317,1,0
240,128,42413,1,0
240,128,42509,1,0
240,128,42605,2,2,B|208:64|144:48,1,100
320,240,42990,5,0
320,240,43086,1,0
320,240,43182,1,0
320,240,43278,1,0
320,240,43375,2,2,B|288:304|336:352,1,100
368,80,43759,1,0
368,80,43855,1,0
368,80,43952,1,0
368,80,44048,1,0
368,80,44144,2,2,B|352:144|288:160,1,100
128,48,44528,6,2,B|80:96|96:160,1,100,6|2
192,128,44913,1,0
272,192,45105,2,0,B|240:240|160:224,2,100,0|2|2
336,112,45682,2,0,B|400:128|416:192,1,100
336,256,46067,2,2,B|368:320|448:304,1,100,2|2
496,240,46452,1,0
464,144,46644,1,0
400,64,46836,2,2,B|336:80|320:144,1,100
240,96,47221,1,0
224,112,47317,1,0
208,128,47413,1,0
96,176,47605,6,2,B|112:240|48:304,1,100
208,224,47990,2,0,B|176:288|208:352,2,100,0|0|2
288,160,48567,1,2
368,112,48759,2,0,B|416:224|336:320,1,200,0|2
272,256,49336,1,2
192,208,49528,2,0,B|240:144|208:80,1,100
112,144,49913,2,2,B|64:208|112:272,1,100
176,304,50298,2,0,B|240:320|288:256,1,100,2|0
192,208,50682,6,0,B|208:160|288:144,2,100,4|2|0
272,272,51259,1,2
336,352,51452,2,0,B|464:320|464:176,1,200,0|2
432,128,52028,1,0
352,80,52221,2,0,B|288:96|272:160,1,100,4|2
192,208,52605,2,0,B|208:160|176:96,1,100,0|2
96,176,52990,2,0,B|64:240|128:304,2,100,0|0|2
192,208,53567,1,0
176,112,53759,6,2,B|304:48|400:144,1,200,6|2
304,192,54336,1,2
240,272,54528,2,2,B|352:336|448:240,1,200,6|2
464,176,55105,1,2
416,96,55298,2,2,B|352:64|304:112,1,100,4|2
224,96,55682,1,0
224,96,55778,1,0
224,96,55875,1,0
240,192,56067,2,2,B|256:256|176:304,1,100,4|2
114,248,56452,1,0
114,248,56548,1,0
114,248,56644,1,0
96,144,56836,6,0,B|144:176|208:144,2,100,6|2|0
16,224,57413,1,0
144,224,57605,2,2,B|160:272|128:336,1,100
256,256,57990,2,0,B|272:192|352:176,1,100
400,256,58375,2,0,B|432:336|512:320,2,100,2|2|0
496,208,58952,1,0
489,97,59144,2,2,B|432:112|416:160,1,100
336,80,59528,2,0,B|320:128|256:144,1,100
176,96,59913,5,2
96,144,60105,1,2
64,240,60298,1,0
128,320,60490,1,0
240,320,60682,2,0,B|208:272|256:208,2,100,2|2|0
336,272,61259,1,0
304,176,61452,2,2,B|352:192|400:160,1,100
480,112,61836,2,0,B|496:64,2,50
480,208,62221,2,2,B|512:256|480:320,1,100
400,256,62605,2,0,B|368:304|400:368,1,100,2|0
288,320,62990,5,6
192,352,63182,1,2
192,256,63375,1,0
112,192,63567,2,0,B|96:256|0:272,1,100,2|0
16,144,63952,1,2
96,80,64144,2,0,B|160:48|224:96,1,100,2|0
272,128,64528,1,6
208,208,64721,1,2
304,240,64913,1,0
368,160,65105,2,0,B|432:176|432:256,1,100,2|0
448,320,65490,1,2
352,304,65682,2,0,B|288:336|304:416,1,100,2|0
208,320,66067,5,6
288,256,66259,1,0
192,224,66452,1,2
112,288,66644,1,2
80,192,66836,1,6
160,128,67028,1,0
256,144,67221,1,2
320,64,67413,1,2
208,32,67605,5,0
208,32,67702,1,0
208,32,67798,1,0
80,96,67990,1,0
80,96,68086,1,0
80,96,68182,1,0
240,160,68375,1,0
240,160,68471,1,0
240,160,68567,1,0
80,240,68759,1,0
80,240,68855,1,0
80,240,68952,1,0
224,320,69144,5,0
224,320,69240,1,0
224,320,69336,1,0
224,320,69432,1,0
224,320,69528,1,0
320,256,69721,2,0,B|336:304,1,50
432,208,70009,2,0,B|448:272,1,50
496,112,70298,1,0
464,104,70394,1,0
432,96,70490,1,0
304,64,70682,5,0
304,64,70778,1,0
304,64,70875,1,0
304,64,70971,1,0
304,64,71067,1,0
224,192,71259,2,0,B|288:176,1,50
144,96,71548,2,0,B|80:112,1,50
64,240,71836,1,0
72,272,71932,1,0
80,304,72028,1,0
224,320,72221,5,0
216,288,72317,1,0
208,256,72413,1,0
144,144,72605,2,0,B|272:160,1,100
256,192,72894,2,0,B|384:208,1,100
368,240,73182,2,0,B|496:256,1,100
480,288,73471,1,0
488,320,73567,1,0
352,352,73759,5,0
352,352,73855,1,0
352,352,73952,1,0
240,288,74144,1,0
112,304,74336,1,0
112,304,74432,1,0
112,304,74528,1,0
32,192,74721,1,0
112,80,74913,1,0
112,80,75009,1,0
112,80,75105,1,0
112,80,75202,1,0
112,80,75298,5,0
145,94,75394,1,0
182,103,75490,1,0
217,102,75586,1,0
253,92,75682,1,0
352,32,75875,2,0,B|384:96,1,50,4|0
480,144,76163,2,0,B|464:208,1,50
352,224,76452,1,4
332,254,76548,1,0
322,292,76644,1,0
192,320,76836,5,4
164,294,76932,1,4
131,281,77028,1,4
94,276,77125,1,0
59,284,77221,1,0
96,176,77413,2,0,B|32:160,1,50,4|0
144,80,77702,2,0,B|208:64,1,50
326,123,77990,1,4
292,147,78086,1,0
256,160,78182,1,0
384,224,78375,5,4
384,224,78471,1,0
384,224,78567,2,0,B|464:240|512:224,1,100
288,304,78952,1,4
288,304,79048,1,0
288,304,79144,2,0,B|240:320|176:288,1,100
29,198,79528,1,4
64,208,79625,1,0
93,214,79721,1,0
32,80,79913,5,4
68,88,80009,1,0
109,94,80105,1,0
146,95,80202,1,0
182,90,80298,1,0
216,79,80394,1,0
248,65,80490,1,4
282,55,80586,1,0
318,56,80682,1,0
350,68,80778,1,0
381,91,80875,1,0
399,123,80971,1,0
404,160,81067,1,4
393,197,81163,1,0
376,227,81259,1,4
349,251,81355,1,4
317,271,81452,6,0,B|253:303|205:287,1,100,6|2
144,112,81836,2,0,B|208:128|240:160,1,100,0|2
254,183,82125,1,0
60,310,82317,1,0
64,272,82413,2,0,B|80:208|144:192,2,100,2|2|0
192,304,82990,6,2,B|304:352|416:304,1,200
288,160,83567,2,0,B|304:224,1,50,2|0
416,192,83855,2,2,B|336:176|272:240,1,150
176,176,84336,1,0
48,192,84528,6,0,B|48:144|96:96,2,100,2|0|2
32,336,85105,2,0,B|96:304,1,50,2|0
208,256,85394,2,2,B|176:208|192:128,1,100,2|2
208,112,85682,2,2,B|240:176|288:192,1,100,2|2
336,48,86067,6,2,B|432:128|400:272,1,200
288,320,86644,2,2,B|256:272|272:192,1,100,2|0
304,112,87028,1,2
192,80,87221,2,2,B|160:32,2,50,2|0|2
48,224,87605,6,0,B|96:176|160:192,1,100,2|0
144,304,87990,1,2
288,224,88182,1,0
272,256,88278,2,0,B|256:320|288:368,1,100,2|0
314,369,88567,2,0,B|362:321|426:321,1,100,2|2
496,224,88952,1,2
448,96,89144,6,0,B|496:64,2,50,2|0|2
304,48,89528,1,0
240,224,89721,2,0,B|304:192,1,50,2|0
240,112,90009,2,2,B|256:208|368:240,1,150,2|2
448,256,90490,1,2
304,336,90682,6,2,B|256:368|208:368,1,100,4|0
80,240,91067,1,0
80,240,91163,1,0
80,240,91259,1,0
80,240,91355,1,0
80,240,91452,2,2,B|128:208|208:192,1,100,4|0
400,160,91836,1,0
400,160,91932,1,0
400,160,92028,1,0
400,160,92125,1,0
400,160,92221,6,2,B|352:192|304:192,1,100,4|0
112,80,92605,1,0
112,80,92702,1,0
112,80,92798,1,0
112,80,92894,1,0
112,80,92990,2,2,B|160:48|224:48,1,100,4|0
368,240,93375,1,0
368,240,93471,1,0
368,240,93567,1,0
368,240,93663,1,0
368,240,93759,5,4
80,176,104625,6,0,B|32:224,2,50
256,48,105298,6,0,B|256:112,1,50,0|0
336,128,105490,2,0,B|336:64,1,50
416,64,105682,2,0,B|416:128,1,50
496,128,105875,2,0,B|496:64,1,50
480,208,106067,6,0,B|416:208,3,50,6|0|2|0
384,288,106452,2,0,B|432:288,3,50,8|0|2|0
352,208,106836,2,0,B|288:208,3,50,2|0|2|0
256,288,107221,2,0,B|320:288,3,50,8|0|2|0
224,208,107605,2,0,B|160:208,3,50,2|0|2|0
128,288,107990,2,0,B|192:288,3,50,8|0|2|0
96,208,108375,2,0,B|48:208,3,50,2|0|2|0
0,288,108759,2,0,B|80:288,3,50,8|0|2|0
80,352,109144,6,0,B|144:336,3,50,2|0|2|0
208,352,109529,2,0,B|272:336,3,50,8|0|2|0
336,352,109913,2,0,B|400:336,3,50,2|0|2|0
464,352,110298,2,0,B|528:336,3,50,8|0|2|0
480,272,110682,2,0,B|464:208,3,50,2|0|2|0
400,256,111067,2,0,B|384:192,3,50,8|0|2|0
320,240,111452,2,0,B|304:176,3,50,2|0|2|0
240,224,111836,2,0,B|224:160,3,50,8|0|2|0
144,192,112221,6,0,B|80:176,3,50,2|0|2|0
128,112,112606,2,0,B|64:96,3,50,8|0|2|0
208,80,112990,2,0,B|272:64,3,50,2|0|2|0
240,160,113375,2,0,B|304:144,3,50,8|0|2|0
304,224,113759,2,0,B|368:240,3,50,2|0|2|0
320,304,114144,2,0,B|384:324,3,50,8|0|2|0
224,272,114529,2,0,B|160:288,3,50,2|0|2|0
208,352,114913,2,0,B|144:368,3,50,8|0|2|0
78,353,115298,5,0
54,322,115394,1,0
39,287,115490,1,0
28,251,115586,1,0
16,212,115682,2,0,B|0:160|32:80,1,100,4|0
162,264,116067,1,0
175,228,116163,1,0
183,189,116259,1,0
188,150,116355,1,0
192,112,116452,2,0,B|201:59|185:-5,1,100,4|0
350,301,116836,5,0
326,270,116932,1,0
311,235,117028,1,0
300,199,117124,1,0
288,160,117220,2,0,B|272:108|304:28,1,100,4|0
470,354,117605,1,0
483,318,117701,1,0
491,279,117797,1,0
496,240,117893,1,0
500,202,117990,2,0,B|509:149|493:85,1,100,4|0
144,96,118759,6,0,B|80:192|144:288,1,200,4|0
