osu file format v12

[General]
AudioFilename: 1.mp3
AudioLeadIn: 0
PreviewTime: 19920
Countdown: 0
SampleSet: Normal
StackLeniency: 0.7
Mode: 0
LetterboxInBreaks: 0
WidescreenStoryboard: 0

[Editor]
DistanceSpacing: 0.8
BeatDivisor: 1
GridSize: 32
TimelineZoom: 2

[Metadata]
Title:Yami ~ Shoujo no Yume , Kyomu no Sekai ~
TitleUnicode:閻~少女ノ夢、虚無ノ世界~
Artist:44teru-k
ArtistUnicode:44teru-k
Creator:[Twinkle]
Version:Hyper
Source:BMS
Tags:xholic Stream [Minakami_Yuki]
BeatmapID:374403
BeatmapSetID:149173

[Difficulty]
HPDrainRate:5
CircleSize:4
OverallDifficulty:6
ApproachRate:8
SliderMultiplier:1.8
SliderTickRate:1

[Events]
//Background and Video events
0,0,"0030110128.jpg",0,0
//Break Periods
2,93959,105317
//Storyboard Layer 0 (Background)
//Storyboard Layer 1 (Fail)
//Storyboard Layer 2 (Pass)
//Storyboard Layer 3 (Foreground)
//Storyboard Sound Samples
//Background Colour Transformations
3,100,163,162,255

[TimingPoints]
1452,384.615384615385,4,1,1,60,1,0
7605,-100,4,1,1,60,0,1
7702,-100,4,1,1,60,0,0
19913,-100,4,1,1,60,0,0
30682,-100,4,2,1,60,0,0
32221,-100,4,1,1,60,0,0
44528,-100,4,1,1,60,0,1
44625,-100,4,1,1,60,0,0
56836,-100,4,1,1,60,0,1
56932,-100,4,1,1,60,0,0
69144,-100,4,1,3,30,0,0
74817,-100,4,1,1,30,0,0
79913,-100,4,1,1,40,0,1
80009,-100,4,1,1,40,0,0
80298,-100,4,1,1,50,0,0
80682,-100,4,1,1,60,0,0
81067,-100,4,1,1,70,0,0
81452,-100,4,1,1,70,0,0
90202,-100,4,1,1,40,0,0
106067,-100,4,1,1,70,0,1
106163,-100,4,1,1,70,0,0
115298,-100,4,1,1,70,0,0
118759,-100,4,1,1,60,0,0

[Colours]
Combo1 : 255,0,0
Combo2 : 194,134,255
Combo3 : 255,155,255
Combo4 : 157,157,255
Combo5 : 255,196,136

[HitObjects]
88,192,7605,6,0,P|168:108|264:88,1,180,4|8,0:0|0:0,0:0:0:0:
336,88,8182,1,0,0:0:0:0:
404,172,8375,1,8,0:0:0:0:
404,172,8471,1,0,0:0:0:0:
404,172,8567,1,0,0:0:0:0:
328,248,8759,1,8,0:0:0:0:
328,248,8855,1,0,0:0:0:0:
328,248,8952,1,0,0:0:0:0:
216,330,9144,6,0,P|123:354|46:296,1,180,8|8,0:0|0:0,0:0:0:0:
144,244,9721,1,0,0:0:0:0:
64,168,9913,1,8,0:0:0:0:
64,168,10009,1,0,0:0:0:0:
64,168,10105,1,0,0:0:0:0:
140,92,10298,1,8,0:0:0:0:
140,92,10394,1,0,0:0:0:0:
140,92,10490,1,8,0:0:0:0:
232,32,10682,6,0,P|284:44|316:72,1,90,8|0,0:0|0:0,0:0:0:0:
472,184,11067,2,0,P|420:172|388:144,1,90,8|0,0:0|0:0,0:0:0:0:
311,149,11452,2,0,P|275:175|232:184,1,90,8|0,0:0|0:0,0:0:0:0:
392,66,11836,2,0,P|428:40|472:32,1,90,8|0,0:0|0:0,0:0:0:0:
376,328,12221,5,8,0:0:0:0:
376,328,12317,1,0,0:0:0:0:
376,328,12413,1,0,0:0:0:0:
268,328,12605,1,8,0:0:0:0:
268,328,12702,1,0,0:0:0:0:
268,328,12798,1,0,0:0:0:0:
164,304,12990,2,0,B|112:284|88:220,1,90,8|8,0:0|0:0,0:0:0:0:
112,140,13375,2,0,B|164:160|188:224,1,90,8|8,0:0|0:0,0:0:0:0:
260,220,13759,5,8,0:0:0:0:
296,228,13855,1,0,0:0:0:0:
332,220,13952,1,0,0:0:0:0:
328,84,14144,1,8,0:0:0:0:
292,76,14241,1,0,0:0:0:0:
256,84,14337,1,0,0:0:0:0:
156,76,14528,6,0,L|108:56,2,45,8|0|0,0:0|0:0|0:0,0:0:0:0:
104,192,14913,2,0,L|164:192,2,45,8|0|0,0:0|0:0|0:0,0:0:0:0:
156,308,15298,2,0,L|108:328,2,45,8|0|0,0:0|0:0|0:0,0:0:0:0:
360,324,15682,5,8,0:0:0:0:
368,288,15778,1,0,0:0:0:0:
360,252,15875,1,0,0:0:0:0:
256,252,16067,1,8,0:0:0:0:
248,288,16163,1,0,0:0:0:0:
256,324,16260,1,0,0:0:0:0:
360,132,16452,1,8,0:0:0:0:
368,96,16549,1,0,0:0:0:0:
360,60,16645,1,8,0:0:0:0:
200,62,16836,6,0,P|153:53|103:77,1,90,8|0,0:0|0:0,0:0:0:0:
107,231,17221,2,0,P|145:208|157:159,1,90,8|0,0:0|0:0,0:0:0:0:
332,64,17605,2,0,L|292:144,1,90,8|0,0:0|0:0,0:0:0:0:
276,307,17990,2,0,L|240:219,1,90,8|0,0:0|0:0,0:0:0:0:
168,144,18375,5,8,0:0:0:0:
140,144,18471,1,8,0:0:0:0:
112,144,18567,1,8,0:0:0:0:
84,144,18663,1,8,0:0:0:0:
56,144,18759,1,12,0:0:0:0:
314,234,19144,5,8,0:0:0:0:
336,252,19240,1,8,0:0:0:0:
357,269,19336,1,8,0:0:0:0:
378,287,19432,1,8,0:0:0:0:
400,305,19528,1,12,0:0:0:0:
408,168,19913,6,0,P|376:108|324:88,1,90,12|0,0:0|0:0,0:0:0:0:
252,72,20298,1,8,0:0:0:0:
144,60,20490,2,0,P|88:80|52:128,2,90,0|8|0,0:0|0:0|0:0,0:0:0:0:
152,168,21067,1,8,0:0:0:0:
112,268,21259,1,0,0:0:0:0:
216,300,21452,6,0,P|244:352|300:380,2,90,8|0|8,0:0|0:0|0:0,0:0:0:0:
320,276,22028,1,0,0:0:0:0:
232,212,22221,1,8,0:0:0:0:
336,188,22413,1,0,0:0:0:0:
248,128,22605,1,8,0:0:0:0:
352,96,22798,1,8,0:0:0:0:
456,68,22990,6,0,P|484:152|444:268,1,180,8|8,0:0|0:0,0:0:0:0:
384,312,23567,1,0,0:0:0:0:
276,320,23759,2,0,P|208:284|196:268,1,90,8|0,0:0|0:0,0:0:0:0:
304,116,24144,2,0,P|372:152|384:168,1,90,8|0,0:0|0:0,0:0:0:0:
336,240,24528,5,8,0:0:0:0:
284,228,24625,1,0,0:0:0:0:
248,188,24721,1,0,0:0:0:0:
360,32,24913,1,8,0:0:0:0:
412,44,25010,1,0,0:0:0:0:
448,84,25106,1,0,0:0:0:0:
304,116,25298,5,8,0:0:0:0:
252,98,25394,1,0,0:0:0:0:
221,57,25491,1,8,0:0:0:0:
391,169,25682,1,8,0:0:0:0:
432,200,25779,1,0,0:0:0:0:
450,252,25875,1,8,0:0:0:0:
324,312,26067,5,8,0:0:0:0:
220,340,26259,2,0,L|148:352,2,45,0|0|8,0:0|0:0|0:0,0:0:0:0:
280,272,26644,1,0,0:0:0:0:
136,260,26836,5,8,0:0:0:0:
108,156,27028,2,0,L|96:84,2,45,0|0|8,0:0|0:0|0:0,0:0:0:0:
176,216,27413,1,0,0:0:0:0:
188,72,27605,5,8,0:0:0:0:
292,44,27797,2,0,L|364:32,2,45,0|0|8,0:0|0:0|0:0,0:0:0:0:
232,112,28182,1,0,0:0:0:0:
376,124,28375,5,8,0:0:0:0:
404,228,28567,2,0,L|416:300,2,45,0|0|8,0:0|0:0|0:0,0:0:0:0:
336,168,28952,1,8,0:0:0:0:
292,268,29144,1,8,0:0:0:0:
292,268,29336,1,0,0:0:0:0:
56,273,29721,5,0,0:0:0:0:
56,273,29913,1,8,0:0:0:0:
56,274,30105,1,0,0:0:0:0:
141,341,30298,1,8,0:0:0:0:
141,341,30490,1,0,0:0:0:0:
239,286,30682,5,0,0:0:0:0:
226,252,30778,1,0,0:0:0:0:
206,222,30874,1,0,0:0:0:0:
180,198,30970,1,0,0:0:0:0:
148,182,31067,2,0,L|76:182,3,45,8|0|0|0,0:0|0:0|0:0|0:0,0:0:0:0:
88,92,31452,5,0,0:0:0:0:
124,92,31548,1,0,0:0:0:0:
160,92,31644,1,0,0:0:0:0:
196,92,31740,1,0,0:0:0:0:
232,92,31836,2,0,L|296:92,3,45,8|0|0|0,0:0|0:0|0:0|0:0,0:0:0:0:
372,92,32221,5,12,0:0:0:0:
372,92,32413,1,0,0:0:0:0:
452,164,32605,1,8,0:0:0:0:
452,164,32798,1,0,0:0:0:0:
352,208,32990,1,8,0:0:0:0:
352,208,33182,1,0,0:0:0:0:
420,292,33375,1,8,0:0:0:0:
420,292,33567,1,0,0:0:0:0:
316,312,33759,6,0,P|224:324|128:276,1,180,0|8,0:0|0:0,0:0:0:0:
104,256,34240,1,0,0:0:0:0:
72,212,34336,1,0,0:0:0:0:
192,204,34528,1,8,0:0:0:0:
160,160,34625,1,0,0:0:0:0:
148,108,34721,1,0,0:0:0:0:
212,20,34913,5,8,0:0:0:0:
265,113,35105,1,8,0:0:0:0:
148,108,35298,1,8,0:0:0:0:
452,328,35682,5,8,0:0:0:0:
452,328,35875,1,0,0:0:0:0:
388,240,36067,1,8,0:0:0:0:
388,240,36260,1,0,0:0:0:0:
456,156,36452,1,8,0:0:0:0:
456,156,36645,1,0,0:0:0:0:
508,248,36836,1,8,0:0:0:0:
508,248,37029,1,0,0:0:0:0:
456,156,37221,1,8,0:0:0:0:
376,84,37413,2,0,P|416:56|472:52,2,90,0|8|8,0:0|0:0|0:0,0:0:0:0:
280,36,37990,5,8,0:0:0:0:
280,36,38182,1,8,0:0:0:0:
184,88,38375,1,8,0:0:0:0:
144,104,38471,1,0,0:0:0:0:
104,124,38567,1,0,0:0:0:0:
232,156,38759,1,8,0:0:0:0:
272,172,38855,1,0,0:0:0:0:
312,192,38951,1,0,0:0:0:0:
188,228,39144,5,8,0:0:0:0:
148,244,39240,1,0,0:0:0:0:
108,264,39336,1,0,0:0:0:0:
228,300,39528,1,8,0:0:0:0:
268,316,39624,1,0,0:0:0:0:
308,336,39720,1,0,0:0:0:0:
412,304,39913,6,0,L|452:328,2,45,8|0|0,0:0|0:0|0:0,0:0:0:0:
164,140,40298,2,0,L|124:116,2,45,8|0|0,0:0|0:0|0:0,0:0:0:0:
192,300,40682,2,0,L|152:324,2,45
400,136,41067,2,0,L|440:112,2,45,8|0|0,0:0|0:0|0:0,0:0:0:0:
292,228,41452,5,8,0:0:0:0:
284,224,41548,1,8,0:0:0:0:
276,220,41644,1,8,0:0:0:0:
268,216,41740,1,8,0:0:0:0:
260,212,41836,2,0,P|216:128|248:76,1,135,12|0,0:0|0:0,0:0:0:0:
136,88,42221,5,8,0:0:0:0:
140,80,42317,1,8,0:0:0:0:
144,72,42413,1,8,0:0:0:0:
148,64,42509,1,8,0:0:0:0:
152,56,42605,2,0,P|236:12|288:44,1,135,12|0,0:0|0:0,0:0:0:0:
316,112,42990,5,8,0:0:0:0:
324,116,43086,1,8,0:0:0:0:
332,120,43182,1,8,0:0:0:0:
340,124,43278,1,8,0:0:0:0:
348,128,43375,2,0,P|392:212|360:264,1,135,12|0,0:0|0:0,0:0:0:0:
323,326,43759,5,12,0:0:0:0:
299,338,43855,1,8,0:0:0:0:
275,326,43952,1,8,0:0:0:0:
251,338,44048,1,8,0:0:0:0:
227,326,44144,1,12,0:0:0:0:
80,332,44528,5,12,0:0:0:0:
32,236,44721,1,0,0:0:0:0:
206,156,44913,5,8,0:0:0:0:
213,172,45009,1,0,0:0:0:0:
218,188,45105,1,0,0:0:0:0:
221,205,45202,1,0,0:0:0:0:
224,222,45298,2,0,P|208:278|160:318,1,90,8|0,0:0|0:0,0:0:0:0:
306,228,45682,5,8,0:0:0:0:
299,212,45778,1,0,0:0:0:0:
294,196,45874,1,0,0:0:0:0:
291,179,45971,1,0,0:0:0:0:
288,162,46067,2,0,P|304:106|352:66,1,90,8|0,0:0|0:0,0:0:0:0:
204,196,46452,5,8,0:0:0:0:
202,213,46548,1,0,0:0:0:0:
198,229,46644,1,0,0:0:0:0:
193,245,46741,1,0,0:0:0:0:
185,259,46837,2,0,P|143:299|81:310,1,90,8|0,0:0|0:0,0:0:0:0:
308,188,47221,5,8,0:0:0:0:
310,171,47317,1,0,0:0:0:0:
314,155,47413,1,8,0:0:0:0:
319,139,47510,1,0,0:0:0:0:
327,125,47606,2,0,P|368:84|430:73,1,90,8|0,0:0|0:0,0:0:0:0:
176,168,47990,5,8,0:0:0:0:
165,181,48086,1,0,0:0:0:0:
154,193,48182,1,0,0:0:0:0:
141,204,48279,1,0,0:0:0:0:
128,213,48375,2,0,P|71:227|12:205,1,90,8|0,0:0|0:0,0:0:0:0:
336,216,48759,5,8,0:0:0:0:
347,203,48855,1,0,0:0:0:0:
358,191,48951,1,0,0:0:0:0:
371,180,49048,1,0,0:0:0:0:
384,171,49144,2,0,P|440:156|499:178,1,90,8|0,0:0|0:0,0:0:0:0:
180,124,49528,5,8,0:0:0:0:
163,129,49624,1,0,0:0:0:0:
148,134,49720,1,0,0:0:0:0:
131,137,49817,1,0,0:0:0:0:
115,138,49913,2,0,P|58:122|19:73,1,90,8|8,0:0|0:0,0:0:0:0:
332,260,50298,5,8,0:0:0:0:
349,255,50394,1,0,0:0:0:0:
364,250,50490,1,8,0:0:0:0:
381,247,50587,1,0,0:0:0:0:
397,246,50682,5,12,0:0:0:0:
384,176,50875,1,0,0:0:0:0:
312,180,51067,1,8,0:0:0:0:
268,124,51259,1,0,0:0:0:0:
192,104,51452,6,0,L|144:68,1,45,8|0,0:0|0:0,0:0:0:0:
124,148,51644,2,0,L|172:184,1,45
128,248,51836,2,0,L|80:212,1,45,8|0,0:0|0:0,0:0:0:0:
60,294,52028,2,0,L|108:330,1,45
200,324,52221,5,12,0:0:0:0:
312,356,52413,1,0,0:0:0:0:
304,240,52605,1,8,0:0:0:0:
420,264,52798,1,0,0:0:0:0:
440,136,52990,6,0,L|440:88,1,45,8|0,0:0|0:0,0:0:0:0:
340,40,53182,2,0,L|340:88,1,45
252,164,53375,2,0,L|252:116,1,45,8|0,0:0|0:0,0:0:0:0:
166,22,53567,2,0,L|166:70,1,45,8|0,0:0|0:0,0:0:0:0:
132,140,53759,5,8,0:0:0:0:
32,268,53952,1,0,0:0:0:0:
192,244,54144,1,8,0:0:0:0:
88,368,54336,1,0,0:0:0:0:
160,332,54528,5,8,0:0:0:0:
232,368,54721,1,0,0:0:0:0:
304,332,54913,1,8,0:0:0:0:
376,368,55105,1,0,0:0:0:0:
440,276,55298,5,12,0:0:0:0:
296,204,55490,1,0,0:0:0:0:
440,128,55682,1,12,0:0:0:0:
296,56,55875,1,8,0:0:0:0:
216,72,56067,6,0,L|152:100,1,45,12|0,0:0|0:0,0:0:0:0:
104,124,56259,2,0,L|132:188,1,45
164,232,56452,2,0,L|122:250,1,45,4|8,0:0|0:0,0:0:0:0:
68,312,56644,2,0,L|86:353,1,45,8|8,0:0|0:0,0:0:0:0:
240,364,56836,5,12,0:0:0:0:
348,348,57028,1,0,0:0:0:0:
404,256,57221,2,0,L|432:188,3,45,8|0|0|0,0:0|0:0|0:0|0:0,0:0:0:0:
468,96,57605,1,8,0:0:0:0:
368,136,57798,1,0,0:0:0:0:
260,280,57990,6,0,L|203:232,3,45,8|0|0|0,0:0|0:0|0:0|0:0,0:0:0:0:
127,169,58374,1,8,0:0:0:0:
134,277,58567,1,0,0:0:0:0:
296,200,58759,6,0,L|333:136,3,45,8|0|0|0,0:0|0:0|0:0|0:0,0:0:0:0:
382,49,59143,1,8,0:0:0:0:
277,75,59336,1,0,0:0:0:0:
368,232,59528,6,0,L|304:194,3,45,8|0|0|0,0:0|0:0|0:0|0:0,0:0:0:0:
217,146,59913,1,8,0:0:0:0:
243,251,60105,1,0,0:0:0:0:
80,176,60298,6,0,L|48:128,1,45,8|0,0:0|0:0,0:0:0:0:
140,108,60490,2,0,L|108:64,1,45
32,60,60682,1,8,0:0:0:0:
212,224,60875,1,0,0:0:0:0:
304,68,61067,6,0,L|352:36,1,45,8|0,0:0|0:0,0:0:0:0:
372,128,61259,2,0,L|416:96,1,45
424,20,61451,1,8,0:0:0:0:
256,200,61644,1,0,0:0:0:0:
76,192,61836,6,0,L|79:134,1,45,8|0,0:0|0:0,0:0:0:0:
164,173,62028,2,0,L|164:118,1,45
104,68,62220,1,8,0:0:0:0:
152,309,62413,1,8,0:0:0:0:
152,309,62605,2,0,L|106:343,2,45,8|0|8,0:0|0:0|0:0,0:0:0:0:
262,306,62990,5,12,0:0:0:0:
353,363,63182,1,0,0:0:0:0:
437,295,63375,1,8,0:0:0:0:
430,187,63567,1,0,0:0:0:0:
379,91,63759,2,0,P|337:62|279:57,2,90,8|0|8,0:0|0:0|0:0,0:0:0:0:
288,160,64336,5,0,0:0:0:0:
190,108,64528,2,0,P|150:113|105:168,2,90,12|0|8,0:0|0:0|0:0,0:0:0:0:
186,305,65105,2,0,P|198:264|194:201,2,90,0|8|0,0:0|0:0|0:0,0:0:0:0:
335,319,65682,6,0,P|382:331|436:312,1,90,8|8,0:0|0:0,0:0:0:0:
420,188,66067,2,0,P|372:175|318:194,2,90,12|0|8,0:0|0:0|0:0,0:0:0:0:
452,64,66644,1,0,0:0:0:0:
244,68,66836,6,0,P|196:84|164:128,2,90,12|0|8,0:0|0:0|0:0,0:0:0:0:
264,180,67413,1,0,0:0:0:0:
240,292,67605,2,0,P|196:276|160:232,2,90,8|8|8,0:0|0:0|0:0,0:0:0:0:
332,320,68182,1,8,0:0:0:0:
428,248,68375,5,8,0:0:0:0:
435,262,68472,1,8,0:0:0:0:
443,276,68568,1,8,0:0:0:0:
450,291,68664,1,0,0:0:0:0:
457,305,68759,2,0,L|480:352,2,45,8|8|8,0:0|0:0|0:0,0:0:0:0:
348,140,69144,5,4,0:0:0:0:
340,124,69240,1,0,0:0:0:0:
332,108,69336,1,0,0:0:0:0:
324,92,69433,1,0,0:0:0:0:
316,76,69529,1,0,0:0:0:0:
240,148,69721,2,0,L|260:196,1,45,0|0,0:0|0:0,0:0:0:0:
144,135,70009,2,0,L|124:87,1,45,0|0,0:0|0:0,0:0:0:0:
152,224,70298,5,0,0:0:0:0:
144,240,70394,1,0,0:0:0:0:
136,256,70491,1,0,0:0:0:0:
128,272,70587,1,0,0:0:0:0:
84,300,70682,5,0,0:0:0:0:
92,316,70778,1,0,0:0:0:0:
100,332,70875,1,0,0:0:0:0:
108,348,70971,1,0,0:0:0:0:
116,364,71067,1,0,0:0:0:0:
215,325,71259,6,0,L|235:281,1,45
316,349,71548,2,0,L|336:305,1,45
332,208,71836,5,0,0:0:0:0:
324,192,71932,1,0,0:0:0:0:
316,176,72028,1,0,0:0:0:0:
308,160,72125,1,0,0:0:0:0:
260,136,72221,5,0,0:0:0:0:
268,120,72316,1,0,0:0:0:0:
276,104,72412,1,0,0:0:0:0:
284,88,72509,1,0,0:0:0:0:
292,72,72605,1,0,0:0:0:0:
424,76,72798,6,0,L|448:116,1,45
456,264,73086,2,0,L|432:224,1,45,0|0,0:0|0:0,0:0:0:0:
360,280,73375,5,0,0:0:0:0:
344,288,73471,1,0,0:0:0:0:
328,296,73567,1,0,0:0:0:0:
312,304,73664,1,0,0:0:0:0:
288,352,73760,5,0,0:0:0:0:
272,344,73855,1,0,0:0:0:0:
256,336,73951,1,0,0:0:0:0:
240,328,74048,1,0,0:0:0:0:
224,320,74144,1,0,0:0:0:0:
128,308,74336,6,0,L|128:248,1,45
36,272,74625,2,0,L|36:212,1,45
120,116,74913,5,8,0:0:0:0:
136,112,75009,1,0,0:0:0:0:
152,108,75105,1,12,0:0:0:0:
168,104,75202,1,12,0:0:0:0:
196,60,75298,5,12,0:0:0:0:
212,68,75394,1,0,0:0:0:0:
228,76,75490,1,0,0:0:0:0:
244,84,75586,1,0,0:0:0:0:
260,92,75682,1,8,0:0:0:0:
440,68,75875,6,0,L|400:44,1,45,12|0,0:0|0:0,0:0:0:0:
428,172,76163,2,0,L|468:196,1,45,0|0,0:0|0:0,0:0:0:0:
444,296,76452,5,12,0:0:0:0:
428,288,76548,1,0,0:0:0:0:
412,280,76644,1,0,0:0:0:0:
396,272,76740,1,0,0:0:0:0:
352,300,76836,5,12,0:0:0:0:
336,292,76932,1,12,0:0:0:0:
320,284,77028,1,12,0:0:0:0:
304,276,77125,1,0,0:0:0:0:
288,268,77221,1,8,0:0:0:0:
204,216,77413,6,0,L|164:192,1,45,12|0,0:0|0:0,0:0:0:0:
60,240,77702,2,0,L|128:280,1,45
180,312,77990,5,12,0:0:0:0:
196,324,78086,1,0,0:0:0:0:
212,336,78182,1,0,0:0:0:0:
228,348,78278,1,0,0:0:0:0:
276,320,78375,5,12,0:0:0:0:
292,312,78471,1,0,0:0:0:0:
308,304,78567,1,0,0:0:0:0:
324,296,78663,1,0,0:0:0:0:
340,288,78759,1,0,0:0:0:0:
420,216,78952,6,0,L|440:176,1,45,12|0,0:0|0:0,0:0:0:0:
348,124,79240,2,0,L|328:164,1,45
200,152,79528,5,12,0:0:0:0:
212,136,79625,1,0,0:0:0:0:
224,120,79721,1,0,0:0:0:0:
236,104,79817,1,0,0:0:0:0:
268,60,79913,5,12,0:0:0:0:
252,52,80009,1,0,0:0:0:0:
236,44,80105,1,0,0:0:0:0:
220,36,80202,1,0,0:0:0:0:
200,28,80298,5,0,0:0:0:0:
164,21,80394,1,0,0:0:0:0:
131,33,80490,1,12,0:0:0:0:
108,60,80586,1,0,0:0:0:0:
101,95,80682,1,0,0:0:0:0:
113,129,80778,1,0,0:0:0:0:
140,152,80874,1,0,0:0:0:0:
172,172,80971,1,0,0:0:0:0:
201,192,81067,1,12,0:0:0:0:
214,225,81163,1,0,0:0:0:0:
207,260,81259,1,8,0:0:0:0:
183,285,81355,1,8,0:0:0:0:
150,295,81452,6,0,P|126:296|105:283,4,45,12|0|0|0|8,0:0|0:0|0:0|0:0|0:0,0:0:0:0:
176,379,82028,1,0,0:0:0:0:
176,379,82125,1,0,0:0:0:0:
277,366,82317,1,0,0:0:0:0:
277,366,82414,1,0,0:0:0:0:
352,275,82605,6,0,L|392:239,1,45,8|0,0:0|0:0,0:0:0:0:
332,164,82798,2,0,L|292:200,1,45
284,208,82990,1,8,0:0:0:0:
272,220,83086,1,0,0:0:0:0:
260,232,83182,1,0,0:0:0:0:
248,244,83278,1,0,0:0:0:0:
236,256,83375,1,8,0:0:0:0:
108,264,83567,6,0,L|60:224,1,45
128,152,83855,2,0,L|72:108,1,45
188,88,84144,5,8,0:0:0:0:
204,76,84240,1,0,0:0:0:0:
220,64,84336,1,8,0:0:0:0:
236,52,84432,1,0,0:0:0:0:
280,20,84528,5,8,0:0:0:0:
292,32,84625,1,0,0:0:0:0:
304,44,84721,1,0,0:0:0:0:
316,56,84817,1,0,0:0:0:0:
328,68,84913,1,8,0:0:0:0:
424,104,85105,5,0,0:0:0:0:
424,104,85201,1,0,0:0:0:0:
344,176,85394,1,0,0:0:0:0:
344,176,85490,1,0,0:0:0:0:
428,244,85682,5,8,0:0:0:0:
440,256,85778,1,0,0:0:0:0:
452,268,85875,1,0,0:0:0:0:
464,280,85971,1,0,0:0:0:0:
460,328,86067,5,8,0:0:0:0:
444,336,86163,1,0,0:0:0:0:
428,344,86259,1,0,0:0:0:0:
412,352,86355,1,0,0:0:0:0:
396,360,86452,1,8,0:0:0:0:
296,348,86644,6,0,L|288:304,1,45
199,333,86932,2,0,L|191:289,1,45
92,280,87221,5,8,0:0:0:0:
88,264,87317,1,0,0:0:0:0:
84,248,87413,1,8,0:0:0:0:
80,232,87509,1,0,0:0:0:0:
36,204,87605,5,8,0:0:0:0:
44,188,87702,1,0,0:0:0:0:
52,172,87798,1,0,0:0:0:0:
60,156,87894,1,0,0:0:0:0:
68,140,87990,1,8,0:0:0:0:
184,100,88182,6,0,L|208:56,1,45
304,100,88471,2,0,L|328:56,1,45,0|0,0:0|0:0,0:0:0:0:
428,64,88759,5,8,0:0:0:0:
436,80,88855,1,0,0:0:0:0:
444,96,88952,1,0,0:0:0:0:
452,112,89048,1,0,0:0:0:0:
424,160,89144,5,8,0:0:0:0:
432,176,89240,1,0,0:0:0:0:
440,192,89336,1,0,0:0:0:0:
448,208,89432,1,0,0:0:0:0:
456,224,89528,1,0,0:0:0:0:
404,304,89721,6,0,L|384:348,1,45
288,300,90009,2,0,L|268:344,1,45
164,340,90298,5,8,0:0:0:0:
148,340,90394,1,0,0:0:0:0:
132,340,90490,1,0,0:0:0:0:
116,340,90586,1,0,0:0:0:0:
100,340,90682,2,0,L|40:340,4,45,12|0|0|0|12,0:0|0:0|0:0|0:0|0:0,0:0:0:0:
100,124,91452,5,12,0:0:0:0:
128,144,91548,1,0,0:0:0:0:
160,164,91644,1,0,0:0:0:0:
188,184,91740,1,0,0:0:0:0:
220,204,91836,1,12,0:0:0:0:
380,284,92221,6,0,L|428:312,4,45,12|0|0|0|12,0:0|0:0|0:0|0:0|0:0,0:0:0:0:
424,63,92990,5,12,0:0:0:0:
384,75,93086,1,0,0:0:0:0:
344,88,93182,1,0,0:0:0:0:
303,100,93278,1,0,0:0:0:0:
263,116,93375,1,12,0:0:0:0:
256,320,93759,5,12,0:0:0:0:
120,232,106067,5,4,0:0:0:0:
120,216,106163,1,0,0:0:0:0:
120,200,106259,1,0,0:0:0:0:
120,184,106355,1,0,0:0:0:0:
172,176,106452,5,8,0:0:0:0:
180,162,106548,1,0,0:0:0:0:
188,148,106644,1,0,0:0:0:0:
196,134,106740,1,0,0:0:0:0:
248,136,106836,5,8,0:0:0:0:
261,127,106932,1,0,0:0:0:0:
275,119,107028,1,0,0:0:0:0:
289,111,107124,1,0,0:0:0:0:
344,112,107221,5,8,0:0:0:0:
359,110,107317,1,0,0:0:0:0:
375,110,107413,1,0,0:0:0:0:
392,110,107509,1,0,0:0:0:0:
428,148,107605,6,0,L|456:188,3,45,8|0|0|0,0:0|0:0|0:0|0:0,0:0:0:0:
412,264,107990,2,0,L|384:224,3,45,8|0|0|0,0:0|0:0|0:0|0:0,0:0:0:0:
288,224,108375,2,0,L|316:264,3,45,8|0|0|0,0:0|0:0|0:0|0:0,0:0:0:0:
248,332,108759,2,0,L|220:292,3,45,8|0|8|0,0:0|0:0|0:0|0:0,0:0:0:0:
176,268,109144,5,8,0:0:0:0:
164,252,109240,1,0,0:0:0:0:
152,236,109336,1,0,0:0:0:0:
140,220,109432,1,0,0:0:0:0:
192,200,109528,5,8,0:0:0:0:
204,184,109625,1,0,0:0:0:0:
216,168,109721,1,0,0:0:0:0:
228,152,109817,1,0,0:0:0:0:
192,112,109913,5,8,0:0:0:0:
208,104,110009,1,0,0:0:0:0:
224,96,110105,1,0,0:0:0:0:
240,88,110202,1,0,0:0:0:0:
288,108,110298,5,8,0:0:0:0:
304,120,110394,1,0,0:0:0:0:
320,132,110490,1,0,0:0:0:0:
336,144,110586,1,0,0:0:0:0:
388,156,110682,6,0,L|436:196,3,45,8|0|0|0,0:0|0:0|0:0|0:0,0:0:0:0:
412,288,111067,2,0,L|364:248,3,45,8|0|0|0,0:0|0:0|0:0|0:0,0:0:0:0:
276,180,111452,2,0,L|324:220,3,45,8|0|8|0,0:0|0:0|0:0|0:0,0:0:0:0:
300,312,111836,2,0,L|252:272,3,45,8|0|8|0,0:0|0:0|0:0|0:0,0:0:0:0:
232,272,112221,5,8,0:0:0:0:
196,266,112317,1,0,0:0:0:0:
163,252,112413,1,0,0:0:0:0:
138,227,112509,1,0,0:0:0:0:
128,193,112605,1,8,0:0:0:0:
132,157,112701,1,0,0:0:0:0:
151,127,112797,1,0,0:0:0:0:
183,111,112894,1,0,0:0:0:0:
219,110,112990,1,8,0:0:0:0:
253,121,113086,1,0,0:0:0:0:
286,136,113182,1,0,0:0:0:0:
321,143,113278,1,0,0:0:0:0:
355,135,113374,1,8,0:0:0:0:
383,112,113470,1,0,0:0:0:0:
405,83,113567,1,0,0:0:0:0:
432,59,113663,1,0,0:0:0:0:
465,44,113759,6,0,L|517:32,3,45,8|0|0|0,0:0|0:0|0:0|0:0,0:0:0:0:
495,171,114144,2,0,L|483:119,3,45,8|0|0|0,0:0|0:0|0:0|0:0,0:0:0:0:
414,203,114528,2,0,L|439:252,3,45,8|0|0|0,0:0|0:0|0:0|0:0,0:0:0:0:
343,259,114913,2,0,L|295:236,3,45,8|0|0|0,0:0|0:0|0:0|0:0,0:0:0:0:
440,340,115298,5,8,0:0:0:0:
428,340,115394,1,8,0:0:0:0:
416,340,115490,1,8,0:0:0:0:
404,340,115586,1,8,0:0:0:0:
392,340,115682,2,0,P|316:356|296:368,1,90,12|0,0:0|2:0,0:0:0:0:
72,244,116067,5,8,0:0:0:0:
84,244,116163,1,8,0:0:0:0:
96,244,116259,1,8,0:0:0:0:
108,244,116355,1,8,0:0:0:0:
120,244,116452,2,0,P|196:260|216:272,1,90,12|0,0:0|2:0,0:0:0:0:
448,160,116836,5,8,0:0:0:0:
436,160,116932,1,8,0:0:0:0:
424,160,117028,1,8,0:0:0:0:
412,160,117124,1,8,0:0:0:0:
400,160,117220,2,0,P|324:176|304:188,1,90,12|0,0:0|2:0,0:0:0:0:
64,80,117605,5,8,0:0:0:0:
76,80,117701,1,8,0:0:0:0:
88,80,117797,1,8,0:0:0:0:
100,80,117893,1,8,0:0:0:0:
112,80,117989,2,0,P|188:96|208:108,1,90,12|0,0:0|2:0,0:0:0:0:
256,260,118759,5,12,0:0:0:0:
