osu file format v12

[General]
AudioFilename: 1.mp3
AudioLeadIn: 0
PreviewTime: 19920
Countdown: 0
SampleSet: Normal
StackLeniency: 0.7
Mode: 0
LetterboxInBreaks: 0
WidescreenStoryboard: 0

[Editor]
Bookmarks: 3952,7605,19913,25971,30682,41355,44528,50490,56836,62990,67990,74913,81452,90298,106067,115298
DistanceSpacing: 1
BeatDivisor: 1
GridSize: 32
TimelineZoom: 2.100001

[Metadata]
Title:Yami ~ Shoujo no Yume , Kyomu no Sekai ~
TitleUnicode:閻~少女ノ夢、虚無ノ世界~
Artist:44teru-k
ArtistUnicode:44teru-k
Creator:[Twinkle]
Version:Another
Source:BMS
Tags:xholic Stream [Minakami_Yuki]
BeatmapID:374400
BeatmapSetID:149173

[Difficulty]
HPDrainRate:6
CircleSize:4
OverallDifficulty:7
ApproachRate:9
SliderMultiplier:2
SliderTickRate:2

[Events]
//Background and Video events
0,0,"0030110128.jpg",0,0
//Break Periods
2,93959,105467
//Storyboard Layer 0 (Background)
//Storyboard Layer 1 (Fail)
//Storyboard Layer 2 (Pass)
//Storyboard Layer 3 (Foreground)
//Storyboard Sound Samples
//Background Colour Transformations
3,100,163,162,255

[TimingPoints]
1452,384.615384615385,4,2,1,40,1,0
1452,-100,4,2,1,60,0,0
3952,-100,4,2,1,40,0,0
4144,-90.9090909090909,4,2,1,40,0,0
4336,-83.3333333333333,4,2,1,40,0,0
4528,-100,4,2,1,40,0,0
5105,-100,4,2,1,60,0,0
5682,-100,4,2,1,40,0,0
6067,-100,4,2,1,40,0,0
6836,-100,4,2,1,60,0,0
7605,-100,4,1,1,60,0,1
7702,-100,4,1,1,60,0,0
18375,-100,4,1,1,40,0,0
19913,-200,4,1,1,60,0,0
20682,-133.333333333333,4,1,1,60,0,0
21452,-100,4,1,1,60,0,0
22221,-100,4,1,1,60,0,0
22990,-100,4,1,1,60,0,0
29048,-100,4,1,1,60,0,0
30682,-100,4,2,1,60,0,0
30875,-100,4,2,1,55,0,0
31067,-100,4,2,1,50,0,0
31259,-100,4,2,1,45,0,0
31452,-100,4,2,1,40,0,0
31644,-100,4,2,1,35,0,0
31836,-100,4,2,1,30,0,0
32028,-100,4,2,1,25,0,0
32221,-100,4,2,1,60,0,0
32413,-100,4,2,1,60,0,0
32990,-100,4,2,1,60,0,0
33182,-66.6666666666667,4,2,1,60,0,0
33375,-100,4,2,1,60,0,0
37894,-100,4,2,1,50,0,0
38375,-100,4,2,1,50,0,0
38952,-80,4,2,1,50,0,0
39721,-66.6666666666667,4,2,1,50,0,0
40490,-80,4,2,1,50,0,0
41355,-200,4,1,1,50,0,0
42028,-200,4,1,1,5,0,0
42125,-133.333333333333,4,1,1,50,0,0
42798,-133.333333333333,4,1,1,5,0,0
42894,-66.6666666666667,4,1,1,50,0,0
43567,-66.6666666666667,4,1,1,5,0,0
43663,-66.6666666666667,4,1,1,50,0,0
44336,-66.6666666666667,4,1,1,5,0,0
44528,-100,4,1,1,50,0,1
44625,-100,4,1,1,50,0,0
50682,-133.333333333333,4,1,1,60,0,0
52221,-80,4,1,1,60,0,0
53759,-100,4,1,1,80,0,0
55298,-80,4,1,1,60,0,0
56836,-100,4,1,1,60,0,1
56932,-100,4,1,1,60,0,0
57221,-100,4,1,1,60,0,0
62413,-100,4,1,1,60,0,0
65298,-80,4,1,1,60,0,0
66067,-100,4,1,1,60,0,0
68952,-100,4,1,1,60,0,0
69144,-100,4,1,3,60,0,0
73375,-66.6666666666667,4,1,3,60,0,0
74336,-100,4,1,3,60,0,0
74913,-100,4,1,1,30,0,0
75298,-66.6666666666667,4,1,1,30,0,0
75682,-100,4,1,1,30,0,0
79528,-200,4,1,1,30,0,0
79913,-200,4,1,1,40,0,1
80009,-200,4,1,1,40,0,0
80298,-200,4,1,1,50,0,0
80682,-200,4,1,1,60,0,0
81067,-200,4,1,1,70,0,0
81452,-66.6666666666667,4,1,1,70,0,0
81836,-100,4,1,1,70,0,0
85682,-66.6666666666667,4,1,1,70,0,0
86644,-100,4,1,1,70,0,0
90298,-100,4,1,1,70,0,0
91452,-100,4,1,1,60,0,0
92221,-100,4,1,1,50,0,0
92990,-100,4,1,1,40,0,0
93759,-100,4,1,1,30,0,0
106067,-100,4,1,1,70,0,1
106163,-100,4,1,1,70,0,0
106452,-100,4,1,1,70,0,0
111452,-80,4,1,1,70,0,0
111836,-66.6666666666667,4,1,1,70,0,0
113759,-66.6666666666667,4,1,1,70,0,0
115298,-100,4,1,1,70,0,0
116067,-100,4,1,1,70,0,0
116836,-66.6666666666667,4,1,1,70,0,0
117605,-50,4,1,1,70,0,0
118759,-100,4,1,1,70,0,0
119144,-100,4,1,1,30,0,0

[Colours]
Combo1 : 255,0,0
Combo2 : 194,134,255
Combo3 : 255,155,255
Combo4 : 157,157,255
Combo5 : 255,196,136

[HitObjects]
4,192,1452,6,0,L|29:235,3,50,2|0|0|0,0:0|0:0|0:0|0:0,0:0:0:0:
80,300,1836,5,0,0:0:0:0:
122,314,1932,1,0,0:0:0:0:
165,306,2028,1,0,0:0:0:0:
200,278,2124,1,0,0:0:0:0:
224,240,2221,6,0,L|198:196,1,50,2|0,0:0|0:0,0:0:0:0:
268,152,2413,2,0,L|293:195,1,50
324,86,2606,5,0,2:0:0:0:
348,99,2702,1,0,2:0:0:0:
371,111,2798,1,0,2:0:0:0:
396,124,2894,1,0,2:0:0:0:
431,141,2990,6,0,L|488:170,1,50,2|0,0:0|0:0,0:0:0:0:
448,240,3182,2,0,L|387:209,1,50,0|2,0:0|0:0,0:0:0:0:
410,310,3952,6,0,L|369:250,1,50
363,291,4144,2,0,L|304:240,1,55.0000016784668
287,296,4336,2,0,L|220:264,1,59.9999981689454
207,355,4528,1,2,0:0:0:0:
287,296,5105,6,0,L|352:259,1,50,0|0,0:0|0:0,0:0:0:0:
347,172,5298,2,0,L|271:210,1,50,2|0,0:0|0:0,0:0:0:0:
207,196,5682,6,0,L|219:219,7,25,0|0|0|0|0|0|0|0,0:0|0:0|0:0|0:0|0:0|0:0|0:0|0:0,0:0:0:0:
194,226,6067,2,0,L|171:273,1,50,2|0,0:0|0:0,0:0:0:0:
145,326,6259,1,0,0:0:0:0:
145,326,6355,1,0,0:0:0:0:
145,326,6836,6,0,L|144:276,1,50,0|0,0:1|0:1,0:0:0:0:
52,276,7028,2,0,L|31:230,1,50
123,191,7221,2,0,L|139:143,1,50,0|0,0:0|0:0,0:0:0:0:
40,132,7413,2,0,L|20:80,1,50
22,86,7605,6,0,P|96:57|142:70,1,100,12|0,0:0|0:0,0:0:0:0:
178,136,7990,2,0,P|227:134|270:109,1,100,8|0,0:0|0:0,0:0:0:0:
270,109,8375,6,0,L|254:59,1,50,8|0,0:0|0:0,0:0:0:0:
355,139,8567,2,0,L|397:109,1,50
353,228,8759,2,0,L|394:259,1,50,8|0,0:0|0:0,0:0:0:0:
268,254,8952,2,0,L|251:303,1,50
252,301,9144,6,0,L|107:330,1,100,8|0,0:0|0:0,0:0:0:0:
26,251,9528,2,0,L|171:222,1,100,8|0,0:0|0:0,0:0:0:0:
289,233,9913,6,0,L|240:243,1,50,8|0,0:0|0:0,0:0:0:0:
101,339,10105,2,0,L|134:301,1,50
192,140,10298,2,0,L|186:189,1,50,8|0,0:0|0:0,0:0:0:0:
232,353,10490,2,0,L|207:309,1,50,8|0,0:0|0:0,0:0:0:0:
124,232,10683,6,0,P|85:193|76:135,1,100,8|0,0:0|0:0,0:0:0:0:
192,140,11067,2,0,P|231:179|240:237,1,100,8|0,0:0|0:0,0:0:0:0:
337,304,11452,6,0,P|360:314|388:305,1,50,8|0,0:0|0:0,0:0:0:0:
364,209,11644,2,0,P|391:205|410:184,1,50
333,116,11836,2,0,P|353:99|360:72,1,50,8|0,0:0|0:0,0:0:0:0:
254,54,12028,2,0,P|264:29|255:3,1,50
244,184,12221,6,0,B|196:160|196:160|150:153,1,100,8|0,0:0|0:0,0:0:0:0:
364,209,12605,2,0,B|344:258|344:258|314:294,1,100,8|0,0:0|0:0,0:0:0:0:
219,80,12990,6,0,L|189:21,1,50,8|0,0:0|0:0,0:0:0:0:
151,154,13182,2,0,L|106:104,1,50,8|0,0:0|0:0,0:0:0:0:
112,247,13375,2,0,L|56:210,1,50,8|0,0:0|0:0,0:0:0:0:
107,345,13567,2,0,L|43:324,1,50,8|0,0:0|0:0,0:0:0:0:
267,113,13759,6,0,P|326:102|389:149,1,100,8|0,0:0|0:0,0:0:0:0:
379,272,14144,2,0,P|319:282|256:235,1,100,8|0,0:0|0:0,0:0:0:0:
266,113,14528,5,8,0:0:0:0:
278,70,14625,1,0,0:0:0:0:
309,38,14721,1,0,0:0:0:0:
352,28,14817,1,0,0:0:0:0:
396,39,14913,1,8,0:0:0:0:
428,70,15009,1,0,0:0:0:0:
439,114,15105,1,0,0:0:0:0:
348,166,15298,6,0,B|311:129|311:129|267:113,1,100,8|0,0:0|0:0,0:0:0:0:
364,295,15682,2,0,B|414:283|414:283|451:254,1,100,8|0,0:0|0:0,0:0:0:0:
243,331,16067,5,8,0:0:0:0:
204,312,16164,1,0,0:0:0:0:
178,274,16260,1,0,0:0:0:0:
178,230,16356,1,0,0:0:0:0:
197,189,16452,1,8,0:0:0:0:
235,165,16548,1,0,0:0:0:0:
280,163,16644,1,8,0:0:0:0:
428,120,16836,6,0,L|485:217,1,100,8|0,0:0|0:0,0:0:0:0:
280,163,17221,2,0,L|223:66,1,100,8|0,0:0|0:0,0:0:0:0:
416,192,17606,6,0,L|392:240,1,50,8|0,0:0|0:0,0:0:0:0:
256,328,17798,2,0,L|280:280,1,50,0|0,0:1|0:1,0:0:0:0:
256,56,17990,2,0,L|232:104,1,50,8|0,0:0|0:0,0:0:0:0:
96,192,18182,2,0,L|120:144,1,50,0|0,0:1|0:1,0:0:0:0:
352,84,18375,5,8,0:0:0:0:
367,92,18471,1,8,0:0:0:0:
381,99,18567,1,8,0:0:0:0:
395,106,18663,1,8,0:0:0:0:
410,113,18759,1,12,0:0:0:0:
160,181,19144,5,8,0:0:0:0:
143,184,19240,1,8,0:0:0:0:
127,187,19336,1,8,0:0:0:0:
112,190,19432,1,8,0:0:0:0:
96,192,19528,1,12,0:0:0:0:
205,300,19913,6,0,B|194:292|181:293,2,25,4|0|0,0:0|0:0|0:0,0:0:0:0:
307,300,20298,2,0,B|318:292|331:293,2,25,8|0|0,0:0|0:0|0:0,0:0:0:0:
178,179,20682,6,0,B|160:172|140:176,2,37.5000014305115,8|0|0,0:0|0:0|0:0,0:0:0:0:
334,179,21067,2,0,B|352:172|372:176,2,37.5000014305115,8|0|0,0:0|0:0|0:0,0:0:0:0:
117,70,21452,6,0,B|92:72|72:88,2,50,8|0|0,0:0|0:0|0:0,0:0:0:0:
395,70,21836,2,0,B|420:72|440:88,2,50,8|0|0,0:0|0:0|0:0,0:0:0:0:
256,108,22221,6,0,L|256:8,1,100,8|0,0:0|0:0,0:0:0:0:
256,108,22605,1,8,0:0:0:0:
256,108,22798,1,8,0:0:0:0:
180,148,22990,6,0,P|165:195|181:241,1,100,8|0,0:0|0:0,0:0:0:0:
256,292,23375,1,8,0:0:0:0:
256,192,23567,1,0,0:0:0:0:
330,341,23759,6,0,P|346:295|332:248,1,100,8|0,0:0|0:0,0:0:0:0:
256,192,24144,1,8,0:0:0:0:
256,292,24336,1,0,0:0:0:0:
256,192,24528,5,8,0:0:0:0:
256,180,24721,1,0,0:0:0:0:
256,168,24913,1,8,0:0:0:0:
256,156,25105,1,0,0:0:0:0:
256,144,25298,1,8,0:0:0:0:
256,132,25490,1,8,0:0:0:0:
155,141,25682,5,8,0:0:0:0:
357,141,25875,1,8,0:0:0:0:
171,43,26067,5,8,0:0:0:0:
152,45,26163,1,0,0:0:0:0:
133,50,26259,1,0,0:0:0:0:
115,57,26355,1,0,0:0:0:0:
99,67,26451,2,0,P|61:102|49:149,1,100,8|0,0:0|0:0,0:0:0:0:
135,256,26836,5,8,0:0:0:0:
154,254,26932,1,0,0:0:0:0:
173,249,27028,1,0,0:0:0:0:
191,242,27124,1,0,0:0:0:0:
207,232,27220,2,0,P|245:197|257:150,1,100,8|0,0:0|0:0,0:0:0:0:
155,141,27605,6,0,L|68:223,1,100,8|0,0:0|0:0,0:0:0:0:
357,141,27990,2,0,L|444:223,1,100,8|0,0:0|0:0,0:0:0:0:
256,104,28375,2,0,L|256:5,1,100,8|0,0:0|0:0,0:0:0:0:
308,240,28759,5,8,0:0:0:0:
308,240,28952,1,8,0:0:0:0:
204,240,29144,1,8,0:0:0:0:
204,240,29336,1,0,0:0:0:0:
400,64,29528,5,8,0:0:0:0:
400,64,29721,1,0,0:0:0:0:
256,320,29913,1,8,0:0:0:0:
256,320,30105,1,0,0:0:0:0:
112,64,30298,1,8,0:0:0:0:
112,64,30491,1,0,0:0:0:0:
400,64,30682,6,0,L|449:145,1,50,2|0,0:0|0:0,0:0:0:0:
306,98,30875,2,0,L|347:182,1,50,0|0,0:0|0:0,0:0:0:0:
230,102,31067,2,0,L|264:190,1,50,0|0,0:0|0:0,0:0:0:0:
180,92,31259,2,0,L|206:182,1,50,0|0,0:0|0:0,0:0:0:0:
155,85,31452,2,0,L|173:177,1,50,2|0,0:0|0:0,0:0:0:0:
136,77,31644,2,0,L|146:171,1,50,0|0,0:0|0:0,0:0:0:0:
122,71,31836,2,0,L|123:165,1,50,0|0,0:0|0:0,0:0:0:0:
112,64,32028,2,0,L|105:158,1,50,0|0,0:0|0:0,0:0:0:0:
76,232,32221,6,0,P|72:260|76:288,1,50,14|0,0:0|0:0,0:0:0:0:
148,344,32413,2,0,P|168:356|196:360,1,50,2|0,0:0|0:0,0:0:0:0:
204,260,32605,1,10,0:0:0:0:
204,260,32798,1,2,0:0:0:0:
436,232,32990,6,0,P|440:260|436:288,1,50,10|0,0:0|0:0,0:0:0:0:
364,344,33182,2,0,P|344:356|316:360,1,50,2|0,0:0|0:0,0:0:0:0:
308,260,33374,1,10,0:0:0:0:
308,260,33567,1,2,0:0:0:0:
156,172,33759,5,8,0:0:0:0:
24,76,33952,1,0,0:0:0:0:
24,76,34048,1,0,0:0:0:0:
24,76,34144,6,0,L|64:108,1,50,10|0,0:0|0:0,0:0:0:0:
156,172,34336,2,0,L|195:203,1,50,2|0,0:0|0:0,0:0:0:0:
317,203,34528,2,0,L|356:172,1,50,10|0,0:0|0:0,0:0:0:0:
448,107,34721,2,0,L|488:76,1,50,2|0,0:0|0:0,0:0:0:0:
351,77,34913,5,10,0:0:0:0:
351,77,35105,1,10,0:0:0:0:
152,76,35298,1,8,0:0:0:0:
152,76,35490,1,0,0:0:0:0:
256,192,35682,5,10,0:0:0:0:
256,192,35875,1,2,0:0:0:0:
256,328,36067,1,10,0:0:0:0:
256,336,36259,1,2,0:0:0:0:
256,56,36452,1,10,0:0:0:0:
256,48,36644,1,2,0:0:0:0:
88,256,36836,6,0,P|64:296|88:376,1,100,10|2,0:0|0:0,0:0:0:0:
424,256,37221,2,0,P|448:296|424:376,1,100,10|2,0:0|0:0,0:0:0:0:
208,204,37605,6,0,L|188:128,1,50,8|0,0:0|0:0,0:0:0:0:
316,155,37798,2,0,L|304:204,1,50,8|0,0:0|0:0,0:0:0:0:
344,56,37990,1,8,0:0:0:0:
344,56,38182,1,8,0:0:0:0:
168,56,38375,6,0,L|272:56,1,100,10|2,0:0|0:0,0:0:0:0:
364,124,38759,1,8,0:0:0:0:
364,124,38952,1,2,0:0:0:0:
148,124,39144,6,0,L|276:124,1,125,10|2,0:0|0:0,0:0:0:0:
384,192,39528,1,8,0:0:0:0:
384,192,39721,1,2,0:0:0:0:
128,192,39913,6,0,L|280:192,1,150.000005722046,10|2,0:0|0:0,0:0:0:0:
364,260,40298,1,0,0:0:0:0:
364,260,40490,1,2,0:0:0:0:
148,260,40682,6,0,L|280:260,2,125,2|2|8,0:0|0:0|0:0,0:0:0:0:
148,260,41259,1,2,0:0:0:0:
161,63,41452,5,8,0:0:0:0:
173,79,41548,1,8,0:0:0:0:
185,95,41644,1,8,0:0:0:0:
197,111,41740,1,8,0:0:0:0:
209,127,41836,2,0,L|230:58,1,50,12|0,0:0|2:0,0:0:0:0:
295,168,42221,5,8,0:0:0:0:
304,136,42317,1,8,0:0:0:0:
312,103,42413,1,8,0:0:0:0:
321,70,42510,1,8,0:0:0:0:
329,36,42605,2,0,L|386:129,1,75.0000028610231,12|0,0:0|2:0,0:0:0:0:
385,242,42990,5,8,0:0:0:0:
349,290,43086,1,8,0:0:0:0:
293,310,43182,1,8,0:0:0:0:
237,290,43278,1,8,0:0:0:0:
201,242,43375,2,0,L|255:387,1,150.000005722046,12|0,0:0|0:0,0:0:0:0:
127,142,43759,5,8,0:0:0:0:
163,94,43855,1,8,0:0:0:0:
219,74,43951,1,8,0:0:0:0:
275,94,44047,1,8,0:0:0:0:
311,142,44144,2,0,L|257:-3,1,150.000005722046,12|0,0:0|0:0,0:0:0:0:
498,48,44528,5,12,0:0:0:0:
449,131,44721,1,0,0:0:0:0:
393,218,44913,1,8,0:0:0:0:
402,229,45009,1,0,0:0:0:0:
411,241,45105,1,0,0:0:0:0:
417,255,45202,1,0,0:0:0:0:
420,268,45298,2,0,P|410:300|352:320,1,100,8|0,0:0|0:0,0:0:0:0:
124,237,45682,5,8,0:0:0:0:
111,232,45778,1,0,0:0:0:0:
97,227,45874,1,0,0:0:0:0:
85,217,45971,1,0,0:0:0:0:
75,208,46067,2,0,P|67:175|108:129,1,100,8|0,0:0|0:0,0:0:0:0:
279,329,46452,5,8,0:0:0:0:
272,341,46548,1,0,0:0:0:0:
263,354,46644,1,0,0:0:0:0:
252,364,46741,1,0,0:0:0:0:
241,372,46837,2,0,P|207:374|169:325,1,100,8|0,0:0|0:0,0:0:0:0:
234,54,47221,5,8,0:0:0:0:
241,42,47317,1,0,0:0:0:0:
250,29,47413,1,8,0:0:0:0:
261,19,47510,1,0,0:0:0:0:
272,11,47606,2,0,P|305:9|344:57,1,100,8|0,0:0|0:0,0:0:0:0:
395,192,47990,5,8,0:0:0:0:
405,202,48086,1,0,0:0:0:0:
417,212,48182,1,0,0:0:0:0:
425,225,48279,1,0,0:0:0:0:
430,237,48375,2,0,P|427:271|372:300,1,100,8|0,0:0|0:0,0:0:0:0:
116,189,48759,5,8,0:0:0:0:
105,180,48855,1,0,0:0:0:0:
94,170,48951,1,0,0:0:0:0:
86,157,49048,1,0,0:0:0:0:
80,145,49144,2,0,P|84:111|139:81,1,100,8|0,0:0|0:0,0:0:0:0:
347,86,49528,5,8,0:0:0:0:
361,84,49624,1,0,0:0:0:0:
375,82,49720,1,0,0:0:0:0:
391,84,49817,1,0,0:0:0:0:
403,87,49913,5,8,0:0:0:0:
467,127,50106,1,8,0:0:0:0:
442,195,50298,1,8,0:0:0:0:
124,64,50490,5,8,0:0:0:0:
124,64,50586,1,0,0:0:0:0:
124,64,50682,2,0,L|184:156,1,75.0000028610231,12|0,0:0|0:0,0:0:0:0:
160,256,50971,1,0,0:0:0:0:
160,256,51067,2,0,L|100:164,1,75.0000028610231,8|0,0:0|0:0,0:0:0:0:
36,104,51452,6,0,L|60:140,1,37.5000014305115,8|0,0:0|0:0,0:0:0:0:
40,216,51644,2,0,L|64:252,1,37.5000014305115,0|0,0:0|0:0,0:0:0:0:
134,179,51836,2,0,L|158:215,1,37.5000014305115,8|0,0:0|0:0,0:0:0:0:
150,292,52029,2,0,L|174:328,1,37.5000014305115,0|0,0:0|0:0,0:0:0:0:
320,115,52221,6,0,L|412:23,1,125,12|0,0:0|0:0,0:0:0:0:
488,152,52509,1,0,0:0:0:0:
488,152,52605,2,0,L|396:244,1,125,8|0,0:0|0:0,0:0:0:0:
304,360,52990,2,0,L|348:316,1,62.5,8|0,0:0|0:0,0:0:0:0:
508,280,53182,2,0,L|464:324,1,62.5,0|0,0:0|0:0,0:0:0:0:
297,222,53374,2,0,L|341:178,1,62.5,8|0,0:0|0:0,0:0:0:0:
473,32,53567,2,0,L|429:76,1,62.5,8|0,0:0|0:0,0:0:0:0:
376,117,53759,5,12,0:0:0:0:
306,115,53952,1,0,0:0:0:0:
341,178,54144,1,8,0:0:0:0:
376,117,54336,1,0,0:0:0:0:
188,344,54528,5,12,0:0:0:0:
109,216,54720,1,0,0:0:0:0:
265,215,54912,1,8,0:0:0:0:
188,344,55105,1,0,0:0:0:0:
72,152,55298,6,0,P|68:109|87:72,1,62.5,12|0,0:0|0:0,0:0:0:0:
105,25,55490,2,0,P|74:17|44:23,1,62.5
148,86,55682,2,0,L|208:36,1,62.5,12|8,0:0|0:0,0:0:0:0:
266,67,55875,2,0,P|266:23|244:-11,1,62.5,8|8,0:0|0:0,0:0:0:0:
222,142,56067,6,0,P|221:185|243:220,1,62.5,12|0,0:0|0:0,0:0:0:0:
250,306,56259,2,0,P|287:284|306:247,1,62.5,0|0,0:0|0:0,0:0:0:0:
388,200,56452,2,0,P|354:171|314:164,1,62.5,12|8,0:0|0:0,0:0:0:0:
400,305,56644,2,0,P|395:335|378:361,1,62.5,8|8,0:0|0:0,0:0:0:0:
388,200,56836,5,12,0:0:0:0:
432,64,57029,1,0,0:0:0:0:
272,112,57221,5,8,0:0:0:0:
266,119,57317,1,0,0:0:0:0:
261,126,57413,1,0,0:0:0:0:
255,133,57509,1,0,0:0:0:0:
250,140,57605,1,8,0:0:0:0:
432,64,57798,1,0,0:0:0:0:
444,180,57990,5,8,0:0:0:0:
448,188,58086,1,0,0:0:0:0:
452,196,58182,1,0,0:0:0:0:
456,204,58278,1,0,0:0:0:0:
460,212,58375,1,8,0:0:0:0:
432,64,58567,1,0,0:0:0:0:
244,148,58759,5,8,0:0:0:0:
238,155,58856,1,0,0:0:0:0:
233,162,58952,1,0,0:0:0:0:
227,169,59048,1,0,0:0:0:0:
222,176,59144,1,8,0:0:0:0:
248,288,59336,1,0,1:0:0:0:
136,336,59528,5,8,0:0:0:0:
128,320,59625,1,0,0:0:0:0:
120,304,59721,1,8,0:0:0:0:
112,288,59817,1,0,0:0:0:0:
104,272,59913,1,8,0:0:0:0:
248,288,60106,1,0,1:0:0:0:
256,272,60298,5,8,0:0:0:0:
264,256,60394,1,0,0:0:0:0:
272,240,60490,1,0,0:0:0:0:
280,224,60586,1,0,0:0:0:0:
288,208,60682,1,8,0:0:0:0:
104,272,60875,1,0,1:0:0:0:
96,256,61067,5,8,0:0:0:0:
88,240,61163,1,0,0:0:0:0:
80,224,61260,1,0,0:0:0:0:
72,208,61356,1,0,0:0:0:0:
64,192,61452,1,8,0:0:0:0:
288,208,61644,1,0,1:0:0:0:
296,192,61836,5,8,0:0:0:0:
304,176,61932,1,0,0:0:0:0:
312,160,62028,1,0,0:0:0:0:
320,144,62124,1,0,0:0:0:0:
328,128,62221,1,8,0:0:0:0:
256,336,62413,5,8,0:0:0:0:
80,112,62606,1,8,0:0:0:0:
432,112,62798,1,8,0:0:0:0:
256,336,62990,5,12,0:0:0:0:
192,252,63182,1,0,0:0:0:0:
320,252,63375,1,8,0:0:0:0:
256,336,63567,1,0,0:0:0:0:
328,128,63759,6,0,P|352:96|352:52,1,50,8|0,0:0|0:0,0:0:0:0:
157,86,63952,2,0,P|166:109|184:128,1,50,0|0,0:0|0:0,0:0:0:0:
412,192,64144,2,0,P|448:176|470:138,1,50,8|0,0:0|0:0,0:0:0:0:
56,169,64336,2,0,P|76:184|100:192,1,50,0|0,0:0|0:0,0:0:0:0:
320,252,64528,5,12,0:0:0:0:
183,127,64721,1,0,0:0:0:0:
328,128,64913,1,8,0:0:0:0:
192,252,65105,1,0,0:0:0:0:
328,128,65298,6,0,L|280:53,1,62.5,8|0,0:0|0:0,0:0:0:0:
192,253,65490,2,0,L|241:329,1,62.5,0|0,0:0|0:0,0:0:0:0:
374,71,65682,2,0,L|326:-4,1,62.5,8|0,0:0|0:0,0:0:0:0:
143,306,65875,2,0,L|191:381,1,62.5,8|0,0:0|0:0,0:0:0:0:
255,50,66067,6,0,P|235:35|211:33,1,50,12|0,0:0|0:0,0:0:0:0:
82,72,66259,2,0,P|67:92|66:117,1,50,0|0,0:0|0:0,0:0:0:0:
104,242,66452,2,0,P|123:258|148:260,1,50,8|0,0:0|0:0,0:0:0:0:
275,222,66644,2,0,P|290:202|292:177,1,50,0|0,0:0|0:0,0:0:0:0:
303,92,66836,6,0,P|328:66|381:81,1,50,12|0,0:0|0:0,0:0:0:0:
471,89,67029,2,0,P|498:114|482:167,1,50,0|0,0:0|0:0,0:0:0:0:
472,255,67221,2,0,P|447:283|394:267,1,50,8|0,0:0|0:0,0:0:0:0:
305,259,67413,2,0,P|279:235|295:181,1,50
43,192,67605,5,8,0:0:0:0:
73,151,67701,1,8,0:0:0:0:
112,120,67797,1,8,0:0:0:0:
160,114,67893,1,0,0:0:0:0:
204,138,67989,1,12,0:0:0:0:
239,173,68085,1,8,0:0:0:0:
272,211,68181,1,8,0:0:0:0:
307,246,68278,1,0,0:0:0:0:
351,269,68374,1,8,0:0:0:0:
400,263,68470,1,8,0:0:0:0:
439,232,68566,1,8,0:0:0:0:
468,191,68662,1,0,0:0:0:0:
363,160,68759,6,0,L|328:117,3,50,12|8|8|8,0:0|0:0|0:0|0:0,0:0:0:0:
149,224,69144,5,4,0:0:0:0:
140,189,69240,1,0,0:0:0:0:
132,154,69336,1,0,0:0:0:0:
123,120,69433,1,0,0:0:0:0:
115,84,69529,1,0,0:0:0:0:
219,350,69721,5,0,0:0:0:0:
206,318,69817,1,0,0:0:0:0:
103,318,70009,1,0,0:0:0:0:
90,350,70105,1,0,0:0:0:0:
248,64,70298,6,0,L|212:127,1,50,0|0,0:0|0:0,0:0:0:0:
312,236,70490,2,0,L|272:164,1,50,0|0,0:0|0:0,0:0:0:0:
308,160,70682,5,0,0:0:0:0:
324,128,70778,1,0,0:0:0:0:
340,96,70875,1,0,0:0:0:0:
356,64,70971,1,0,0:0:0:0:
372,32,71067,1,0,0:0:0:0:
362,335,71260,5,0,0:0:0:0:
395,324,71356,1,0,0:0:0:0:
296,268,71548,1,0,0:0:0:0:
312,236,71644,1,0,0:0:0:0:
72,312,71836,6,0,L|36:272,1,50
44,140,72028,2,0,L|79:181,1,50,0|0,0:0|0:0,0:0:0:0:
136,244,72221,5,0,0:0:0:0:
160,268,72317,1,0,0:0:0:0:
184,292,72413,1,0,0:0:0:0:
208,316,72509,1,0,0:0:0:0:
232,340,72605,1,0,0:0:0:0:
166,126,72798,5,0,0:0:0:0:
197,140,72894,1,0,0:0:0:0:
263,71,73086,1,0,0:0:0:0:
294,57,73182,1,0,0:0:0:0:
385,47,73375,6,0,P|393:26|428:109,1,225.000008583069,0|0,0:0|0:0,0:0:0:0:
440,176,73759,6,0,L|408:256,1,75.0000028610231,0|0,0:0|0:0,0:0:0:0:
372,346,73952,2,0,L|344:276,1,75.0000028610231
316,208,74144,1,0,0:0:0:0:
46,201,74336,5,0,0:0:0:0:
46,201,74433,1,0,0:0:0:0:
138,343,74625,1,0,0:0:0:0:
138,343,74721,1,0,0:0:0:0:
300,328,74913,5,8,0:0:0:0:
256,256,75009,1,0,0:0:0:0:
212,184,75105,1,8,0:0:0:0:
164,112,75202,1,8,0:0:0:0:
120,40,75298,2,0,L|40:40,4,75.0000028610231,8|0|0|0|0,0:0|0:0|0:0|0:0|0:0,0:0:0:0:
100,248,75875,5,12,0:0:0:0:
124,216,75971,1,0,0:0:0:0:
321,30,76164,1,0,0:0:0:0:
344,64,76260,1,0,0:0:0:0:
304,164,76452,6,0,L|264:108,1,50,12|0,0:0|0:0,0:0:0:0:
392,144,76644,2,0,L|432:200,1,50,0|0,0:0|0:0,0:0:0:0:
456,280,76836,5,12,0:0:0:0:
445,318,76932,1,12,0:0:0:0:
421,349,77028,1,12,0:0:0:0:
385,367,77124,1,0,0:0:0:0:
346,370,77220,1,8,0:0:0:0:
456,88,77413,5,12,0:0:0:0:
432,56,77509,1,0,0:0:0:0:
104,152,77702,1,0,0:0:0:0:
128,184,77797,1,0,0:0:0:0:
44,272,77990,6,0,L|76:320,1,50,12|0,0:0|0:0,0:0:0:0:
196,344,78182,2,0,L|156:280,1,50,8|0,0:0|0:0,0:0:0:0:
240,220,78375,5,12,0:0:0:0:
279,213,78471,1,0,0:0:0:0:
318,221,78567,1,0,0:0:0:0:
349,246,78663,1,0,0:0:0:0:
369,279,78759,1,8,0:0:0:0:
488,236,78952,5,12,0:0:0:0:
468,204,79048,1,0,0:0:0:0:
460,320,79240,1,0,0:0:0:0:
480,352,79336,1,0,0:0:0:0:
372,144,79528,6,0,L|372:100,3,25,12|0|0|0,0:0|0:0|0:0|0:0,0:0:0:0:
372,112,79913,5,12,0:0:0:0:
372,104,80009,1,0,0:0:0:0:
372,96,80105,1,0,0:0:0:0:
372,88,80202,1,0,0:0:0:0:
300,72,80298,5,0,0:0:0:0:
288,60,80394,1,0,0:0:0:0:
276,48,80490,1,12,0:0:0:0:
264,36,80586,1,0,0:0:0:0:
208,76,80682,5,0,0:0:0:0:
188,76,80778,1,0,0:0:0:0:
168,76,80875,1,0,0:0:0:0:
148,76,80971,1,0,0:0:0:0:
124,144,81067,5,12,0:0:0:0:
108,160,81163,1,0,0:0:0:0:
92,176,81259,1,8,0:0:0:0:
76,192,81355,1,8,0:0:0:0:
108,260,81452,6,0,L|108:340,4,75.0000028610231,12|0|0|0|8,0:0|0:0|0:0|0:0|0:0,0:0:0:0:
392,56,82029,5,0,0:0:0:0:
424,56,82125,1,0,0:0:0:0:
120,56,82317,1,0,0:0:0:0:
88,56,82413,1,0,0:0:0:0:
380,316,82605,6,0,L|332:268,1,50,8|0,0:0|0:0,0:0:0:0:
228,292,82798,2,0,L|276:340,1,50,0|0,0:0|0:0,0:0:0:0:
276,208,82990,5,8,0:0:0:0:
252,184,83086,1,0,0:0:0:0:
228,160,83182,1,0,0:0:0:0:
252,136,83278,1,0,0:0:0:0:
276,116,83375,1,8,0:0:0:0:
424,136,83567,5,0,0:0:0:0:
392,136,83663,1,0,0:0:0:0:
88,136,83855,1,0,0:0:0:0:
120,136,83952,1,0,0:0:0:0:
156,35,84144,6,0,L|196:75,1,50,8|0,0:0|0:0,0:0:0:0:
196,263,84336,2,0,L|156:223,1,50,8|0,0:0|0:0,0:0:0:0:
367,250,84528,5,8,0:0:0:0:
391,274,84624,1,0,0:0:0:0:
415,298,84720,1,0,0:0:0:0:
391,322,84816,1,0,0:0:0:0:
367,346,84913,1,8,0:0:0:0:
56,320,85106,5,0,0:0:0:0:
80,352,85202,1,0,0:0:0:0:
83,129,85394,1,0,0:0:0:0:
59,97,85490,1,0,0:0:0:0:
128,228,85682,6,0,P|96:316|184:281,1,225.000008583069,8|0,0:0|0:0,0:0:0:0:
209,223,86067,5,8,0:0:0:0:
241,156,86163,1,0,0:0:0:0:
302,114,86259,1,0,0:0:0:0:
376,109,86355,1,0,0:0:0:0:
442,142,86451,1,8,0:0:0:0:
440,320,86644,5,0,0:0:0:0:
440,320,86740,1,0,0:0:0:0:
72,320,86933,1,0,0:0:0:0:
72,320,87029,1,8,0:0:0:0:
44,183,87221,6,0,L|80:143,1,50,8|0,0:0|0:0,0:0:0:0:
144,200,87413,2,0,L|180:160,1,50,8|0,0:0|0:0,0:0:0:0:
252,88,87605,5,8,0:0:0:0:
276,64,87702,1,0,0:0:0:0:
300,40,87798,1,0,0:0:0:0:
324,64,87894,1,0,0:0:0:0:
348,88,87990,1,8,0:0:0:0:
310,288,88182,5,0,0:0:0:0:
310,320,88278,1,0,0:0:0:0:
444,107,88470,1,0,0:0:0:0:
444,75,88566,1,0,0:0:0:0:
48,72,88759,6,0,L|43:121,1,50,8|0,0:0|0:0,0:0:0:0:
136,152,88952,2,0,L|142:90,1,50,0|0,0:0|0:0,0:0:0:0:
240,49,89144,5,8,0:0:0:0:
239,81,89240,1,0,0:0:0:0:
237,113,89336,1,0,0:0:0:0:
235,145,89432,1,0,0:0:0:0:
233,177,89528,1,0,0:0:0:0:
59,238,89721,5,0,0:0:0:0:
88,260,89817,1,0,0:0:0:0:
152,36,90009,1,0,0:0:0:0:
125,15,90105,1,0,0:0:0:0:
172,319,90298,6,0,L|235:364,1,50,0|0,0:0|0:0,0:0:0:0:
292,280,90490,2,0,L|333:310,1,50,0|0,0:0|0:0,0:0:0:0:
436,240,90682,5,12,0:0:0:0:
416,224,90778,1,0,0:0:0:0:
396,210,90874,1,0,0:0:0:0:
378,195,90970,1,0,0:0:0:0:
358,181,91067,2,0,L|313:147,3,50,8|8|8|8,0:0|0:0|0:0|0:0,0:0:0:0:
195,151,91452,5,12,0:0:0:0:
175,167,91548,1,0,0:0:0:0:
155,181,91644,1,0,0:0:0:0:
137,196,91740,1,0,0:0:0:0:
117,210,91836,2,0,L|77:240,3,50,8|8|8|8,0:0|0:0|0:0|0:0,0:0:0:0:
184,296,92221,5,12,0:0:0:0:
208,296,92317,1,0,0:0:0:0:
232,296,92413,1,0,0:0:0:0:
256,296,92509,1,0,0:0:0:0:
280,296,92606,2,0,L|330:295,3,50,8|8|8|8,0:0|0:0|0:0|0:0,0:0:0:0:
256,208,92990,6,0,L|256:152,1,50,12|0,0:0|0:0,0:0:0:0:
256,108,93182,2,0,L|256:44,1,50
256,4,93375,1,12,0:0:0:0:
256,208,93759,5,12,0:0:0:0:
33,93,106067,6,0,L|81:121,3,50,12|0|0|0,0:0|0:0|0:0|0:0,0:0:0:0:
109,125,106452,5,8,0:0:0:0:
133,141,106548,1,0,0:0:0:0:
161,137,106644,1,0,0:0:0:0:
186,149,106740,1,0,0:0:0:0:
208,168,106836,6,0,L|260:188,1,50,8|0,0:0|0:0,0:0:0:0:
310,61,107028,2,0,L|258:41,1,50
224,164,107221,6,0,L|276:184,1,50,8|0,0:0|0:0,0:0:0:0:
324,56,107413,2,0,L|277:38,1,50
352,68,107605,5,8,0:0:0:0:
380,80,107701,1,0,0:0:0:0:
408,88,107797,1,0,0:0:0:0:
436,96,107893,1,0,0:0:0:0:
464,108,107990,6,0,L|516:127,1,50,8|0,0:0|0:0,0:0:0:0:
453,274,108182,2,0,L|407:257,1,50
318,107,108375,6,0,L|378:128,1,50,8|0,0:0|0:0,0:0:0:0:
310,275,108567,2,0,L|263:257,1,50
96,192,108759,5,8,0:0:0:0:
96,192,108855,1,0,0:0:0:0:
96,192,108952,1,8,0:0:0:0:
96,192,109048,1,0,0:0:0:0:
96,192,109144,6,0,L|56:152,1,50,8|0,0:0|0:0,0:0:0:0:
169,139,109336,2,0,L|136:93,1,50,0|0,0:0|0:0,0:0:0:0:
254,111,109528,2,0,L|230:60,1,50,8|0,0:0|0:0,0:0:0:0:
343,108,109721,2,0,L|328:53,1,50,0|0,0:0|0:0,0:0:0:0:
486,250,109913,6,0,L|515:297,1,50,8|0,0:0|0:0,0:0:0:0:
403,285,110105,2,0,L|423:336,1,50,0|0,0:0|0:0,0:0:0:0:
314,294,110297,2,0,L|325:348,1,50,8|0,0:0|0:0,0:0:0:0:
226,276,110490,2,0,L|227:331,1,50,0|0,0:0|0:0,0:0:0:0:
274,154,110682,6,0,P|270:129|254:110,1,50,8|0,0:0|0:0,0:0:0:0:
222,18,110875,2,0,P|196:21|177:37,1,50
88,68,111067,2,0,P|90:93|106:111,1,50,8|0,0:0|0:0,0:0:0:0:
139,203,111259,2,0,P|163:200|181:183,1,50
368,324,111452,5,8,0:0:0:0:
368,324,111548,1,0,0:0:0:0:
368,324,111644,2,0,L|302:283,1,62.5,8|0,0:0|1:0,0:0:0:0:
244,344,111836,1,8,0:0:0:0:
244,344,111932,1,0,0:0:0:0:
244,344,112028,2,0,L|198:265,1,75.0000028610231,8|0,0:0|0:0,0:0:0:0:
141,135,112221,5,8,0:0:0:0:
120,96,112317,1,0,0:0:0:0:
100,56,112413,2,0,L|99:203,1,75.0000028610231
96,258,112605,5,8,0:0:0:0:
96,302,112701,1,0,0:0:0:0:
96,346,112797,2,0,L|157:263,1,75.0000028610231
249,135,112990,5,8,0:0:0:0:
270,96,113086,1,0,0:0:0:0:
290,56,113182,2,0,L|311:131,1,75.0000028610231
344,259,113375,5,8,0:0:0:0:
356,303,113471,1,0,0:0:0:0:
372,347,113567,2,0,L|396:245,1,75.0000028610231
416,111,113759,6,0,L|393:39,3,75.0000028610231,8|0|0|0,0:0|0:0|0:0|0:0,0:0:0:0:
460,267,114144,6,0,P|446:232|418:208,1,75.0000028610231,8|0,0:0|0:0,0:0:0:0:
317,192,114336,2,0,P|288:214|271:247,1,75.0000028610231
196,323,114528,6,0,P|174:294|167:258,1,75.0000028610231,0|0,0:0|0:0,0:0:0:0:
57,210,114721,2,0,P|88:184|101:127,1,75.0000028610231
184,85,114913,6,0,B|204:119|204:119|204:154,1,75.0000028610231,8|0,0:0|0:0,0:0:0:0:
308,154,115105,2,0,B|308:119|308:119|328:85,1,75.0000028610231,0|0,0:0|0:0,0:0:0:0:
256,236,115298,5,12,0:0:0:0:
268,269,115394,1,8,0:0:0:0:
280,303,115490,1,8,0:0:0:0:
292,337,115586,1,8,0:0:0:0:
305,371,115682,1,12,0:0:0:0:
204,68,116067,6,0,L|134:57,1,50,12|8,0:0|0:0,0:0:0:0:
93,109,116259,2,0,L|51:69,2,50,8|8|12,0:0|0:0|0:0,0:0:0:0:
396,104,116836,6,0,P|436:120|452:168,1,75.0000028610231,12|8,0:0|0:0,0:0:0:0:
452,240,117028,2,0,P|431:270|396:282,2,75.0000028610231,8|8|12,0:0|0:0|0:0,0:0:0:0:
200,328,117605,6,0,L|172:172,1,100,12|8,0:0|0:0,0:0:0:0:
292,56,117798,2,0,L|274:154,1,100,8|8,0:0|0:0,0:0:0:0:
368,196,117990,1,12,0:0:0:0:
144,128,118759,6,0,P|80:192|144:256,1,200,12|0,0:0|0:0,0:0:0:0:
