osu file format v14

[General]
AudioFilename: fi.mp3
AudioLeadIn: 0
PreviewTime: 82305
Countdown: 0
SampleSet: None
StackLeniency: 0.7
Mode: 3
LetterboxInBreaks: 0
SpecialStyle: 0
WidescreenStoryboard: 0

[Editor]
DistanceSpacing: 0.6
BeatDivisor: 8
GridSize: 4
TimelineZoom: 3.699998

[Metadata]
Title:F.I
TitleUnicode:F.I
Artist:44teru-k
ArtistUnicode:44teru-k
Creator:Zenonia
Version:LN MASTER
Source:BMS
Tags:
BeatmapID:1071314
BeatmapSetID:503513

[Difficulty]
HPDrainRate:8
CircleSize:7
OverallDifficulty:0
ApproachRate:5
SliderMultiplier:1.4
SliderTickRate:1

[Events]
//Background and Video events
0,0,"BG.jpg",0,0
//Break Periods
//Storyboard Layer 0 (Background)
//Storyboard Layer 1 (Fail)
//Storyboard Layer 2 (Pass)
//Storyboard Layer 3 (Foreground)
//Storyboard Sound Samples

[TimingPoints]
973,333.333333333333,4,2,0,10,1,0
34306,500,4,2,0,10,1,0
54306,333.333333333333,4,2,0,10,1,0
54306,-133.333333333333,4,2,0,10,0,0
55639,-100,4,2,0,10,0,0
116972,669.642857142857,4,2,0,10,1,0

[HitObjects]
329,192,972,5,0,0:0:0:0:
475,192,1056,1,0,0:0:0:0:
329,192,1139,1,0,0:0:0:0:
475,192,1222,1,0,0:0:0:0:
329,192,1306,1,0,0:0:0:0:
475,192,1389,1,0,0:0:0:0:
329,192,1472,1,0,0:0:0:0:
475,192,1556,1,0,0:0:0:0:
329,192,1639,1,0,0:0:0:0:
475,192,1722,1,0,0:0:0:0:
329,192,1806,1,0,0:0:0:0:
475,192,1889,1,0,0:0:0:0:
329,192,1972,1,0,0:0:0:0:
475,192,2056,1,0,0:0:0:0:
329,192,2139,1,0,0:0:0:0:
182,192,2139,1,0,0:0:0:0:
475,192,2222,1,0,0:0:0:0:
329,192,2306,1,0,0:0:0:0:
182,192,2306,1,0,0:0:0:0:
256,192,2306,1,0,0:0:0:0:
36,192,2306,1,0,0:0:0:0:
402,192,2472,1,0,0:0:0:0:
109,192,2472,1,0,0:0:0:0:
182,192,2556,1,0,0:0:0:0:
256,192,2639,1,0,0:0:0:0:
36,192,2639,1,0,0:0:0:0:
475,192,2639,128,0,2889:0:0:0:0:
402,192,2722,128,0,3056:0:0:0:0:
329,192,2806,128,0,2972:0:0:0:0:
182,192,2806,1,0,0:0:0:0:
109,192,2889,1,0,0:0:0:0:
475,192,2972,128,0,3139:0:0:0:0:
36,192,2972,1,0,0:0:0:0:
256,192,2972,1,0,0:0:0:0:
329,192,3056,128,0,3306:0:0:0:0:
402,192,3139,128,0,3222:0:0:0:0:
109,192,3139,1,0,0:0:0:0:
475,192,3222,128,0,3306:0:0:0:0:
182,192,3222,1,0,0:0:0:0:
402,192,3306,128,0,3472:0:0:0:0:
256,192,3306,1,0,0:0:0:0:
36,192,3306,1,0,0:0:0:0:
329,192,3472,128,0,3639:0:0:0:0:
182,192,3472,1,0,0:0:0:0:
109,192,3556,1,0,0:0:0:0:
256,192,3639,128,0,3681:0:0:0:0:
36,192,3639,1,0,0:0:0:0:
475,192,3639,1,0,0:0:0:0:
329,192,3722,128,0,3764:0:0:0:0:
402,192,3806,128,0,3847:0:0:0:0:
182,192,3806,1,0,0:0:0:0:
475,192,3889,128,0,3931:0:0:0:0:
109,192,3889,1,0,0:0:0:0:
329,192,3972,128,0,4222:0:0:0:0:
36,192,3972,1,0,0:0:0:0:
182,192,3972,1,0,0:0:0:0:
256,192,4056,128,0,4389:0:0:0:0:
182,192,4139,128,0,4306:0:0:0:0:
475,192,4139,1,0,0:0:0:0:
402,192,4222,1,0,0:0:0:0:
329,192,4306,128,0,4472:0:0:0:0:
475,192,4306,1,0,0:0:0:0:
109,192,4306,1,0,0:0:0:0:
182,192,4389,128,0,4639:0:0:0:0:
256,192,4472,128,0,4556:0:0:0:0:
36,192,4472,1,0,0:0:0:0:
329,192,4556,128,0,4639:0:0:0:0:
109,192,4556,1,0,0:0:0:0:
256,192,4639,128,0,4806:0:0:0:0:
36,192,4639,1,0,0:0:0:0:
402,192,4639,1,0,0:0:0:0:
182,192,4806,128,0,4972:0:0:0:0:
475,192,4806,1,0,0:0:0:0:
402,192,4889,1,0,0:0:0:0:
36,192,4972,128,0,5014:0:0:0:0:
329,192,4972,1,0,0:0:0:0:
475,192,4972,1,0,0:0:0:0:
109,192,5056,128,0,5097:0:0:0:0:
182,192,5139,128,0,5181:0:0:0:0:
402,192,5139,1,0,0:0:0:0:
256,192,5222,128,0,5264:0:0:0:0:
475,192,5222,1,0,0:0:0:0:
36,192,5306,128,0,5556:0:0:0:0:
329,192,5306,1,0,0:0:0:0:
182,192,5306,1,0,0:0:0:0:
109,192,5389,128,0,5722:0:0:0:0:
182,192,5472,128,0,5639:0:0:0:0:
329,192,5472,1,0,0:0:0:0:
402,192,5556,1,0,0:0:0:0:
36,192,5639,128,0,5806:0:0:0:0:
475,192,5639,1,0,0:0:0:0:
256,192,5639,1,0,0:0:0:0:
182,192,5722,128,0,5972:0:0:0:0:
109,192,5806,128,0,5889:0:0:0:0:
402,192,5806,1,0,0:0:0:0:
36,192,5889,128,0,5972:0:0:0:0:
329,192,5889,1,0,0:0:0:0:
109,192,5972,128,0,6139:0:0:0:0:
256,192,5972,1,0,0:0:0:0:
475,192,5972,1,0,0:0:0:0:
182,192,6139,128,0,6306:0:0:0:0:
329,192,6139,1,0,0:0:0:0:
402,192,6222,1,0,0:0:0:0:
475,192,6306,128,0,6347:0:0:0:0:
256,192,6306,1,0,0:0:0:0:
36,192,6306,1,0,0:0:0:0:
402,192,6389,128,0,6431:0:0:0:0:
329,192,6472,128,0,6514:0:0:0:0:
109,192,6472,1,0,0:0:0:0:
256,192,6556,128,0,6597:0:0:0:0:
182,192,6556,1,0,0:0:0:0:
475,192,6639,128,0,6889:0:0:0:0:
36,192,6639,1,0,0:0:0:0:
402,192,6722,128,0,7056:0:0:0:0:
329,192,6806,128,0,6972:0:0:0:0:
109,192,6806,1,0,0:0:0:0:
182,192,6889,1,0,0:0:0:0:
475,192,6972,128,0,7139:0:0:0:0:
36,192,6972,1,0,0:0:0:0:
256,192,6972,1,0,0:0:0:0:
329,192,7056,128,0,7306:0:0:0:0:
402,192,7139,128,0,7222:0:0:0:0:
36,192,7139,1,0,0:0:0:0:
475,192,7222,128,0,7306:0:0:0:0:
182,192,7222,1,0,0:0:0:0:
402,192,7306,128,0,7472:0:0:0:0:
36,192,7306,1,0,0:0:0:0:
329,192,7472,128,0,7639:0:0:0:0:
36,192,7472,1,0,0:0:0:0:
109,192,7472,1,0,0:0:0:0:
36,192,7639,1,0,0:0:0:0:
109,192,7639,1,0,0:0:0:0:
256,192,7639,1,0,0:0:0:0:
475,192,7639,1,0,0:0:0:0:
182,192,7806,1,0,0:0:0:0:
402,192,7806,1,0,0:0:0:0:
109,192,7889,1,0,0:0:0:0:
36,192,7972,1,0,0:0:0:0:
329,192,7972,1,0,0:0:0:0:
475,192,7972,128,0,8056:0:0:0:0:
109,192,8056,1,0,0:0:0:0:
256,192,8056,128,0,8139:0:0:0:0:
402,192,8139,1,0,0:0:0:0:
36,192,8139,128,0,8222:0:0:0:0:
182,192,8222,1,0,0:0:0:0:
256,192,8306,1,0,0:0:0:0:
109,192,8306,1,0,0:0:0:0:
475,192,8306,128,0,8389:0:0:0:0:
329,192,8389,1,0,0:0:0:0:
36,192,8389,128,0,8472:0:0:0:0:
256,192,8472,128,0,8556:0:0:0:0:
402,192,8472,1,0,0:0:0:0:
475,192,8556,128,0,8639:0:0:0:0:
109,192,8556,1,0,0:0:0:0:
182,192,8639,1,0,0:0:0:0:
402,192,8639,1,0,0:0:0:0:
256,192,8639,128,0,8722:0:0:0:0:
109,192,8722,1,0,0:0:0:0:
329,192,8806,1,0,0:0:0:0:
36,192,8806,128,0,8889:0:0:0:0:
475,192,8889,1,0,0:0:0:0:
402,192,8972,1,0,0:0:0:0:
256,192,8972,1,0,0:0:0:0:
182,192,9056,1,0,0:0:0:0:
329,192,9139,1,0,0:0:0:0:
109,192,9139,128,0,9222:0:0:0:0:
402,192,9222,1,0,0:0:0:0:
475,192,9306,1,0,0:0:0:0:
182,192,9306,1,0,0:0:0:0:
256,192,9306,128,0,9389:0:0:0:0:
329,192,9389,1,0,0:0:0:0:
182,192,9472,1,0,0:0:0:0:
402,192,9472,128,0,9556:0:0:0:0:
36,192,9556,1,0,0:0:0:0:
475,192,9639,1,0,0:0:0:0:
182,192,9639,1,0,0:0:0:0:
109,192,9639,128,0,9722:0:0:0:0:
329,192,9722,1,0,0:0:0:0:
402,192,9722,128,0,9806:0:0:0:0:
256,192,9806,128,0,9889:0:0:0:0:
182,192,9806,1,0,0:0:0:0:
109,192,9889,128,0,9972:0:0:0:0:
36,192,9889,1,0,0:0:0:0:
329,192,9972,1,0,0:0:0:0:
475,192,9972,1,0,0:0:0:0:
256,192,9972,128,0,10056:0:0:0:0:
182,192,10056,1,0,0:0:0:0:
36,192,10139,1,0,0:0:0:0:
402,192,10139,128,0,10222:0:0:0:0:
182,192,10222,1,0,0:0:0:0:
475,192,10306,1,0,0:0:0:0:
256,192,10306,1,0,0:0:0:0:
36,192,10389,1,0,0:0:0:0:
109,192,10472,1,0,0:0:0:0:
329,192,10472,128,0,10556:0:0:0:0:
182,192,10556,1,0,0:0:0:0:
256,192,10639,1,0,0:0:0:0:
36,192,10639,1,0,0:0:0:0:
475,192,10639,128,0,10722:0:0:0:0:
109,192,10722,1,0,0:0:0:0:
329,192,10722,128,0,10806:0:0:0:0:
402,192,10806,1,0,0:0:0:0:
182,192,10806,128,0,10889:0:0:0:0:
256,192,10889,1,0,0:0:0:0:
36,192,10972,1,0,0:0:0:0:
329,192,10972,1,0,0:0:0:0:
475,192,10972,128,0,11056:0:0:0:0:
402,192,11056,1,0,0:0:0:0:
182,192,11056,128,0,11139:0:0:0:0:
329,192,11139,128,0,11222:0:0:0:0:
109,192,11139,1,0,0:0:0:0:
475,192,11222,128,0,11306:0:0:0:0:
256,192,11222,1,0,0:0:0:0:
182,192,11306,1,0,0:0:0:0:
329,192,11306,128,0,11389:0:0:0:0:
36,192,11306,1,0,0:0:0:0:
402,192,11389,1,0,0:0:0:0:
109,192,11472,1,0,0:0:0:0:
475,192,11472,128,0,11556:0:0:0:0:
256,192,11556,1,0,0:0:0:0:
329,192,11639,1,0,0:0:0:0:
182,192,11639,1,0,0:0:0:0:
475,192,11722,1,0,0:0:0:0:
256,192,11806,1,0,0:0:0:0:
36,192,11806,128,0,11889:0:0:0:0:
402,192,11889,1,0,0:0:0:0:
109,192,11972,1,0,0:0:0:0:
475,192,11972,1,0,0:0:0:0:
182,192,11972,128,0,12056:0:0:0:0:
402,192,12056,1,0,0:0:0:0:
256,192,12139,1,0,0:0:0:0:
329,192,12139,128,0,12222:0:0:0:0:
109,192,12222,1,0,0:0:0:0:
402,192,12306,1,0,0:0:0:0:
475,192,12306,1,0,0:0:0:0:
36,192,12306,128,0,12389:0:0:0:0:
256,192,12389,1,0,0:0:0:0:
329,192,12389,128,0,12472:0:0:0:0:
182,192,12472,128,0,12556:0:0:0:0:
109,192,12472,1,0,0:0:0:0:
36,192,12556,128,0,12639:0:0:0:0:
402,192,12556,1,0,0:0:0:0:
256,192,12639,1,0,0:0:0:0:
475,192,12639,1,0,0:0:0:0:
182,192,12639,128,0,12722:0:0:0:0:
329,192,12722,1,0,0:0:0:0:
475,192,12806,1,0,0:0:0:0:
256,192,12806,1,0,0:0:0:0:
36,192,12806,128,0,12889:0:0:0:0:
182,192,12889,1,0,0:0:0:0:
475,192,12972,1,0,0:0:0:0:
256,192,12972,1,0,0:0:0:0:
109,192,12972,1,0,0:0:0:0:
329,192,13139,1,0,0:0:0:0:
182,192,13139,1,0,0:0:0:0:
402,192,13222,1,0,0:0:0:0:
475,192,13306,1,0,0:0:0:0:
109,192,13306,1,0,0:0:0:0:
36,192,13306,128,0,13472:0:0:0:0:
402,192,13389,1,0,0:0:0:0:
256,192,13389,128,0,13556:0:0:0:0:
329,192,13472,1,0,0:0:0:0:
475,192,13472,128,0,13639:0:0:0:0:
182,192,13556,1,0,0:0:0:0:
329,192,13639,1,0,0:0:0:0:
109,192,13639,1,0,0:0:0:0:
36,192,13639,128,0,13806:0:0:0:0:
182,192,13722,1,0,0:0:0:0:
475,192,13722,128,0,13889:0:0:0:0:
256,192,13806,128,0,13889:0:0:0:0:
402,192,13806,1,0,0:0:0:0:
36,192,13889,128,0,14056:0:0:0:0:
329,192,13889,1,0,0:0:0:0:
402,192,13972,1,0,0:0:0:0:
109,192,13972,1,0,0:0:0:0:
256,192,13972,128,0,14139:0:0:0:0:
329,192,14056,1,0,0:0:0:0:
182,192,14139,1,0,0:0:0:0:
475,192,14139,128,0,14306:0:0:0:0:
36,192,14222,1,0,0:0:0:0:
109,192,14306,1,0,0:0:0:0:
256,192,14306,1,0,0:0:0:0:
329,192,14389,1,0,0:0:0:0:
182,192,14472,1,0,0:0:0:0:
402,192,14472,128,0,14639:0:0:0:0:
109,192,14556,1,0,0:0:0:0:
36,192,14639,1,0,0:0:0:0:
329,192,14639,1,0,0:0:0:0:
256,192,14639,128,0,14806:0:0:0:0:
182,192,14722,1,0,0:0:0:0:
329,192,14806,1,0,0:0:0:0:
109,192,14806,128,0,14972:0:0:0:0:
475,192,14889,1,0,0:0:0:0:
36,192,14972,1,0,0:0:0:0:
329,192,14972,1,0,0:0:0:0:
402,192,14972,128,0,15139:0:0:0:0:
182,192,15056,1,0,0:0:0:0:
109,192,15056,128,0,15222:0:0:0:0:
256,192,15139,128,0,15222:0:0:0:0:
329,192,15139,1,0,0:0:0:0:
402,192,15222,128,0,15389:0:0:0:0:
475,192,15222,1,0,0:0:0:0:
182,192,15306,1,0,0:0:0:0:
36,192,15306,1,0,0:0:0:0:
256,192,15306,128,0,15472:0:0:0:0:
329,192,15389,1,0,0:0:0:0:
475,192,15472,1,0,0:0:0:0:
109,192,15472,128,0,15639:0:0:0:0:
329,192,15556,1,0,0:0:0:0:
402,192,15639,1,0,0:0:0:0:
256,192,15639,1,0,0:0:0:0:
475,192,15722,1,0,0:0:0:0:
402,192,15806,1,0,0:0:0:0:
182,192,15806,128,0,15972:0:0:0:0:
329,192,15889,1,0,0:0:0:0:
256,192,15972,1,0,0:0:0:0:
475,192,15972,1,0,0:0:0:0:
36,192,15972,128,0,16139:0:0:0:0:
109,192,16056,1,0,0:0:0:0:
182,192,16056,128,0,16222:0:0:0:0:
256,192,16139,1,0,0:0:0:0:
329,192,16139,128,0,16306:0:0:0:0:
402,192,16222,1,0,0:0:0:0:
475,192,16306,1,0,0:0:0:0:
109,192,16306,1,0,0:0:0:0:
36,192,16306,128,0,16472:0:0:0:0:
402,192,16389,1,0,0:0:0:0:
329,192,16389,128,0,16556:0:0:0:0:
182,192,16472,128,0,16556:0:0:0:0:
256,192,16472,1,0,0:0:0:0:
36,192,16556,128,0,16722:0:0:0:0:
109,192,16556,1,0,0:0:0:0:
256,192,16639,1,0,0:0:0:0:
182,192,16639,128,0,16806:0:0:0:0:
475,192,16639,1,0,0:0:0:0:
402,192,16722,1,0,0:0:0:0:
256,192,16806,1,0,0:0:0:0:
36,192,16806,128,0,16972:0:0:0:0:
475,192,16889,1,0,0:0:0:0:
182,192,16972,1,0,0:0:0:0:
329,192,16972,1,0,0:0:0:0:
402,192,16972,1,0,0:0:0:0:
36,192,17056,1,0,0:0:0:0:
256,192,17139,1,0,0:0:0:0:
475,192,17139,128,0,17306:0:0:0:0:
109,192,17222,1,0,0:0:0:0:
402,192,17306,1,0,0:0:0:0:
36,192,17306,1,0,0:0:0:0:
329,192,17306,128,0,17472:0:0:0:0:
256,192,17306,1,0,0:0:0:0:
109,192,17389,1,0,0:0:0:0:
256,192,17472,1,0,0:0:0:0:
182,192,17472,128,0,17639:0:0:0:0:
402,192,17556,1,0,0:0:0:0:
109,192,17639,1,0,0:0:0:0:
36,192,17639,1,0,0:0:0:0:
475,192,17639,128,0,17806:0:0:0:0:
329,192,17639,1,0,0:0:0:0:
256,192,17722,1,0,0:0:0:0:
182,192,17722,128,0,17889:0:0:0:0:
329,192,17806,128,0,17889:0:0:0:0:
402,192,17806,1,0,0:0:0:0:
36,192,17806,1,0,0:0:0:0:
475,192,17889,128,0,18056:0:0:0:0:
109,192,17889,1,0,0:0:0:0:
256,192,17972,1,0,0:0:0:0:
36,192,17972,1,0,0:0:0:0:
329,192,17972,128,0,18139:0:0:0:0:
402,192,17972,1,0,0:0:0:0:
182,192,18056,1,0,0:0:0:0:
109,192,18056,1,0,0:0:0:0:
36,192,18139,1,0,0:0:0:0:
256,192,18139,1,0,0:0:0:0:
475,192,18139,128,0,18306:0:0:0:0:
329,192,18222,1,0,0:0:0:0:
182,192,18222,1,0,0:0:0:0:
256,192,18306,1,0,0:0:0:0:
402,192,18306,1,0,0:0:0:0:
36,192,18306,128,0,18389:0:0:0:0:
109,192,18389,128,0,18472:0:0:0:0:
182,192,18472,128,0,18556:0:0:0:0:
329,192,18472,1,0,0:0:0:0:
256,192,18556,128,0,18639:0:0:0:0:
402,192,18639,1,0,0:0:0:0:
36,192,18639,128,0,18722:0:0:0:0:
475,192,18639,1,0,0:0:0:0:
109,192,18722,128,0,18806:0:0:0:0:
256,192,18722,1,0,0:0:0:0:
182,192,18806,128,0,18889:0:0:0:0:
36,192,18806,1,0,0:0:0:0:
329,192,18889,128,0,18972:0:0:0:0:
182,192,18972,1,0,0:0:0:0:
402,192,18972,128,0,19056:0:0:0:0:
475,192,18972,1,0,0:0:0:0:
329,192,19056,128,0,19139:0:0:0:0:
36,192,19056,1,0,0:0:0:0:
109,192,19139,128,0,19222:0:0:0:0:
256,192,19139,1,0,0:0:0:0:
182,192,19222,128,0,19306:0:0:0:0:
475,192,19222,1,0,0:0:0:0:
402,192,19306,1,0,0:0:0:0:
109,192,19306,128,0,19389:0:0:0:0:
256,192,19306,1,0,0:0:0:0:
182,192,19389,128,0,19472:0:0:0:0:
329,192,19472,128,0,19556:0:0:0:0:
36,192,19472,1,0,0:0:0:0:
475,192,19556,128,0,19639:0:0:0:0:
329,192,19639,128,0,19722:0:0:0:0:
402,192,19639,128,0,19806:0:0:0:0:
109,192,19639,128,0,19722:0:0:0:0:
182,192,19639,128,0,19889:0:0:0:0:
256,192,19722,1,0,0:0:0:0:
329,192,19806,1,0,0:0:0:0:
109,192,19806,1,0,0:0:0:0:
402,192,19889,1,0,0:0:0:0:
182,192,19972,128,0,20056:0:0:0:0:
36,192,19972,128,0,20222:0:0:0:0:
475,192,19972,128,0,20222:0:0:0:0:
256,192,19972,1,0,0:0:0:0:
329,192,20056,1,0,0:0:0:0:
182,192,20139,1,0,0:0:0:0:
402,192,20139,1,0,0:0:0:0:
329,192,20222,1,0,0:0:0:0:
36,192,20306,128,0,20472:0:0:0:0:
475,192,20306,128,0,20556:0:0:0:0:
182,192,20306,128,0,20389:0:0:0:0:
109,192,20306,1,0,0:0:0:0:
329,192,20389,1,0,0:0:0:0:
402,192,20389,1,0,0:0:0:0:
182,192,20472,1,0,0:0:0:0:
256,192,20472,1,0,0:0:0:0:
36,192,20556,1,0,0:0:0:0:
109,192,20556,1,0,0:0:0:0:
329,192,20639,128,0,20889:0:0:0:0:
475,192,20639,128,0,20889:0:0:0:0:
256,192,20639,1,0,0:0:0:0:
182,192,20722,1,0,0:0:0:0:
36,192,20806,1,0,0:0:0:0:
402,192,20806,1,0,0:0:0:0:
182,192,20889,1,0,0:0:0:0:
256,192,20972,1,0,0:0:0:0:
475,192,20972,1,0,0:0:0:0:
109,192,20972,128,0,21056:0:0:0:0:
36,192,21056,128,0,21139:0:0:0:0:
109,192,21139,128,0,21222:0:0:0:0:
329,192,21139,1,0,0:0:0:0:
182,192,21222,128,0,21306:0:0:0:0:
36,192,21306,1,0,0:0:0:0:
256,192,21306,128,0,21389:0:0:0:0:
475,192,21306,1,0,0:0:0:0:
109,192,21389,128,0,21472:0:0:0:0:
329,192,21389,1,0,0:0:0:0:
256,192,21472,128,0,21556:0:0:0:0:
182,192,21472,1,0,0:0:0:0:
402,192,21556,128,0,21639:0:0:0:0:
329,192,21639,1,0,0:0:0:0:
109,192,21639,128,0,21722:0:0:0:0:
475,192,21639,1,0,0:0:0:0:
256,192,21722,128,0,21806:0:0:0:0:
182,192,21722,1,0,0:0:0:0:
329,192,21806,128,0,21889:0:0:0:0:
36,192,21806,128,0,21889:0:0:0:0:
402,192,21889,128,0,21972:0:0:0:0:
475,192,21889,1,0,0:0:0:0:
36,192,21972,1,0,0:0:0:0:
256,192,21972,128,0,22056:0:0:0:0:
329,192,21972,1,0,0:0:0:0:
182,192,22056,128,0,22139:0:0:0:0:
109,192,22139,128,0,22222:0:0:0:0:
475,192,22139,1,0,0:0:0:0:
36,192,22222,128,0,22306:0:0:0:0:
109,192,22306,128,0,22556:0:0:0:0:
182,192,22306,128,0,22556:0:0:0:0:
256,192,22306,128,0,22389:0:0:0:0:
329,192,22306,128,0,22556:0:0:0:0:
475,192,22389,1,0,0:0:0:0:
256,192,22472,1,0,0:0:0:0:
36,192,22472,1,0,0:0:0:0:
402,192,22556,1,0,0:0:0:0:
109,192,22639,128,0,22806:0:0:0:0:
256,192,22639,128,0,22722:0:0:0:0:
475,192,22639,128,0,22889:0:0:0:0:
182,192,22639,1,0,0:0:0:0:
402,192,22722,1,0,0:0:0:0:
256,192,22806,1,0,0:0:0:0:
329,192,22806,1,0,0:0:0:0:
109,192,22889,1,0,0:0:0:0:
182,192,22972,128,0,23056:0:0:0:0:
402,192,22972,128,0,23056:0:0:0:0:
475,192,22972,128,0,23056:0:0:0:0:
36,192,22972,1,0,0:0:0:0:
256,192,23056,1,0,0:0:0:0:
329,192,23056,1,0,0:0:0:0:
109,192,23139,128,0,23222:0:0:0:0:
475,192,23139,128,0,23222:0:0:0:0:
402,192,23139,128,0,23222:0:0:0:0:
182,192,23139,1,0,0:0:0:0:
256,192,23222,1,0,0:0:0:0:
36,192,23222,1,0,0:0:0:0:
109,192,23306,128,0,23556:0:0:0:0:
475,192,23306,128,0,23389:0:0:0:0:
182,192,23306,1,0,0:0:0:0:
402,192,23389,1,0,0:0:0:0:
256,192,23472,1,0,0:0:0:0:
475,192,23472,1,0,0:0:0:0:
36,192,23472,1,0,0:0:0:0:
329,192,23556,1,0,0:0:0:0:
475,192,23639,128,0,23722:0:0:0:0:
256,192,23639,1,0,0:0:0:0:
36,192,23639,1,0,0:0:0:0:
109,192,23639,1,0,0:0:0:0:
402,192,23722,128,0,23806:0:0:0:0:
182,192,23806,1,0,0:0:0:0:
329,192,23806,128,0,23889:0:0:0:0:
256,192,23889,128,0,23972:0:0:0:0:
475,192,23972,128,0,24056:0:0:0:0:
109,192,23972,1,0,0:0:0:0:
36,192,23972,128,0,24222:0:0:0:0:
402,192,24056,128,0,24139:0:0:0:0:
256,192,24056,128,0,24389:0:0:0:0:
329,192,24139,128,0,24222:0:0:0:0:
475,192,24139,128,0,24306:0:0:0:0:
182,192,24222,128,0,24306:0:0:0:0:
109,192,24306,128,0,24389:0:0:0:0:
329,192,24306,1,0,0:0:0:0:
36,192,24306,128,0,24472:0:0:0:0:
182,192,24389,128,0,24472:0:0:0:0:
475,192,24389,128,0,24722:0:0:0:0:
402,192,24472,128,0,24556:0:0:0:0:
256,192,24472,128,0,24556:0:0:0:0:
329,192,24556,128,0,24639:0:0:0:0:
36,192,24556,128,0,24806:0:0:0:0:
402,192,24639,128,0,24722:0:0:0:0:
109,192,24639,1,0,0:0:0:0:
256,192,24639,128,0,24972:0:0:0:0:
329,192,24722,128,0,24806:0:0:0:0:
182,192,24806,128,0,24889:0:0:0:0:
475,192,24806,128,0,24972:0:0:0:0:
36,192,24889,128,0,24972:0:0:0:0:
329,192,24972,128,0,25222:0:0:0:0:
402,192,24972,128,0,25056:0:0:0:0:
182,192,24972,128,0,25056:0:0:0:0:
109,192,24972,128,0,25139:0:0:0:0:
256,192,25056,1,0,0:0:0:0:
182,192,25139,1,0,0:0:0:0:
402,192,25139,128,0,25556:0:0:0:0:
109,192,25222,1,0,0:0:0:0:
329,192,25306,128,0,25389:0:0:0:0:
36,192,25306,128,0,25556:0:0:0:0:
475,192,25306,128,0,25556:0:0:0:0:
256,192,25306,128,0,25722:0:0:0:0:
182,192,25389,1,0,0:0:0:0:
329,192,25472,1,0,0:0:0:0:
109,192,25472,128,0,25639:0:0:0:0:
182,192,25556,1,0,0:0:0:0:
329,192,25639,128,0,25722:0:0:0:0:
475,192,25639,128,0,25806:0:0:0:0:
36,192,25639,128,0,25889:0:0:0:0:
402,192,25639,128,0,25806:0:0:0:0:
182,192,25722,1,0,0:0:0:0:
109,192,25722,128,0,26056:0:0:0:0:
329,192,25806,1,0,0:0:0:0:
256,192,25806,128,0,25889:0:0:0:0:
475,192,25889,1,0,0:0:0:0:
402,192,25889,128,0,26222:0:0:0:0:
182,192,25972,128,0,26222:0:0:0:0:
36,192,25972,128,0,26222:0:0:0:0:
256,192,25972,128,0,26222:0:0:0:0:
329,192,26056,1,0,0:0:0:0:
475,192,26139,1,0,0:0:0:0:
109,192,26139,128,0,26306:0:0:0:0:
329,192,26222,1,0,0:0:0:0:
256,192,26306,1,0,0:0:0:0:
402,192,26306,128,0,26389:0:0:0:0:
36,192,26306,128,0,26556:0:0:0:0:
475,192,26389,128,0,26472:0:0:0:0:
402,192,26472,128,0,26556:0:0:0:0:
182,192,26472,128,0,26639:0:0:0:0:
329,192,26556,128,0,26639:0:0:0:0:
256,192,26639,128,0,26722:0:0:0:0:
475,192,26639,1,0,0:0:0:0:
36,192,26639,128,0,26889:0:0:0:0:
402,192,26722,128,0,26806:0:0:0:0:
182,192,26722,128,0,26889:0:0:0:0:
256,192,26806,128,0,26889:0:0:0:0:
329,192,26806,128,0,26972:0:0:0:0:
109,192,26889,128,0,26972:0:0:0:0:
182,192,26972,1,0,0:0:0:0:
402,192,26972,128,0,27056:0:0:0:0:
36,192,26972,128,0,27139:0:0:0:0:
256,192,27056,128,0,27139:0:0:0:0:
329,192,27056,128,0,27306:0:0:0:0:
182,192,27139,128,0,27222:0:0:0:0:
475,192,27139,128,0,27222:0:0:0:0:
109,192,27222,128,0,27306:0:0:0:0:
36,192,27222,1,0,0:0:0:0:
182,192,27306,1,0,0:0:0:0:
475,192,27306,1,0,0:0:0:0:
256,192,27306,128,0,27389:0:0:0:0:
329,192,27389,128,0,27472:0:0:0:0:
36,192,27472,1,0,0:0:0:0:
402,192,27472,128,0,27556:0:0:0:0:
475,192,27556,128,0,27639:0:0:0:0:
256,192,27639,1,0,0:0:0:0:
402,192,27639,1,0,0:0:0:0:
329,192,27639,1,0,0:0:0:0:
182,192,27639,128,0,27722:0:0:0:0:
36,192,27722,128,0,27806:0:0:0:0:
109,192,27722,128,0,27806:0:0:0:0:
256,192,27806,1,0,0:0:0:0:
475,192,27806,1,0,0:0:0:0:
109,192,27889,1,0,0:0:0:0:
402,192,27972,1,0,0:0:0:0:
329,192,27972,1,0,0:0:0:0:
36,192,27972,1,0,0:0:0:0:
256,192,27972,128,0,28056:0:0:0:0:
182,192,28056,128,0,28139:0:0:0:0:
109,192,28056,128,0,28139:0:0:0:0:
256,192,28139,1,0,0:0:0:0:
475,192,28139,1,0,0:0:0:0:
402,192,28222,1,0,0:0:0:0:
475,192,28306,1,0,0:0:0:0:
329,192,28306,1,0,0:0:0:0:
36,192,28306,1,0,0:0:0:0:
256,192,28306,128,0,28389:0:0:0:0:
182,192,28389,128,0,28472:0:0:0:0:
109,192,28389,128,0,28472:0:0:0:0:
36,192,28472,1,0,0:0:0:0:
402,192,28472,1,0,0:0:0:0:
256,192,28556,1,0,0:0:0:0:
475,192,28556,1,0,0:0:0:0:
402,192,28639,1,0,0:0:0:0:
36,192,28639,1,0,0:0:0:0:
329,192,28639,128,0,28722:0:0:0:0:
109,192,28722,128,0,28806:0:0:0:0:
182,192,28722,128,0,28806:0:0:0:0:
256,192,28806,1,0,0:0:0:0:
475,192,28806,1,0,0:0:0:0:
182,192,28889,1,0,0:0:0:0:
329,192,28972,1,0,0:0:0:0:
402,192,28972,1,0,0:0:0:0:
36,192,28972,1,0,0:0:0:0:
256,192,28972,128,0,29056:0:0:0:0:
182,192,29056,128,0,29139:0:0:0:0:
109,192,29056,128,0,29139:0:0:0:0:
329,192,29139,1,0,0:0:0:0:
475,192,29139,1,0,0:0:0:0:
36,192,29139,1,0,0:0:0:0:
182,192,29222,1,0,0:0:0:0:
329,192,29306,128,0,29389:0:0:0:0:
402,192,29306,1,0,0:0:0:0:
36,192,29306,1,0,0:0:0:0:
182,192,29389,128,0,29472:0:0:0:0:
256,192,29389,128,0,29472:0:0:0:0:
109,192,29472,1,0,0:0:0:0:
475,192,29472,1,0,0:0:0:0:
402,192,29472,1,0,0:0:0:0:
182,192,29556,1,0,0:0:0:0:
329,192,29639,128,0,29722:0:0:0:0:
36,192,29639,1,0,0:0:0:0:
402,192,29639,1,0,0:0:0:0:
109,192,29639,1,0,0:0:0:0:
256,192,29722,128,0,29806:0:0:0:0:
182,192,29722,128,0,29806:0:0:0:0:
109,192,29806,1,0,0:0:0:0:
475,192,29806,1,0,0:0:0:0:
402,192,29806,1,0,0:0:0:0:
329,192,29889,1,0,0:0:0:0:
402,192,29972,128,0,30056:0:0:0:0:
182,192,29972,1,0,0:0:0:0:
36,192,29972,1,0,0:0:0:0:
329,192,30056,128,0,30139:0:0:0:0:
256,192,30056,128,0,30139:0:0:0:0:
109,192,30139,1,0,0:0:0:0:
475,192,30139,1,0,0:0:0:0:
402,192,30139,1,0,0:0:0:0:
182,192,30222,1,0,0:0:0:0:
475,192,30306,128,0,30389:0:0:0:0:
36,192,30306,1,0,0:0:0:0:
402,192,30306,1,0,0:0:0:0:
109,192,30306,1,0,0:0:0:0:
329,192,30389,128,0,30472:0:0:0:0:
256,192,30389,128,0,30472:0:0:0:0:
109,192,30472,1,0,0:0:0:0:
402,192,30472,1,0,0:0:0:0:
182,192,30472,1,0,0:0:0:0:
256,192,30556,1,0,0:0:0:0:
475,192,30639,128,0,30722:0:0:0:0:
182,192,30639,1,0,0:0:0:0:
36,192,30639,1,0,0:0:0:0:
329,192,30722,128,0,30806:0:0:0:0:
402,192,30722,128,0,30806:0:0:0:0:
256,192,30722,1,0,0:0:0:0:
109,192,30806,1,0,0:0:0:0:
36,192,30806,1,0,0:0:0:0:
256,192,30889,1,0,0:0:0:0:
329,192,30889,1,0,0:0:0:0:
475,192,30972,128,0,31056:0:0:0:0:
182,192,30972,1,0,0:0:0:0:
109,192,30972,1,0,0:0:0:0:
329,192,31056,128,0,31139:0:0:0:0:
402,192,31056,128,0,31139:0:0:0:0:
256,192,31056,1,0,0:0:0:0:
36,192,31139,1,0,0:0:0:0:
109,192,31139,1,0,0:0:0:0:
256,192,31222,1,0,0:0:0:0:
475,192,31306,128,0,31389:0:0:0:0:
182,192,31306,1,0,0:0:0:0:
109,192,31306,1,0,0:0:0:0:
402,192,31389,128,0,31472:0:0:0:0:
329,192,31389,128,0,31472:0:0:0:0:
256,192,31389,1,0,0:0:0:0:
36,192,31389,1,0,0:0:0:0:
109,192,31472,1,0,0:0:0:0:
182,192,31472,1,0,0:0:0:0:
256,192,31556,1,0,0:0:0:0:
329,192,31556,1,0,0:0:0:0:
475,192,31639,1,0,0:0:0:0:
36,192,31639,1,0,0:0:0:0:
109,192,31639,1,0,0:0:0:0:
402,192,31639,128,0,31722:0:0:0:0:
329,192,31722,128,0,31806:0:0:0:0:
256,192,31806,1,0,0:0:0:0:
182,192,31806,1,0,0:0:0:0:
329,192,31889,1,0,0:0:0:0:
402,192,31889,1,0,0:0:0:0:
475,192,31972,1,0,0:0:0:0:
36,192,31972,1,0,0:0:0:0:
109,192,31972,128,0,32056:0:0:0:0:
182,192,32056,128,0,32139:0:0:0:0:
256,192,32139,1,0,0:0:0:0:
329,192,32139,1,0,0:0:0:0:
182,192,32222,1,0,0:0:0:0:
109,192,32222,1,0,0:0:0:0:
36,192,32306,1,0,0:0:0:0:
475,192,32306,1,0,0:0:0:0:
402,192,32306,128,0,32389:0:0:0:0:
329,192,32389,128,0,32472:0:0:0:0:
182,192,32472,1,0,0:0:0:0:
256,192,32472,1,0,0:0:0:0:
329,192,32556,1,0,0:0:0:0:
402,192,32556,1,0,0:0:0:0:
475,192,32639,1,0,0:0:0:0:
36,192,32639,1,0,0:0:0:0:
109,192,32639,128,0,32722:0:0:0:0:
182,192,32722,128,0,32806:0:0:0:0:
256,192,32806,1,0,0:0:0:0:
329,192,32806,1,0,0:0:0:0:
182,192,32889,1,0,0:0:0:0:
109,192,32889,1,0,0:0:0:0:
36,192,32972,1,0,0:0:0:0:
475,192,32972,1,0,0:0:0:0:
402,192,32972,128,0,33056:0:0:0:0:
256,192,33056,1,0,0:0:0:0:
329,192,33056,128,0,33139:0:0:0:0:
182,192,33139,1,0,0:0:0:0:
109,192,33139,1,0,0:0:0:0:
36,192,33139,1,0,0:0:0:0:
402,192,33222,1,0,0:0:0:0:
475,192,33222,1,0,0:0:0:0:
256,192,33306,1,0,0:0:0:0:
329,192,33306,1,0,0:0:0:0:
182,192,33306,128,0,33389:0:0:0:0:
36,192,33389,1,0,0:0:0:0:
109,192,33389,128,0,33472:0:0:0:0:
329,192,33472,1,0,0:0:0:0:
475,192,33472,1,0,0:0:0:0:
402,192,33472,1,0,0:0:0:0:
256,192,33556,1,0,0:0:0:0:
182,192,33556,1,0,0:0:0:0:
402,192,33639,1,0,0:0:0:0:
36,192,33639,1,0,0:0:0:0:
329,192,33639,128,0,33722:0:0:0:0:
475,192,33639,128,0,33722:0:0:0:0:
182,192,33722,1,0,0:0:0:0:
256,192,33722,128,0,33806:0:0:0:0:
109,192,33722,128,0,33806:0:0:0:0:
329,192,33806,1,0,0:0:0:0:
475,192,33806,1,0,0:0:0:0:
402,192,33806,128,0,33889:0:0:0:0:
109,192,33889,1,0,0:0:0:0:
182,192,33889,1,0,0:0:0:0:
36,192,33889,128,0,33972:0:0:0:0:
256,192,33972,1,0,0:0:0:0:
329,192,33972,1,0,0:0:0:0:
402,192,33972,1,0,0:0:0:0:
475,192,33972,128,0,34056:0:0:0:0:
182,192,34056,1,0,0:0:0:0:
36,192,34056,1,0,0:0:0:0:
109,192,34056,128,0,34139:0:0:0:0:
256,192,34139,1,0,0:0:0:0:
402,192,34139,1,0,0:0:0:0:
475,192,34139,1,0,0:0:0:0:
329,192,34139,128,0,34222:0:0:0:0:
109,192,34222,1,0,0:0:0:0:
36,192,34222,1,0,0:0:0:0:
182,192,34222,128,0,34306:0:0:0:0:
329,192,34306,1,0,0:0:0:0:
475,192,34306,1,0,0:0:0:0:
402,192,34306,1,0,0:0:0:0:
256,192,34306,1,0,0:0:0:0:
109,192,34639,128,0,34806:0:0:0:0:
36,192,34806,128,0,34972:0:0:0:0:
109,192,34972,128,0,35139:0:0:0:0:
182,192,35139,128,0,35306:0:0:0:0:
256,192,35306,128,0,35472:0:0:0:0:
182,192,35472,128,0,35639:0:0:0:0:
109,192,35639,128,0,35806:0:0:0:0:
36,192,35806,128,0,35972:0:0:0:0:
109,192,35972,128,0,36139:0:0:0:0:
182,192,36139,128,0,36306:0:0:0:0:
36,192,36306,128,0,36472:0:0:0:0:
109,192,36472,128,0,36639:0:0:0:0:
182,192,36639,128,0,36806:0:0:0:0:
256,192,36806,128,0,36972:0:0:0:0:
329,192,36972,128,0,37139:0:0:0:0:
402,192,37139,128,0,37306:0:0:0:0:
475,192,37306,128,0,37472:0:0:0:0:
402,192,37472,128,0,37639:0:0:0:0:
329,192,37639,128,0,37806:0:0:0:0:
256,192,37806,128,0,37972:0:0:0:0:
182,192,37972,128,0,38139:0:0:0:0:
109,192,38139,128,0,38306:0:0:0:0:
36,192,38306,1,0,0:0:0:0:
182,192,39243,1,0,0:0:0:0:
256,192,39306,1,0,0:0:0:0:
182,192,39368,1,0,0:0:0:0:
256,192,39556,1,0,0:0:0:0:
329,192,39806,1,0,0:0:0:0:
402,192,40056,1,0,0:0:0:0:
475,192,40306,1,0,0:0:0:0:
36,192,41306,1,0,0:0:0:0:
109,192,42306,1,0,0:0:0:0:
182,192,42806,1,0,0:0:0:0:
256,192,43306,1,0,0:0:0:0:
329,192,43493,1,0,0:0:0:0:
402,192,43556,1,0,0:0:0:0:
329,192,43618,1,0,0:0:0:0:
256,192,43722,1,0,0:0:0:0:
182,192,43847,1,0,0:0:0:0:
256,192,44097,1,0,0:0:0:0:
329,192,44306,1,0,0:0:0:0:
402,192,45306,1,0,0:0:0:0:
109,192,45306,1,0,0:0:0:0:
329,192,47243,1,0,0:0:0:0:
402,192,47274,1,0,0:0:0:0:
329,192,47306,1,0,0:0:0:0:
256,192,47556,1,0,0:0:0:0:
329,192,47806,1,0,0:0:0:0:
402,192,48056,1,0,0:0:0:0:
475,192,48306,1,0,0:0:0:0:
36,192,48306,1,0,0:0:0:0:
402,192,48806,1,0,0:0:0:0:
109,192,48806,1,0,0:0:0:0:
329,192,49306,1,0,0:0:0:0:
182,192,49306,1,0,0:0:0:0:
256,192,49806,1,0,0:0:0:0:
182,192,50306,1,0,0:0:0:0:
109,192,50806,1,0,0:0:0:0:
256,192,51056,1,0,0:0:0:0:
329,192,51181,1,0,0:0:0:0:
402,192,51243,1,0,0:0:0:0:
475,192,51368,1,0,0:0:0:0:
329,192,51993,1,0,0:0:0:0:
329,192,52306,1,0,0:0:0:0:
182,192,54306,128,0,54528:0:0:0:0:
329,192,54306,128,0,54528:0:0:0:0:
109,192,54528,128,0,54750:0:0:0:0:
402,192,54528,128,0,54750:0:0:0:0:
36,192,54750,128,0,54972:0:0:0:0:
475,192,54750,128,0,54972:0:0:0:0:
182,192,54972,128,0,55194:0:0:0:0:
329,192,54972,128,0,55194:0:0:0:0:
109,192,55194,128,0,55417:0:0:0:0:
402,192,55194,128,0,55417:0:0:0:0:
182,192,55417,128,0,55639:0:0:0:0:
329,192,55417,128,0,55639:0:0:0:0:
36,192,55639,128,0,55722:0:0:0:0:
256,192,55639,128,0,55722:0:0:0:0:
475,192,55639,128,0,55722:0:0:0:0:
109,192,55722,128,0,55806:0:0:0:0:
329,192,55722,128,0,55806:0:0:0:0:
182,192,55806,128,0,55889:0:0:0:0:
402,192,55806,128,0,55889:0:0:0:0:
256,192,55889,128,0,55972:0:0:0:0:
475,192,55889,128,0,55972:0:0:0:0:
182,192,55972,128,0,56056:0:0:0:0:
329,192,55972,128,0,56056:0:0:0:0:
36,192,55972,128,0,56056:0:0:0:0:
109,192,56056,128,0,56139:0:0:0:0:
402,192,56056,128,0,56139:0:0:0:0:
36,192,56139,128,0,56222:0:0:0:0:
475,192,56139,128,0,56222:0:0:0:0:
329,192,56139,128,0,56222:0:0:0:0:
256,192,56222,128,0,56306:0:0:0:0:
402,192,56222,128,0,56306:0:0:0:0:
182,192,56306,128,0,56389:0:0:0:0:
329,192,56306,128,0,56389:0:0:0:0:
475,192,56306,128,0,56389:0:0:0:0:
109,192,56389,128,0,56472:0:0:0:0:
402,192,56389,128,0,56472:0:0:0:0:
36,192,56472,128,0,56556:0:0:0:0:
256,192,56472,128,0,56556:0:0:0:0:
329,192,56556,128,0,56639:0:0:0:0:
109,192,56556,128,0,56639:0:0:0:0:
402,192,56639,128,0,56722:0:0:0:0:
182,192,56639,128,0,56722:0:0:0:0:
36,192,56639,128,0,56722:0:0:0:0:
475,192,56722,128,0,56806:0:0:0:0:
256,192,56722,128,0,56806:0:0:0:0:
329,192,56806,128,0,56889:0:0:0:0:
109,192,56806,128,0,56889:0:0:0:0:
402,192,56889,128,0,56972:0:0:0:0:
182,192,56889,128,0,56972:0:0:0:0:
475,192,56972,128,0,57056:0:0:0:0:
36,192,56972,128,0,57056:0:0:0:0:
256,192,56972,128,0,57056:0:0:0:0:
182,192,57056,128,0,57139:0:0:0:0:
402,192,57056,128,0,57139:0:0:0:0:
329,192,57139,128,0,57222:0:0:0:0:
109,192,57139,128,0,57222:0:0:0:0:
36,192,57222,128,0,57306:0:0:0:0:
256,192,57222,128,0,57306:0:0:0:0:
182,192,57306,128,0,57389:0:0:0:0:
329,192,57306,128,0,57389:0:0:0:0:
475,192,57306,128,0,57389:0:0:0:0:
109,192,57389,128,0,57472:0:0:0:0:
402,192,57389,128,0,57472:0:0:0:0:
475,192,57472,128,0,57556:0:0:0:0:
182,192,57472,128,0,57556:0:0:0:0:
36,192,57472,128,0,57556:0:0:0:0:
256,192,57556,128,0,57639:0:0:0:0:
109,192,57556,128,0,57639:0:0:0:0:
182,192,57639,128,0,57722:0:0:0:0:
36,192,57639,128,0,57722:0:0:0:0:
329,192,57639,128,0,57722:0:0:0:0:
109,192,57722,128,0,57805:0:0:0:0:
402,192,57722,128,0,57805:0:0:0:0:
475,192,57805,128,0,57889:0:0:0:0:
256,192,57805,128,0,57889:0:0:0:0:
182,192,57889,128,0,57972:0:0:0:0:
402,192,57889,128,0,57972:0:0:0:0:
475,192,57972,128,0,58055:0:0:0:0:
329,192,57972,128,0,58055:0:0:0:0:
109,192,57972,128,0,58055:0:0:0:0:
36,192,58055,128,0,58139:0:0:0:0:
256,192,58055,128,0,58139:0:0:0:0:
182,192,58139,128,0,58222:0:0:0:0:
402,192,58139,128,0,58222:0:0:0:0:
109,192,58222,128,0,58305:0:0:0:0:
329,192,58222,128,0,58305:0:0:0:0:
256,192,58305,128,0,58472:0:0:0:0:
36,192,58305,128,0,58722:0:0:0:0:
329,192,58389,128,0,58639:0:0:0:0:
109,192,58389,128,0,58639:0:0:0:0:
402,192,58472,128,0,58555:0:0:0:0:
182,192,58472,128,0,58555:0:0:0:0:
256,192,58555,128,0,58722:0:0:0:0:
475,192,58555,128,0,58972:0:0:0:0:
402,192,58639,128,0,58889:0:0:0:0:
182,192,58639,128,0,58972:0:0:0:0:
109,192,58722,128,0,58805:0:0:0:0:
329,192,58722,128,0,58805:0:0:0:0:
36,192,58805,128,0,58889:0:0:0:0:
256,192,58805,128,0,58972:0:0:0:0:
109,192,58889,128,0,58972:0:0:0:0:
329,192,58889,128,0,58972:0:0:0:0:
36,192,58972,128,0,59055:0:0:0:0:
402,192,58972,128,0,59055:0:0:0:0:
329,192,59055,128,0,59139:0:0:0:0:
109,192,59055,128,0,59139:0:0:0:0:
182,192,59139,128,0,59222:0:0:0:0:
256,192,59139,128,0,59222:0:0:0:0:
109,192,59222,128,0,59305:0:0:0:0:
329,192,59222,128,0,59305:0:0:0:0:
36,192,59305,128,0,59389:0:0:0:0:
402,192,59305,128,0,59389:0:0:0:0:
109,192,59389,128,0,59472:0:0:0:0:
329,192,59389,128,0,59472:0:0:0:0:
256,192,59472,128,0,59555:0:0:0:0:
182,192,59472,128,0,59555:0:0:0:0:
329,192,59555,128,0,59639:0:0:0:0:
402,192,59555,128,0,59639:0:0:0:0:
475,192,59639,128,0,60222:0:0:0:0:
182,192,59639,128,0,59805:0:0:0:0:
256,192,59722,128,0,59805:0:0:0:0:
402,192,59722,128,0,59972:0:0:0:0:
109,192,59805,128,0,59972:0:0:0:0:
329,192,59805,128,0,59889:0:0:0:0:
182,192,59889,128,0,59972:0:0:0:0:
256,192,59889,128,0,59972:0:0:0:0:
36,192,59972,128,0,60805:0:0:0:0:
329,192,59972,128,0,60055:0:0:0:0:
109,192,60055,128,0,60389:0:0:0:0:
256,192,60055,128,0,60139:0:0:0:0:
182,192,60139,128,0,60222:0:0:0:0:
402,192,60139,128,0,60222:0:0:0:0:
256,192,60222,128,0,60305:0:0:0:0:
329,192,60222,128,0,60305:0:0:0:0:
182,192,60305,128,0,60389:0:0:0:0:
475,192,60305,128,0,60555:0:0:0:0:
256,192,60389,128,0,60472:0:0:0:0:
402,192,60389,128,0,60472:0:0:0:0:
329,192,60472,128,0,60555:0:0:0:0:
109,192,60472,128,0,60722:0:0:0:0:
182,192,60555,128,0,60639:0:0:0:0:
402,192,60555,128,0,60639:0:0:0:0:
256,192,60639,128,0,60722:0:0:0:0:
475,192,60639,128,0,60722:0:0:0:0:
182,192,60722,128,0,60805:0:0:0:0:
402,192,60722,128,0,60805:0:0:0:0:
109,192,60805,128,0,60889:0:0:0:0:
329,192,60805,128,0,60889:0:0:0:0:
36,192,60889,128,0,60972:0:0:0:0:
256,192,60889,128,0,60972:0:0:0:0:
329,192,60972,128,0,61055:0:0:0:0:
109,192,60972,128,0,61055:0:0:0:0:
475,192,60972,128,0,61055:0:0:0:0:
402,192,61055,128,0,61139:0:0:0:0:
182,192,61055,128,0,61139:0:0:0:0:
329,192,61139,128,0,61222:0:0:0:0:
109,192,61139,128,0,61222:0:0:0:0:
256,192,61222,128,0,61305:0:0:0:0:
36,192,61222,128,0,61305:0:0:0:0:
475,192,61305,128,0,61389:0:0:0:0:
182,192,61305,128,0,61389:0:0:0:0:
329,192,61305,128,0,61389:0:0:0:0:
109,192,61389,128,0,61472:0:0:0:0:
402,192,61389,128,0,61472:0:0:0:0:
475,192,61472,128,0,61555:0:0:0:0:
182,192,61472,128,0,61555:0:0:0:0:
36,192,61472,128,0,61555:0:0:0:0:
256,192,61555,128,0,61639:0:0:0:0:
109,192,61555,128,0,61639:0:0:0:0:
329,192,61639,128,0,61722:0:0:0:0:
182,192,61639,128,0,61722:0:0:0:0:
36,192,61639,128,0,61722:0:0:0:0:
402,192,61722,128,0,61805:0:0:0:0:
109,192,61722,128,0,61805:0:0:0:0:
475,192,61805,128,0,61889:0:0:0:0:
256,192,61805,128,0,61889:0:0:0:0:
402,192,61889,128,0,61972:0:0:0:0:
182,192,61889,128,0,61972:0:0:0:0:
475,192,61972,128,0,62055:0:0:0:0:
329,192,61972,128,0,62055:0:0:0:0:
109,192,61972,128,0,62055:0:0:0:0:
256,192,62055,128,0,62139:0:0:0:0:
36,192,62055,128,0,62139:0:0:0:0:
402,192,62139,128,0,62222:0:0:0:0:
182,192,62139,128,0,62222:0:0:0:0:
329,192,62222,128,0,62305:0:0:0:0:
109,192,62222,128,0,62305:0:0:0:0:
256,192,62305,128,0,62389:0:0:0:0:
475,192,62305,128,0,62389:0:0:0:0:
36,192,62305,128,0,62389:0:0:0:0:
109,192,62389,128,0,62472:0:0:0:0:
329,192,62389,128,0,62472:0:0:0:0:
402,192,62472,128,0,62555:0:0:0:0:
182,192,62472,128,0,62555:0:0:0:0:
256,192,62555,128,0,62639:0:0:0:0:
475,192,62555,128,0,62639:0:0:0:0:
36,192,62639,128,0,62722:0:0:0:0:
182,192,62639,128,0,62722:0:0:0:0:
329,192,62639,128,0,62722:0:0:0:0:
109,192,62722,128,0,62805:0:0:0:0:
402,192,62722,128,0,62805:0:0:0:0:
36,192,62805,128,0,62889:0:0:0:0:
475,192,62805,128,0,62889:0:0:0:0:
329,192,62805,128,0,62889:0:0:0:0:
256,192,62889,128,0,62972:0:0:0:0:
402,192,62889,128,0,62972:0:0:0:0:
329,192,62972,128,0,63055:0:0:0:0:
182,192,62972,128,0,63055:0:0:0:0:
475,192,62972,128,0,63055:0:0:0:0:
402,192,63055,128,0,63139:0:0:0:0:
109,192,63055,128,0,63139:0:0:0:0:
256,192,63139,128,0,63222:0:0:0:0:
36,192,63139,128,0,63222:0:0:0:0:
329,192,63222,128,0,63305:0:0:0:0:
109,192,63222,128,0,63305:0:0:0:0:
182,192,63305,128,0,63389:0:0:0:0:
402,192,63305,128,0,63389:0:0:0:0:
36,192,63305,128,0,63389:0:0:0:0:
475,192,63389,128,0,63472:0:0:0:0:
256,192,63389,128,0,63472:0:0:0:0:
109,192,63472,128,0,63555:0:0:0:0:
329,192,63472,128,0,63555:0:0:0:0:
402,192,63555,128,0,63639:0:0:0:0:
182,192,63555,128,0,63639:0:0:0:0:
475,192,63639,128,0,64055:0:0:0:0:
256,192,63639,128,0,63805:0:0:0:0:
182,192,63722,128,0,63972:0:0:0:0:
402,192,63722,128,0,63972:0:0:0:0:
109,192,63805,128,0,63889:0:0:0:0:
329,192,63805,128,0,63889:0:0:0:0:
36,192,63889,128,0,64305:0:0:0:0:
256,192,63889,128,0,64055:0:0:0:0:
109,192,63972,128,0,64222:0:0:0:0:
329,192,63972,128,0,64139:0:0:0:0:
182,192,64055,128,0,64139:0:0:0:0:
402,192,64055,128,0,64139:0:0:0:0:
256,192,64139,128,0,64222:0:0:0:0:
475,192,64139,128,0,64222:0:0:0:0:
182,192,64222,128,0,64305:0:0:0:0:
402,192,64222,128,0,64305:0:0:0:0:
109,192,64305,128,0,64389:0:0:0:0:
475,192,64305,128,0,64389:0:0:0:0:
402,192,64389,128,0,64472:0:0:0:0:
182,192,64389,128,0,64472:0:0:0:0:
256,192,64472,128,0,64722:0:0:0:0:
329,192,64472,128,0,64722:0:0:0:0:
402,192,64555,128,0,64639:0:0:0:0:
182,192,64555,128,0,64639:0:0:0:0:
109,192,64639,128,0,64722:0:0:0:0:
475,192,64639,128,0,64722:0:0:0:0:
402,192,64722,128,0,64805:0:0:0:0:
182,192,64722,128,0,64805:0:0:0:0:
256,192,64805,128,0,64889:0:0:0:0:
329,192,64805,128,0,64889:0:0:0:0:
182,192,64889,128,0,64972:0:0:0:0:
109,192,64889,128,0,64972:0:0:0:0:
329,192,64972,128,0,65139:0:0:0:0:
36,192,64972,1,0,0:0:0:0:
475,192,64972,1,0,0:0:0:0:
256,192,65055,128,0,65139:0:0:0:0:
109,192,65055,128,0,65305:0:0:0:0:
402,192,65139,128,0,65305:0:0:0:0:
182,192,65139,128,0,65222:0:0:0:0:
329,192,65222,128,0,65305:0:0:0:0:
256,192,65222,128,0,65305:0:0:0:0:
182,192,65305,128,0,65389:0:0:0:0:
36,192,65305,1,0,0:0:0:0:
475,192,65305,128,0,65639:0:0:0:0:
256,192,65389,128,0,65472:0:0:0:0:
402,192,65389,128,0,65555:0:0:0:0:
329,192,65472,128,0,65555:0:0:0:0:
109,192,65472,128,0,65555:0:0:0:0:
182,192,65555,128,0,65639:0:0:0:0:
256,192,65555,128,0,65639:0:0:0:0:
329,192,65639,128,0,65722:0:0:0:0:
36,192,65639,128,0,65722:0:0:0:0:
402,192,65639,128,0,65722:0:0:0:0:
109,192,65722,128,0,65805:0:0:0:0:
256,192,65722,128,0,65805:0:0:0:0:
475,192,65722,128,0,65805:0:0:0:0:
182,192,65805,128,0,65889:0:0:0:0:
402,192,65805,128,0,65889:0:0:0:0:
36,192,65805,128,0,65889:0:0:0:0:
109,192,65889,128,0,65972:0:0:0:0:
329,192,65889,128,0,65972:0:0:0:0:
475,192,65889,128,0,65972:0:0:0:0:
256,192,65972,128,0,66055:0:0:0:0:
36,192,65972,128,0,66055:0:0:0:0:
402,192,65972,1,0,0:0:0:0:
109,192,66055,128,0,66139:0:0:0:0:
329,192,66055,128,0,66139:0:0:0:0:
475,192,66055,1,0,0:0:0:0:
402,192,66139,128,0,66222:0:0:0:0:
182,192,66139,128,0,66222:0:0:0:0:
36,192,66139,1,0,0:0:0:0:
256,192,66222,128,0,66305:0:0:0:0:
475,192,66222,128,0,66305:0:0:0:0:
109,192,66222,1,0,0:0:0:0:
36,192,66305,128,0,66639:0:0:0:0:
182,192,66305,128,0,66347:0:0:0:0:
402,192,66305,128,0,66347:0:0:0:0:
109,192,66389,128,0,66430:0:0:0:0:
329,192,66389,128,0,66430:0:0:0:0:
402,192,66472,128,0,66514:0:0:0:0:
182,192,66472,128,0,66514:0:0:0:0:
256,192,66555,128,0,66597:0:0:0:0:
475,192,66555,128,0,66597:0:0:0:0:
329,192,66639,128,0,66972:0:0:0:0:
109,192,66639,128,0,66680:0:0:0:0:
402,192,66639,128,0,66680:0:0:0:0:
182,192,66722,128,0,66764:0:0:0:0:
475,192,66722,128,0,66764:0:0:0:0:
256,192,66805,128,0,66847:0:0:0:0:
402,192,66805,128,0,66847:0:0:0:0:
182,192,66889,128,0,66930:0:0:0:0:
475,192,66889,128,0,66930:0:0:0:0:
109,192,66972,128,0,67305:0:0:0:0:
402,192,66972,128,0,67014:0:0:0:0:
256,192,66972,128,0,67014:0:0:0:0:
182,192,67055,128,0,67097:0:0:0:0:
329,192,67055,128,0,67097:0:0:0:0:
256,192,67139,128,0,67180:0:0:0:0:
36,192,67139,128,0,67180:0:0:0:0:
182,192,67222,128,0,67264:0:0:0:0:
329,192,67222,128,0,67264:0:0:0:0:
402,192,67305,128,0,67639:0:0:0:0:
256,192,67305,128,0,67347:0:0:0:0:
475,192,67305,128,0,67347:0:0:0:0:
182,192,67389,128,0,67430:0:0:0:0:
329,192,67389,128,0,67430:0:0:0:0:
109,192,67472,128,0,67514:0:0:0:0:
256,192,67472,128,0,67514:0:0:0:0:
36,192,67555,128,0,67597:0:0:0:0:
329,192,67555,128,0,67597:0:0:0:0:
182,192,67639,128,0,67972:0:0:0:0:
109,192,67639,128,0,67680:0:0:0:0:
475,192,67639,128,0,67680:0:0:0:0:
256,192,67639,1,0,0:0:0:0:
329,192,67722,128,0,67764:0:0:0:0:
402,192,67722,128,0,67764:0:0:0:0:
109,192,67805,128,0,67847:0:0:0:0:
475,192,67805,128,0,67847:0:0:0:0:
402,192,67889,128,0,67930:0:0:0:0:
36,192,67889,128,0,67930:0:0:0:0:
256,192,67972,128,0,68305:0:0:0:0:
109,192,67972,128,0,68014:0:0:0:0:
475,192,67972,128,0,68014:0:0:0:0:
329,192,67972,1,0,0:0:0:0:
402,192,68055,128,0,68097:0:0:0:0:
182,192,68055,128,0,68097:0:0:0:0:
109,192,68139,128,0,68180:0:0:0:0:
329,192,68139,128,0,68180:0:0:0:0:
36,192,68222,128,0,68264:0:0:0:0:
475,192,68222,128,0,68264:0:0:0:0:
329,192,68305,128,0,68639:0:0:0:0:
402,192,68305,1,0,0:0:0:0:
109,192,68305,128,0,68347:0:0:0:0:
182,192,68305,128,0,68347:0:0:0:0:
256,192,68389,128,0,68430:0:0:0:0:
475,192,68389,128,0,68430:0:0:0:0:
36,192,68472,128,0,68514:0:0:0:0:
182,192,68472,128,0,68514:0:0:0:0:
256,192,68555,128,0,68597:0:0:0:0:
109,192,68555,128,0,68597:0:0:0:0:
402,192,68639,128,0,68972:0:0:0:0:
182,192,68639,128,0,68680:0:0:0:0:
475,192,68639,128,0,68680:0:0:0:0:
256,192,68722,128,0,68764:0:0:0:0:
36,192,68722,128,0,68764:0:0:0:0:
109,192,68805,128,0,68847:0:0:0:0:
329,192,68805,128,0,68847:0:0:0:0:
182,192,68889,128,0,68930:0:0:0:0:
256,192,68889,128,0,68930:0:0:0:0:
329,192,68972,128,0,69014:0:0:0:0:
475,192,68972,128,0,69305:0:0:0:0:
36,192,68972,128,0,69014:0:0:0:0:
109,192,68972,1,0,0:0:0:0:
402,192,69055,128,0,69097:0:0:0:0:
182,192,69055,128,0,69097:0:0:0:0:
329,192,69139,128,0,69180:0:0:0:0:
109,192,69139,128,0,69180:0:0:0:0:
256,192,69222,128,0,69264:0:0:0:0:
36,192,69222,128,0,69264:0:0:0:0:
182,192,69305,128,0,69639:0:0:0:0:
402,192,69305,128,0,69347:0:0:0:0:
109,192,69305,128,0,69347:0:0:0:0:
329,192,69389,128,0,69430:0:0:0:0:
36,192,69389,128,0,69430:0:0:0:0:
109,192,69472,128,0,69514:0:0:0:0:
256,192,69472,128,0,69514:0:0:0:0:
329,192,69555,128,0,69597:0:0:0:0:
36,192,69555,128,0,69597:0:0:0:0:
402,192,69639,128,0,69972:0:0:0:0:
109,192,69639,128,0,69680:0:0:0:0:
256,192,69639,128,0,69680:0:0:0:0:
329,192,69722,128,0,69764:0:0:0:0:
182,192,69722,128,0,69764:0:0:0:0:
475,192,69805,128,0,69847:0:0:0:0:
256,192,69805,128,0,69847:0:0:0:0:
182,192,69889,128,0,69930:0:0:0:0:
329,192,69889,128,0,69930:0:0:0:0:
256,192,69972,128,0,70014:0:0:0:0:
36,192,69972,128,0,70014:0:0:0:0:
109,192,69972,128,0,70305:0:0:0:0:
182,192,70055,128,0,70097:0:0:0:0:
329,192,70055,128,0,70097:0:0:0:0:
402,192,70139,128,0,70180:0:0:0:0:
256,192,70139,128,0,70180:0:0:0:0:
475,192,70222,128,0,70264:0:0:0:0:
182,192,70222,128,0,70264:0:0:0:0:
402,192,70305,128,0,70347:0:0:0:0:
36,192,70305,128,0,70347:0:0:0:0:
329,192,70305,128,0,70639:0:0:0:0:
256,192,70305,1,0,0:0:0:0:
182,192,70389,128,0,70430:0:0:0:0:
109,192,70389,128,0,70430:0:0:0:0:
36,192,70472,128,0,70514:0:0:0:0:
402,192,70472,128,0,70514:0:0:0:0:
475,192,70555,128,0,70597:0:0:0:0:
109,192,70555,128,0,70597:0:0:0:0:
256,192,70639,128,0,70972:0:0:0:0:
36,192,70639,128,0,70680:0:0:0:0:
402,192,70639,128,0,70680:0:0:0:0:
182,192,70639,1,0,0:0:0:0:
329,192,70722,128,0,70764:0:0:0:0:
109,192,70722,128,0,70764:0:0:0:0:
402,192,70805,128,0,70847:0:0:0:0:
182,192,70805,128,0,70847:0:0:0:0:
36,192,70889,128,0,70930:0:0:0:0:
475,192,70889,128,0,70930:0:0:0:0:
402,192,70972,128,0,71014:0:0:0:0:
182,192,70972,128,0,71305:0:0:0:0:
329,192,70972,128,0,71014:0:0:0:0:
36,192,71055,128,0,71097:0:0:0:0:
256,192,71055,128,0,71097:0:0:0:0:
329,192,71139,128,0,71180:0:0:0:0:
475,192,71139,128,0,71180:0:0:0:0:
109,192,71139,1,0,0:0:0:0:
256,192,71222,128,0,71264:0:0:0:0:
402,192,71222,128,0,71264:0:0:0:0:
109,192,71305,128,0,71639:0:0:0:0:
329,192,71305,128,0,71347:0:0:0:0:
36,192,71305,128,0,71347:0:0:0:0:
475,192,71389,128,0,71430:0:0:0:0:
256,192,71389,128,0,71430:0:0:0:0:
402,192,71472,128,0,71514:0:0:0:0:
182,192,71472,128,0,71514:0:0:0:0:
329,192,71555,128,0,71597:0:0:0:0:
256,192,71555,128,0,71597:0:0:0:0:
36,192,71639,128,0,71972:0:0:0:0:
475,192,71639,128,0,71680:0:0:0:0:
402,192,71639,128,0,71680:0:0:0:0:
182,192,71639,1,0,0:0:0:0:
329,192,71722,128,0,71764:0:0:0:0:
256,192,71722,128,0,71764:0:0:0:0:
182,192,71805,128,0,71847:0:0:0:0:
109,192,71805,128,0,71847:0:0:0:0:
256,192,71889,128,0,71930:0:0:0:0:
329,192,71889,128,0,71930:0:0:0:0:
109,192,71972,128,0,72305:0:0:0:0:
475,192,71972,128,0,72014:0:0:0:0:
402,192,71972,128,0,72014:0:0:0:0:
329,192,72055,128,0,72097:0:0:0:0:
256,192,72055,128,0,72097:0:0:0:0:
182,192,72139,128,0,72180:0:0:0:0:
36,192,72139,128,0,72180:0:0:0:0:
256,192,72222,128,0,72264:0:0:0:0:
329,192,72222,128,0,72264:0:0:0:0:
475,192,72305,128,0,72639:0:0:0:0:
402,192,72305,128,0,72347:0:0:0:0:
182,192,72305,128,0,72347:0:0:0:0:
36,192,72389,128,0,72430:0:0:0:0:
109,192,72389,128,0,72430:0:0:0:0:
182,192,72472,128,0,72514:0:0:0:0:
256,192,72472,128,0,72514:0:0:0:0:
329,192,72555,128,0,72597:0:0:0:0:
109,192,72555,128,0,72597:0:0:0:0:
402,192,72639,128,0,72972:0:0:0:0:
36,192,72639,128,0,72680:0:0:0:0:
256,192,72639,128,0,72680:0:0:0:0:
109,192,72722,128,0,72764:0:0:0:0:
182,192,72722,128,0,72764:0:0:0:0:
256,192,72805,128,0,72847:0:0:0:0:
475,192,72805,128,0,72847:0:0:0:0:
329,192,72889,128,0,72930:0:0:0:0:
36,192,72889,128,0,72930:0:0:0:0:
256,192,72972,128,0,73305:0:0:0:0:
109,192,72972,128,0,73014:0:0:0:0:
182,192,72972,128,0,73014:0:0:0:0:
475,192,72972,1,0,0:0:0:0:
329,192,73055,128,0,73097:0:0:0:0:
402,192,73055,128,0,73097:0:0:0:0:
475,192,73139,128,0,73180:0:0:0:0:
36,192,73139,128,0,73180:0:0:0:0:
182,192,73222,128,0,73264:0:0:0:0:
329,192,73222,128,0,73264:0:0:0:0:
109,192,73305,128,0,73639:0:0:0:0:
402,192,73305,128,0,73347:0:0:0:0:
475,192,73305,128,0,73347:0:0:0:0:
36,192,73305,1,0,0:0:0:0:
329,192,73389,128,0,73430:0:0:0:0:
256,192,73389,128,0,73430:0:0:0:0:
182,192,73472,128,0,73514:0:0:0:0:
36,192,73472,128,0,73514:0:0:0:0:
329,192,73555,128,0,73597:0:0:0:0:
256,192,73555,128,0,73597:0:0:0:0:
402,192,73639,128,0,73972:0:0:0:0:
182,192,73639,128,0,73680:0:0:0:0:
475,192,73639,128,0,73680:0:0:0:0:
36,192,73639,1,0,0:0:0:0:
329,192,73722,128,0,73764:0:0:0:0:
256,192,73722,128,0,73764:0:0:0:0:
182,192,73805,128,0,73847:0:0:0:0:
109,192,73805,128,0,73847:0:0:0:0:
475,192,73889,128,0,73930:0:0:0:0:
36,192,73889,128,0,73930:0:0:0:0:
256,192,73972,128,0,74305:0:0:0:0:
329,192,73972,128,0,74014:0:0:0:0:
182,192,73972,128,0,74014:0:0:0:0:
109,192,74055,128,0,74097:0:0:0:0:
36,192,74055,128,0,74097:0:0:0:0:
475,192,74139,128,0,74180:0:0:0:0:
329,192,74139,128,0,74180:0:0:0:0:
182,192,74222,128,0,74264:0:0:0:0:
402,192,74222,128,0,74264:0:0:0:0:
475,192,74305,128,0,74639:0:0:0:0:
36,192,74305,128,0,74347:0:0:0:0:
109,192,74305,128,0,74347:0:0:0:0:
329,192,74305,1,0,0:0:0:0:
256,192,74389,128,0,74430:0:0:0:0:
182,192,74389,128,0,74430:0:0:0:0:
402,192,74472,128,0,74514:0:0:0:0:
329,192,74472,128,0,74514:0:0:0:0:
256,192,74555,128,0,74597:0:0:0:0:
182,192,74555,128,0,74597:0:0:0:0:
402,192,74639,128,0,74972:0:0:0:0:
109,192,74639,128,0,74680:0:0:0:0:
36,192,74639,128,0,74680:0:0:0:0:
256,192,74722,128,0,74764:0:0:0:0:
182,192,74722,128,0,74764:0:0:0:0:
329,192,74805,128,0,74847:0:0:0:0:
475,192,74805,128,0,74847:0:0:0:0:
256,192,74889,128,0,74930:0:0:0:0:
182,192,74889,128,0,74930:0:0:0:0:
329,192,74972,128,0,75014:0:0:0:0:
109,192,74972,128,0,75014:0:0:0:0:
36,192,74972,128,0,75305:0:0:0:0:
402,192,75055,128,0,75097:0:0:0:0:
475,192,75055,128,0,75097:0:0:0:0:
329,192,75139,128,0,75180:0:0:0:0:
256,192,75139,128,0,75180:0:0:0:0:
402,192,75222,128,0,75264:0:0:0:0:
182,192,75222,128,0,75264:0:0:0:0:
109,192,75305,128,0,75639:0:0:0:0:
256,192,75305,128,0,75347:0:0:0:0:
475,192,75305,128,0,75347:0:0:0:0:
402,192,75389,128,0,75430:0:0:0:0:
329,192,75389,128,0,75430:0:0:0:0:
256,192,75472,128,0,75514:0:0:0:0:
182,192,75472,128,0,75514:0:0:0:0:
36,192,75555,128,0,75597:0:0:0:0:
475,192,75555,128,0,75597:0:0:0:0:
256,192,75639,128,0,75972:0:0:0:0:
329,192,75639,128,0,75680:0:0:0:0:
402,192,75639,128,0,75680:0:0:0:0:
182,192,75639,1,0,0:0:0:0:
109,192,75722,128,0,75764:0:0:0:0:
475,192,75722,128,0,75764:0:0:0:0:
36,192,75805,128,0,75847:0:0:0:0:
402,192,75805,128,0,75847:0:0:0:0:
182,192,75889,128,0,75930:0:0:0:0:
329,192,75889,128,0,75930:0:0:0:0:
402,192,75972,128,0,76305:0:0:0:0:
109,192,75972,128,0,76014:0:0:0:0:
36,192,75972,128,0,76014:0:0:0:0:
182,192,76055,128,0,76097:0:0:0:0:
256,192,76055,128,0,76097:0:0:0:0:
475,192,76139,128,0,76180:0:0:0:0:
329,192,76139,128,0,76180:0:0:0:0:
256,192,76222,128,0,76264:0:0:0:0:
182,192,76222,128,0,76264:0:0:0:0:
109,192,76305,128,0,76639:0:0:0:0:
36,192,76305,128,0,76347:0:0:0:0:
329,192,76305,128,0,76347:0:0:0:0:
475,192,76305,1,0,0:0:0:0:
256,192,76389,128,0,76430:0:0:0:0:
182,192,76389,128,0,76430:0:0:0:0:
402,192,76472,128,0,76514:0:0:0:0:
329,192,76472,128,0,76514:0:0:0:0:
36,192,76555,128,0,76597:0:0:0:0:
475,192,76555,128,0,76597:0:0:0:0:
182,192,76639,128,0,76680:0:0:0:0:
329,192,76639,128,0,76680:0:0:0:0:
256,192,76639,128,0,76972:0:0:0:0:
475,192,76722,128,0,76764:0:0:0:0:
402,192,76722,128,0,76764:0:0:0:0:
329,192,76805,128,0,76847:0:0:0:0:
182,192,76805,128,0,76847:0:0:0:0:
36,192,76889,128,0,76930:0:0:0:0:
109,192,76889,128,0,76930:0:0:0:0:
182,192,76972,128,0,77014:0:0:0:0:
475,192,76972,128,0,77014:0:0:0:0:
402,192,76972,128,0,77014:0:0:0:0:
329,192,76972,1,0,0:0:0:0:
256,192,77055,128,0,77097:0:0:0:0:
36,192,77055,128,0,77097:0:0:0:0:
475,192,77139,1,0,0:0:0:0:
109,192,77139,128,0,77180:0:0:0:0:
182,192,77139,128,0,77180:0:0:0:0:
329,192,77222,128,0,77264:0:0:0:0:
402,192,77222,128,0,77264:0:0:0:0:
475,192,77305,1,0,0:0:0:0:
256,192,77305,128,0,77347:0:0:0:0:
109,192,77305,128,0,77347:0:0:0:0:
36,192,77389,128,0,77430:0:0:0:0:
402,192,77389,1,0,0:0:0:0:
182,192,77389,128,0,77430:0:0:0:0:
329,192,77472,1,0,0:0:0:0:
109,192,77472,128,0,77514:0:0:0:0:
475,192,77472,128,0,77514:0:0:0:0:
256,192,77555,1,0,0:0:0:0:
402,192,77555,128,0,77597:0:0:0:0:
36,192,77555,128,0,77597:0:0:0:0:
182,192,77639,128,0,77680:0:0:0:0:
109,192,77639,128,0,77680:0:0:0:0:
329,192,77639,128,0,77680:0:0:0:0:
475,192,77639,128,0,77680:0:0:0:0:
402,192,77722,128,0,77764:0:0:0:0:
36,192,77722,128,0,77764:0:0:0:0:
256,192,77805,1,0,0:0:0:0:
329,192,77805,128,0,77847:0:0:0:0:
109,192,77805,128,0,77847:0:0:0:0:
182,192,77889,128,0,77930:0:0:0:0:
475,192,77889,128,0,77930:0:0:0:0:
36,192,77972,1,0,0:0:0:0:
256,192,77972,128,0,78014:0:0:0:0:
402,192,77972,128,0,78014:0:0:0:0:
109,192,78055,1,0,0:0:0:0:
329,192,78055,128,0,78097:0:0:0:0:
475,192,78055,128,0,78097:0:0:0:0:
182,192,78139,1,0,0:0:0:0:
402,192,78139,128,0,78180:0:0:0:0:
36,192,78139,128,0,78180:0:0:0:0:
256,192,78222,1,0,0:0:0:0:
475,192,78222,128,0,78264:0:0:0:0:
109,192,78222,128,0,78264:0:0:0:0:
36,192,78305,128,0,78347:0:0:0:0:
182,192,78305,128,0,78347:0:0:0:0:
329,192,78305,128,0,78347:0:0:0:0:
402,192,78305,128,0,78347:0:0:0:0:
475,192,78389,128,0,78430:0:0:0:0:
109,192,78389,128,0,78430:0:0:0:0:
256,192,78472,1,0,0:0:0:0:
402,192,78472,128,0,78514:0:0:0:0:
182,192,78472,128,0,78514:0:0:0:0:
475,192,78555,128,0,78597:0:0:0:0:
36,192,78555,128,0,78597:0:0:0:0:
182,192,78639,1,0,0:0:0:0:
109,192,78639,128,0,78680:0:0:0:0:
329,192,78639,128,0,78680:0:0:0:0:
256,192,78722,1,0,0:0:0:0:
402,192,78722,128,0,78764:0:0:0:0:
36,192,78722,128,0,78764:0:0:0:0:
329,192,78805,1,0,0:0:0:0:
475,192,78805,128,0,78847:0:0:0:0:
182,192,78805,128,0,78847:0:0:0:0:
402,192,78889,1,0,0:0:0:0:
256,192,78889,128,0,78930:0:0:0:0:
109,192,78889,128,0,78930:0:0:0:0:
329,192,78972,128,0,79014:0:0:0:0:
36,192,78972,128,0,79014:0:0:0:0:
182,192,78972,128,0,79014:0:0:0:0:
475,192,78972,128,0,79014:0:0:0:0:
402,192,79055,128,0,79097:0:0:0:0:
109,192,79055,128,0,79097:0:0:0:0:
256,192,79139,1,0,0:0:0:0:
329,192,79139,128,0,79180:0:0:0:0:
182,192,79139,128,0,79180:0:0:0:0:
109,192,79222,128,0,79264:0:0:0:0:
475,192,79222,128,0,79264:0:0:0:0:
329,192,79305,1,0,0:0:0:0:
182,192,79305,128,0,79347:0:0:0:0:
402,192,79305,128,0,79347:0:0:0:0:
256,192,79389,1,0,0:0:0:0:
475,192,79389,128,0,79430:0:0:0:0:
109,192,79389,128,0,79430:0:0:0:0:
36,192,79472,128,0,79514:0:0:0:0:
329,192,79472,128,0,79514:0:0:0:0:
182,192,79472,1,0,0:0:0:0:
256,192,79555,128,0,79597:0:0:0:0:
402,192,79555,128,0,79597:0:0:0:0:
109,192,79555,1,0,0:0:0:0:
329,192,79639,128,0,79680:0:0:0:0:
182,192,79639,128,0,79680:0:0:0:0:
475,192,79639,128,0,79680:0:0:0:0:
36,192,79639,128,0,79680:0:0:0:0:
256,192,79722,128,0,79764:0:0:0:0:
402,192,79722,128,0,79764:0:0:0:0:
329,192,79805,1,0,0:0:0:0:
109,192,79805,128,0,79847:0:0:0:0:
182,192,79805,128,0,79847:0:0:0:0:
402,192,79889,1,0,0:0:0:0:
256,192,79889,128,0,79930:0:0:0:0:
36,192,79889,128,0,79930:0:0:0:0:
329,192,79972,128,0,80014:0:0:0:0:
182,192,79972,128,0,80014:0:0:0:0:
109,192,79972,128,0,80014:0:0:0:0:
475,192,79972,128,0,80014:0:0:0:0:
256,192,80055,128,0,80097:0:0:0:0:
36,192,80055,128,0,80097:0:0:0:0:
182,192,80139,1,0,0:0:0:0:
402,192,80139,128,0,80180:0:0:0:0:
475,192,80139,128,0,80180:0:0:0:0:
109,192,80222,1,0,0:0:0:0:
256,192,80222,128,0,80264:0:0:0:0:
329,192,80222,128,0,80264:0:0:0:0:
402,192,80305,128,0,80347:0:0:0:0:
182,192,80305,128,0,80347:0:0:0:0:
36,192,80305,128,0,80347:0:0:0:0:
475,192,80305,128,0,80347:0:0:0:0:
256,192,80389,128,0,80430:0:0:0:0:
109,192,80389,128,0,80430:0:0:0:0:
329,192,80472,1,0,0:0:0:0:
36,192,80472,128,0,80514:0:0:0:0:
475,192,80472,128,0,80514:0:0:0:0:
256,192,80555,1,0,0:0:0:0:
402,192,80555,128,0,80597:0:0:0:0:
109,192,80555,128,0,80597:0:0:0:0:
329,192,80639,128,0,80680:0:0:0:0:
475,192,80639,128,0,80680:0:0:0:0:
182,192,80639,128,0,80680:0:0:0:0:
36,192,80639,128,0,80680:0:0:0:0:
402,192,80722,128,0,80764:0:0:0:0:
109,192,80722,128,0,80764:0:0:0:0:
256,192,80805,1,0,0:0:0:0:
36,192,80805,128,0,80847:0:0:0:0:
475,192,80805,128,0,80847:0:0:0:0:
329,192,80889,1,0,0:0:0:0:
109,192,80889,128,0,80930:0:0:0:0:
402,192,80889,128,0,80930:0:0:0:0:
36,192,80972,128,0,81014:0:0:0:0:
475,192,80972,128,0,81014:0:0:0:0:
182,192,80972,128,0,81014:0:0:0:0:
256,192,80972,1,0,0:0:0:0:
402,192,81055,128,0,81097:0:0:0:0:
329,192,81055,128,0,81097:0:0:0:0:
109,192,81055,1,0,0:0:0:0:
36,192,81139,1,0,0:0:0:0:
475,192,81139,128,0,81180:0:0:0:0:
182,192,81139,128,0,81180:0:0:0:0:
109,192,81222,1,0,0:0:0:0:
402,192,81222,128,0,81264:0:0:0:0:
256,192,81222,128,0,81264:0:0:0:0:
182,192,81305,1,0,0:0:0:0:
475,192,81305,128,0,81347:0:0:0:0:
36,192,81305,128,0,81347:0:0:0:0:
329,192,81305,128,0,81347:0:0:0:0:
256,192,81389,1,0,0:0:0:0:
109,192,81389,128,0,81430:0:0:0:0:
402,192,81389,128,0,81430:0:0:0:0:
329,192,81472,1,0,0:0:0:0:
475,192,81472,128,0,81514:0:0:0:0:
182,192,81472,128,0,81514:0:0:0:0:
402,192,81555,1,0,0:0:0:0:
36,192,81555,128,0,81597:0:0:0:0:
256,192,81555,128,0,81597:0:0:0:0:
475,192,81639,1,0,0:0:0:0:
329,192,81639,128,0,81680:0:0:0:0:
109,192,81639,128,0,81680:0:0:0:0:
182,192,81639,128,0,81680:0:0:0:0:
402,192,81722,1,0,0:0:0:0:
256,192,81722,128,0,81764:0:0:0:0:
36,192,81722,128,0,81764:0:0:0:0:
329,192,81805,1,0,0:0:0:0:
182,192,81805,128,0,81847:0:0:0:0:
475,192,81805,128,0,81847:0:0:0:0:
256,192,81889,1,0,0:0:0:0:
109,192,81889,128,0,81930:0:0:0:0:
402,192,81889,128,0,81930:0:0:0:0:
182,192,81972,1,0,0:0:0:0:
329,192,81972,128,0,82014:0:0:0:0:
36,192,81972,128,0,82014:0:0:0:0:
475,192,81972,128,0,82014:0:0:0:0:
109,192,82055,1,0,0:0:0:0:
256,192,82055,128,0,82097:0:0:0:0:
402,192,82055,128,0,82097:0:0:0:0:
36,192,82139,1,0,0:0:0:0:
182,192,82139,128,0,82180:0:0:0:0:
329,192,82139,128,0,82180:0:0:0:0:
109,192,82222,1,0,0:0:0:0:
256,192,82222,128,0,82264:0:0:0:0:
402,192,82222,128,0,82264:0:0:0:0:
329,192,82305,128,0,82430:0:0:0:0:
475,192,82305,128,0,82597:0:0:0:0:
36,192,82305,128,0,82514:0:0:0:0:
182,192,82389,128,0,82597:0:0:0:0:
402,192,82389,128,0,82680:0:0:0:0:
109,192,82472,128,0,82680:0:0:0:0:
329,192,82472,1,0,0:0:0:0:
256,192,82555,128,0,82847:0:0:0:0:
36,192,82555,1,0,0:0:0:0:
329,192,82639,128,0,82930:0:0:0:0:
182,192,82639,1,0,0:0:0:0:
475,192,82639,1,0,0:0:0:0:
402,192,82722,1,0,0:0:0:0:
109,192,82722,1,0,0:0:0:0:
36,192,82805,128,0,82930:0:0:0:0:
182,192,82805,128,0,82930:0:0:0:0:
475,192,82805,128,0,83097:0:0:0:0:
109,192,82889,128,0,83014:0:0:0:0:
256,192,82889,1,0,0:0:0:0:
329,192,82972,1,0,0:0:0:0:
182,192,82972,1,0,0:0:0:0:
36,192,82972,1,0,0:0:0:0:
402,192,83055,128,0,83180:0:0:0:0:
109,192,83055,1,0,0:0:0:0:
256,192,83139,128,0,83347:0:0:0:0:
475,192,83139,1,0,0:0:0:0:
182,192,83222,128,0,83430:0:0:0:0:
402,192,83222,1,0,0:0:0:0:
109,192,83305,128,0,83514:0:0:0:0:
329,192,83305,128,0,83514:0:0:0:0:
475,192,83305,128,0,83597:0:0:0:0:
36,192,83389,128,0,83597:0:0:0:0:
256,192,83389,1,0,0:0:0:0:
402,192,83472,128,0,83764:0:0:0:0:
182,192,83472,1,0,0:0:0:0:
109,192,83555,1,0,0:0:0:0:
329,192,83555,1,0,0:0:0:0:
256,192,83639,128,0,83847:0:0:0:0:
36,192,83639,1,0,0:0:0:0:
475,192,83639,1,0,0:0:0:0:
109,192,83722,128,0,84014:0:0:0:0:
329,192,83722,128,0,83930:0:0:0:0:
182,192,83805,128,0,83930:0:0:0:0:
402,192,83805,1,0,0:0:0:0:
475,192,83889,128,0,84097:0:0:0:0:
256,192,83889,1,0,0:0:0:0:
36,192,83972,128,0,84097:0:0:0:0:
329,192,83972,1,0,0:0:0:0:
182,192,83972,1,0,0:0:0:0:
402,192,84055,128,0,84180:0:0:0:0:
109,192,84055,1,0,0:0:0:0:
329,192,84139,128,0,84264:0:0:0:0:
36,192,84139,1,0,0:0:0:0:
475,192,84139,1,0,0:0:0:0:
256,192,84222,128,0,84430:0:0:0:0:
402,192,84222,1,0,0:0:0:0:
475,192,84305,128,0,84680:0:0:0:0:
182,192,84305,128,0,84597:0:0:0:0:
329,192,84305,1,0,0:0:0:0:
109,192,84389,128,0,84514:0:0:0:0:
402,192,84389,128,0,84597:0:0:0:0:
36,192,84472,128,0,84597:0:0:0:0:
256,192,84472,1,0,0:0:0:0:
329,192,84555,128,0,84764:0:0:0:0:
109,192,84555,1,0,0:0:0:0:
182,192,84639,1,0,0:0:0:0:
36,192,84639,1,0,0:0:0:0:
402,192,84639,1,0,0:0:0:0:
256,192,84722,128,0,84930:0:0:0:0:
475,192,84722,1,0,0:0:0:0:
109,192,84805,128,0,85097:0:0:0:0:
329,192,84805,1,0,0:0:0:0:
402,192,84889,128,0,85014:0:0:0:0:
182,192,84889,128,0,85014:0:0:0:0:
475,192,84972,128,0,85180:0:0:0:0:
256,192,84972,1,0,0:0:0:0:
402,192,85055,1,0,0:0:0:0:
182,192,85055,1,0,0:0:0:0:
329,192,85139,128,0,85264:0:0:0:0:
109,192,85139,1,0,0:0:0:0:
256,192,85222,128,0,85347:0:0:0:0:
36,192,85222,128,0,85347:0:0:0:0:
109,192,85305,128,0,85430:0:0:0:0:
329,192,85305,128,0,85430:0:0:0:0:
182,192,85389,128,0,85514:0:0:0:0:
402,192,85389,128,0,85514:0:0:0:0:
475,192,85472,128,0,85597:0:0:0:0:
256,192,85472,128,0,85597:0:0:0:0:
182,192,85555,128,0,85680:0:0:0:0:
402,192,85555,128,0,85680:0:0:0:0:
475,192,85639,128,0,85764:0:0:0:0:
109,192,85639,128,0,85764:0:0:0:0:
402,192,85722,128,0,85805:0:0:0:0:
182,192,85722,128,0,85847:0:0:0:0:
329,192,85805,128,0,85930:0:0:0:0:
256,192,85805,128,0,85930:0:0:0:0:
402,192,85889,128,0,86014:0:0:0:0:
182,192,85889,128,0,86014:0:0:0:0:
109,192,85972,128,0,86097:0:0:0:0:
475,192,85972,128,0,86097:0:0:0:0:
182,192,86055,128,0,86180:0:0:0:0:
402,192,86055,128,0,86180:0:0:0:0:
329,192,86139,128,0,86264:0:0:0:0:
256,192,86139,128,0,86264:0:0:0:0:
182,192,86222,128,0,86347:0:0:0:0:
109,192,86222,128,0,86347:0:0:0:0:
329,192,86305,128,0,86514:0:0:0:0:
36,192,86347,128,0,86430:0:0:0:0:
109,192,86389,128,0,86514:0:0:0:0:
256,192,86389,128,0,86514:0:0:0:0:
402,192,86472,128,0,86597:0:0:0:0:
182,192,86472,128,0,86597:0:0:0:0:
329,192,86555,128,0,86680:0:0:0:0:
256,192,86555,128,0,86680:0:0:0:0:
182,192,86639,128,0,86764:0:0:0:0:
475,192,86639,128,0,86764:0:0:0:0:
256,192,86722,128,0,86847:0:0:0:0:
402,192,86722,128,0,86847:0:0:0:0:
329,192,86805,128,0,86930:0:0:0:0:
109,192,86805,128,0,86930:0:0:0:0:
182,192,86889,128,0,87014:0:0:0:0:
256,192,86889,128,0,87014:0:0:0:0:
329,192,86972,128,0,87097:0:0:0:0:
36,192,86972,128,0,87097:0:0:0:0:
109,192,87055,128,0,87180:0:0:0:0:
256,192,87055,128,0,87180:0:0:0:0:
182,192,87139,128,0,87222:0:0:0:0:
402,192,87139,128,0,87264:0:0:0:0:
329,192,87222,128,0,87347:0:0:0:0:
109,192,87222,128,0,87347:0:0:0:0:
256,192,87305,128,0,87430:0:0:0:0:
36,192,87305,128,0,87430:0:0:0:0:
329,192,87389,128,0,87514:0:0:0:0:
109,192,87389,128,0,87514:0:0:0:0:
402,192,87472,128,0,87597:0:0:0:0:
182,192,87472,128,0,87597:0:0:0:0:
256,192,87555,128,0,87680:0:0:0:0:
475,192,87555,128,0,87680:0:0:0:0:
402,192,87639,128,0,87722:0:0:0:0:
36,192,87639,128,0,87889:0:0:0:0:
182,192,87639,128,0,87722:0:0:0:0:
329,192,87722,128,0,87889:0:0:0:0:
109,192,87722,128,0,87972:0:0:0:0:
182,192,87805,1,0,0:0:0:0:
402,192,87805,1,0,0:0:0:0:
256,192,87889,128,0,88139:0:0:0:0:
475,192,87889,128,0,88055:0:0:0:0:
182,192,87972,128,0,88139:0:0:0:0:
36,192,87972,1,0,0:0:0:0:
329,192,87972,1,0,0:0:0:0:
402,192,88055,128,0,88139:0:0:0:0:
109,192,88055,1,0,0:0:0:0:
329,192,88139,128,0,88222:0:0:0:0:
36,192,88139,128,0,88389:0:0:0:0:
475,192,88139,1,0,0:0:0:0:
256,192,88222,1,0,0:0:0:0:
402,192,88222,1,0,0:0:0:0:
475,192,88305,128,0,88639:0:0:0:0:
182,192,88305,1,0,0:0:0:0:
329,192,88305,1,0,0:0:0:0:
402,192,88389,128,0,88555:0:0:0:0:
109,192,88389,128,0,88472:0:0:0:0:
256,192,88472,128,0,88639:0:0:0:0:
36,192,88472,1,0,0:0:0:0:
329,192,88555,128,0,88722:0:0:0:0:
109,192,88555,1,0,0:0:0:0:
182,192,88639,128,0,88805:0:0:0:0:
36,192,88639,128,0,88889:0:0:0:0:
402,192,88639,1,0,0:0:0:0:
475,192,88722,1,0,0:0:0:0:
256,192,88722,1,0,0:0:0:0:
109,192,88805,128,0,89097:0:0:0:0:
329,192,88805,1,0,0:0:0:0:
402,192,88889,128,0,89014:0:0:0:0:
182,192,88889,1,0,0:0:0:0:
475,192,88972,128,0,89264:0:0:0:0:
256,192,88972,128,0,89180:0:0:0:0:
36,192,88972,128,0,89055:0:0:0:0:
182,192,89055,128,0,89264:0:0:0:0:
402,192,89055,128,0,89139:0:0:0:0:
329,192,89139,128,0,89264:0:0:0:0:
109,192,89139,128,0,89222:0:0:0:0:
36,192,89222,128,0,89430:0:0:0:0:
256,192,89222,128,0,89305:0:0:0:0:
182,192,89305,128,0,89389:0:0:0:0:
329,192,89305,128,0,89389:0:0:0:0:
475,192,89305,128,0,89389:0:0:0:0:
109,192,89389,128,0,89514:0:0:0:0:
402,192,89389,128,0,89680:0:0:0:0:
182,192,89472,128,0,89597:0:0:0:0:
475,192,89472,128,0,89764:0:0:0:0:
36,192,89472,128,0,89555:0:0:0:0:
256,192,89555,128,0,89764:0:0:0:0:
109,192,89555,128,0,89639:0:0:0:0:
329,192,89639,128,0,89930:0:0:0:0:
36,192,89639,128,0,90014:0:0:0:0:
182,192,89639,128,0,89722:0:0:0:0:
109,192,89722,128,0,89930:0:0:0:0:
402,192,89722,128,0,89805:0:0:0:0:
256,192,89805,128,0,89889:0:0:0:0:
475,192,89805,128,0,89889:0:0:0:0:
182,192,89889,128,0,90097:0:0:0:0:
402,192,89889,128,0,90097:0:0:0:0:
475,192,89972,128,0,90305:0:0:0:0:
329,192,89972,128,0,90055:0:0:0:0:
109,192,89972,128,0,90055:0:0:0:0:
256,192,90055,128,0,90264:0:0:0:0:
36,192,90055,128,0,90139:0:0:0:0:
182,192,90139,128,0,90222:0:0:0:0:
402,192,90139,128,0,90222:0:0:0:0:
109,192,90222,128,0,90305:0:0:0:0:
329,192,90222,128,0,90305:0:0:0:0:
36,192,90305,128,0,90764:0:0:0:0:
256,192,90305,128,0,90514:0:0:0:0:
109,192,90389,128,0,90680:0:0:0:0:
329,192,90389,128,0,90639:0:0:0:0:
182,192,90472,128,0,90597:0:0:0:0:
402,192,90472,128,0,90555:0:0:0:0:
256,192,90555,128,0,90722:0:0:0:0:
475,192,90555,128,0,91597:0:0:0:0:
402,192,90639,128,0,90930:0:0:0:0:
182,192,90639,128,0,91055:0:0:0:0:
109,192,90722,128,0,90805:0:0:0:0:
329,192,90722,128,0,90847:0:0:0:0:
36,192,90805,128,0,90889:0:0:0:0:
256,192,90805,128,0,91097:0:0:0:0:
109,192,90889,128,0,90972:0:0:0:0:
329,192,90889,128,0,91014:0:0:0:0:
36,192,90972,128,0,91264:0:0:0:0:
402,192,90972,128,0,91055:0:0:0:0:
329,192,91055,128,0,91139:0:0:0:0:
109,192,91055,128,0,91180:0:0:0:0:
182,192,91139,128,0,91430:0:0:0:0:
256,192,91139,128,0,91389:0:0:0:0:
329,192,91222,128,0,91305:0:0:0:0:
109,192,91222,128,0,91347:0:0:0:0:
36,192,91305,128,0,91389:0:0:0:0:
402,192,91305,128,0,91389:0:0:0:0:
329,192,91389,128,0,91514:0:0:0:0:
109,192,91389,128,0,91472:0:0:0:0:
182,192,91472,128,0,91555:0:0:0:0:
256,192,91472,128,0,91639:0:0:0:0:
402,192,91555,128,0,91680:0:0:0:0:
329,192,91555,128,0,91764:0:0:0:0:
182,192,91639,128,0,91805:0:0:0:0:
36,192,91639,128,0,91930:0:0:0:0:
475,192,91639,128,0,91722:0:0:0:0:
402,192,91722,128,0,91972:0:0:0:0:
256,192,91722,128,0,91847:0:0:0:0:
109,192,91805,128,0,91972:0:0:0:0:
329,192,91805,128,0,91930:0:0:0:0:
182,192,91889,128,0,92097:0:0:0:0:
256,192,91889,128,0,92014:0:0:0:0:
329,192,91972,128,0,92055:0:0:0:0:
36,192,91972,128,0,92305:0:0:0:0:
475,192,91972,128,0,92264:0:0:0:0:
109,192,92055,128,0,92222:0:0:0:0:
256,192,92055,128,0,92180:0:0:0:0:
402,192,92139,128,0,92347:0:0:0:0:
182,192,92139,128,0,92222:0:0:0:0:
256,192,92222,128,0,92305:0:0:0:0:
329,192,92222,128,0,92430:0:0:0:0:
109,192,92305,128,0,92389:0:0:0:0:
475,192,92305,128,0,92389:0:0:0:0:
182,192,92305,128,0,92514:0:0:0:0:
36,192,92389,128,0,92472:0:0:0:0:
256,192,92389,128,0,92597:0:0:0:0:
402,192,92389,128,0,92472:0:0:0:0:
475,192,92472,128,0,92555:0:0:0:0:
109,192,92472,128,0,92555:0:0:0:0:
329,192,92472,128,0,92680:0:0:0:0:
36,192,92555,128,0,92639:0:0:0:0:
402,192,92555,128,0,92639:0:0:0:0:
182,192,92555,128,0,92639:0:0:0:0:
256,192,92639,128,0,92722:0:0:0:0:
475,192,92639,128,0,92764:0:0:0:0:
109,192,92639,128,0,92680:0:0:0:0:
182,192,92722,128,0,92805:0:0:0:0:
402,192,92722,128,0,92847:0:0:0:0:
36,192,92722,128,0,92764:0:0:0:0:
329,192,92805,128,0,92930:0:0:0:0:
109,192,92805,128,0,92889:0:0:0:0:
475,192,92805,128,0,92847:0:0:0:0:
36,192,92889,128,0,92972:0:0:0:0:
256,192,92889,128,0,92972:0:0:0:0:
402,192,92889,128,0,92930:0:0:0:0:
329,192,92972,128,0,93014:0:0:0:0:
109,192,92972,128,0,93014:0:0:0:0:
182,192,92972,128,0,93097:0:0:0:0:
475,192,92972,128,0,93097:0:0:0:0:
256,192,93055,128,0,93180:0:0:0:0:
402,192,93055,128,0,93180:0:0:0:0:
182,192,93139,128,0,93264:0:0:0:0:
475,192,93139,128,0,93264:0:0:0:0:
256,192,93222,128,0,93347:0:0:0:0:
402,192,93222,128,0,93347:0:0:0:0:
182,192,93305,128,0,93430:0:0:0:0:
475,192,93305,128,0,93430:0:0:0:0:
329,192,93389,128,0,93514:0:0:0:0:
36,192,93389,128,0,93514:0:0:0:0:
109,192,93472,128,0,93597:0:0:0:0:
256,192,93472,128,0,93597:0:0:0:0:
475,192,93555,128,0,93680:0:0:0:0:
182,192,93555,128,0,93680:0:0:0:0:
402,192,93639,128,0,93764:0:0:0:0:
256,192,93639,128,0,93764:0:0:0:0:
329,192,93722,128,0,93847:0:0:0:0:
36,192,93722,128,0,93847:0:0:0:0:
109,192,93805,128,0,93930:0:0:0:0:
256,192,93805,128,0,93930:0:0:0:0:
475,192,93847,128,0,93972:0:0:0:0:
182,192,93889,128,0,94014:0:0:0:0:
256,192,93972,128,0,94097:0:0:0:0:
402,192,93972,128,0,94097:0:0:0:0:
329,192,94055,128,0,94180:0:0:0:0:
182,192,94055,128,0,94180:0:0:0:0:
109,192,94139,128,0,94264:0:0:0:0:
256,192,94139,128,0,94264:0:0:0:0:
182,192,94222,128,0,94347:0:0:0:0:
36,192,94222,128,0,94347:0:0:0:0:
329,192,94305,128,0,94430:0:0:0:0:
475,192,94305,128,0,94430:0:0:0:0:
256,192,94389,128,0,94514:0:0:0:0:
109,192,94389,128,0,94514:0:0:0:0:
329,192,94472,128,0,94597:0:0:0:0:
475,192,94472,128,0,94597:0:0:0:0:
182,192,94555,128,0,94680:0:0:0:0:
36,192,94555,128,0,94680:0:0:0:0:
256,192,94639,128,0,94764:0:0:0:0:
402,192,94639,128,0,94764:0:0:0:0:
182,192,94722,128,0,94847:0:0:0:0:
36,192,94722,128,0,94847:0:0:0:0:
109,192,94805,128,0,94930:0:0:0:0:
256,192,94805,128,0,94930:0:0:0:0:
182,192,94889,128,0,95014:0:0:0:0:
329,192,94889,128,0,95014:0:0:0:0:
256,192,94972,128,0,95097:0:0:0:0:
402,192,94972,128,0,95097:0:0:0:0:
329,192,95055,128,0,95180:0:0:0:0:
475,192,95055,128,0,95180:0:0:0:0:
402,192,95139,128,0,95264:0:0:0:0:
256,192,95139,128,0,95264:0:0:0:0:
182,192,95222,128,0,95347:0:0:0:0:
329,192,95222,128,0,95347:0:0:0:0:
256,192,95305,128,0,95430:0:0:0:0:
109,192,95305,128,0,95430:0:0:0:0:
182,192,95389,128,0,95514:0:0:0:0:
36,192,95389,128,0,95514:0:0:0:0:
109,192,95472,128,0,95597:0:0:0:0:
256,192,95472,128,0,95597:0:0:0:0:
182,192,95555,128,0,95639:0:0:0:0:
329,192,95555,128,0,95639:0:0:0:0:
256,192,95639,1,0,0:0:0:0:
475,192,95639,1,0,0:0:0:0:
402,192,95639,1,0,0:0:0:0:
109,192,95639,1,0,0:0:0:0:
36,192,95639,1,0,0:0:0:0:
402,192,95805,128,0,95889:0:0:0:0:
475,192,95805,128,0,95889:0:0:0:0:
329,192,95805,128,0,95889:0:0:0:0:
182,192,95889,128,0,95972:0:0:0:0:
109,192,95889,128,0,95972:0:0:0:0:
329,192,95972,128,0,96055:0:0:0:0:
256,192,95972,128,0,96055:0:0:0:0:
402,192,95972,128,0,96055:0:0:0:0:
36,192,96055,128,0,96139:0:0:0:0:
109,192,96055,128,0,96139:0:0:0:0:
182,192,96139,128,0,96222:0:0:0:0:
256,192,96139,128,0,96222:0:0:0:0:
329,192,96139,128,0,96222:0:0:0:0:
402,192,96222,128,0,96305:0:0:0:0:
475,192,96222,128,0,96305:0:0:0:0:
182,192,96305,128,0,96389:0:0:0:0:
256,192,96305,128,0,96389:0:0:0:0:
109,192,96305,128,0,96389:0:0:0:0:
36,192,96305,128,0,96389:0:0:0:0:
329,192,96389,128,0,96472:0:0:0:0:
402,192,96389,128,0,96472:0:0:0:0:
182,192,96472,128,0,96555:0:0:0:0:
109,192,96472,128,0,96555:0:0:0:0:
36,192,96472,128,0,96555:0:0:0:0:
256,192,96555,128,0,96639:0:0:0:0:
329,192,96555,128,0,96639:0:0:0:0:
109,192,96639,128,0,96722:0:0:0:0:
475,192,96639,128,0,96722:0:0:0:0:
36,192,96639,128,0,96722:0:0:0:0:
182,192,96722,128,0,96805:0:0:0:0:
256,192,96722,128,0,96805:0:0:0:0:
402,192,96805,128,0,96889:0:0:0:0:
475,192,96805,128,0,96889:0:0:0:0:
36,192,96805,128,0,96889:0:0:0:0:
182,192,96889,128,0,96972:0:0:0:0:
109,192,96889,128,0,96972:0:0:0:0:
475,192,96972,128,0,97139:0:0:0:0:
329,192,96972,128,0,97055:0:0:0:0:
402,192,96972,128,0,97055:0:0:0:0:
109,192,97055,128,0,97389:0:0:0:0:
36,192,97055,128,0,97139:0:0:0:0:
402,192,97139,128,0,97305:0:0:0:0:
329,192,97139,128,0,97222:0:0:0:0:
256,192,97139,128,0,97222:0:0:0:0:
475,192,97222,128,0,97305:0:0:0:0:
36,192,97222,128,0,97555:0:0:0:0:
329,192,97305,128,0,97472:0:0:0:0:
256,192,97305,128,0,97389:0:0:0:0:
182,192,97305,128,0,97389:0:0:0:0:
402,192,97389,128,0,97472:0:0:0:0:
475,192,97389,128,0,97722:0:0:0:0:
256,192,97472,128,0,97639:0:0:0:0:
182,192,97472,128,0,97555:0:0:0:0:
109,192,97472,128,0,97555:0:0:0:0:
402,192,97555,128,0,97889:0:0:0:0:
329,192,97555,128,0,97639:0:0:0:0:
182,192,97639,128,0,97805:0:0:0:0:
109,192,97639,128,0,97722:0:0:0:0:
36,192,97639,128,0,97722:0:0:0:0:
329,192,97722,128,0,98055:0:0:0:0:
256,192,97722,128,0,97805:0:0:0:0:
109,192,97805,128,0,97972:0:0:0:0:
36,192,97805,128,0,97889:0:0:0:0:
475,192,97805,128,0,97889:0:0:0:0:
256,192,97889,128,0,98222:0:0:0:0:
182,192,97889,128,0,97972:0:0:0:0:
36,192,97972,128,0,98139:0:0:0:0:
475,192,97972,128,0,98055:0:0:0:0:
402,192,97972,128,0,98055:0:0:0:0:
182,192,98055,128,0,98222:0:0:0:0:
109,192,98055,128,0,98139:0:0:0:0:
475,192,98139,128,0,98305:0:0:0:0:
402,192,98139,128,0,98222:0:0:0:0:
329,192,98139,128,0,98222:0:0:0:0:
109,192,98222,128,0,98305:0:0:0:0:
36,192,98222,128,0,98305:0:0:0:0:
256,192,98305,1,0,0:0:0:0:
329,192,98305,1,0,0:0:0:0:
402,192,98305,1,0,0:0:0:0:
182,192,98305,1,0,0:0:0:0:
475,192,98639,1,0,0:0:0:0:
402,192,98639,1,0,0:0:0:0:
329,192,98639,1,0,0:0:0:0:
36,192,98639,128,0,98722:0:0:0:0:
475,192,98722,1,0,0:0:0:0:
329,192,98722,1,0,0:0:0:0:
402,192,98722,1,0,0:0:0:0:
109,192,98722,128,0,98805:0:0:0:0:
475,192,98805,128,0,98889:0:0:0:0:
402,192,98805,128,0,98889:0:0:0:0:
329,192,98805,128,0,98889:0:0:0:0:
182,192,98805,128,0,98889:0:0:0:0:
256,192,98889,128,0,98972:0:0:0:0:
36,192,98972,1,0,0:0:0:0:
109,192,98972,1,0,0:0:0:0:
182,192,98972,1,0,0:0:0:0:
475,192,98972,128,0,99055:0:0:0:0:
36,192,99055,1,0,0:0:0:0:
109,192,99055,1,0,0:0:0:0:
182,192,99055,1,0,0:0:0:0:
402,192,99055,128,0,99139:0:0:0:0:
36,192,99139,128,0,99222:0:0:0:0:
109,192,99139,128,0,99222:0:0:0:0:
182,192,99139,128,0,99222:0:0:0:0:
329,192,99139,128,0,99222:0:0:0:0:
256,192,99222,128,0,99305:0:0:0:0:
402,192,99305,1,0,0:0:0:0:
475,192,99305,1,0,0:0:0:0:
36,192,99305,128,0,99389:0:0:0:0:
402,192,99389,1,0,0:0:0:0:
475,192,99389,1,0,0:0:0:0:
109,192,99389,128,0,99472:0:0:0:0:
402,192,99472,128,0,99555:0:0:0:0:
475,192,99472,128,0,99555:0:0:0:0:
182,192,99472,128,0,99555:0:0:0:0:
256,192,99555,128,0,99639:0:0:0:0:
109,192,99639,1,0,0:0:0:0:
36,192,99639,1,0,0:0:0:0:
475,192,99639,128,0,99722:0:0:0:0:
109,192,99722,1,0,0:0:0:0:
36,192,99722,1,0,0:0:0:0:
402,192,99722,128,0,99805:0:0:0:0:
109,192,99805,128,0,99889:0:0:0:0:
36,192,99805,128,0,99889:0:0:0:0:
329,192,99805,128,0,99889:0:0:0:0:
256,192,99889,128,0,99972:0:0:0:0:
402,192,99972,1,0,0:0:0:0:
329,192,99972,1,0,0:0:0:0:
36,192,99972,128,0,100055:0:0:0:0:
402,192,100055,1,0,0:0:0:0:
329,192,100055,1,0,0:0:0:0:
109,192,100055,128,0,100139:0:0:0:0:
402,192,100139,128,0,100222:0:0:0:0:
329,192,100139,128,0,100222:0:0:0:0:
182,192,100139,128,0,100222:0:0:0:0:
256,192,100222,128,0,100305:0:0:0:0:
182,192,100305,1,0,0:0:0:0:
109,192,100305,1,0,0:0:0:0:
475,192,100305,128,0,100389:0:0:0:0:
182,192,100389,1,0,0:0:0:0:
109,192,100389,1,0,0:0:0:0:
402,192,100389,128,0,100472:0:0:0:0:
182,192,100472,128,0,100555:0:0:0:0:
109,192,100472,128,0,100555:0:0:0:0:
329,192,100472,128,0,100555:0:0:0:0:
256,192,100555,128,0,100639:0:0:0:0:
329,192,100639,1,0,0:0:0:0:
36,192,100639,128,0,100722:0:0:0:0:
475,192,100639,1,0,0:0:0:0:
329,192,100722,1,0,0:0:0:0:
109,192,100722,128,0,100805:0:0:0:0:
329,192,100805,128,0,100889:0:0:0:0:
182,192,100805,128,0,100889:0:0:0:0:
256,192,100889,128,0,100972:0:0:0:0:
182,192,100972,1,0,0:0:0:0:
329,192,100972,128,0,101055:0:0:0:0:
36,192,100972,1,0,0:0:0:0:
182,192,101055,1,0,0:0:0:0:
402,192,101055,128,0,101139:0:0:0:0:
182,192,101139,128,0,101222:0:0:0:0:
475,192,101139,128,0,101222:0:0:0:0:
36,192,101222,128,0,101305:0:0:0:0:
256,192,101305,1,0,0:0:0:0:
109,192,101305,128,0,101389:0:0:0:0:
402,192,101305,1,0,0:0:0:0:
256,192,101389,1,0,0:0:0:0:
475,192,101389,128,0,101472:0:0:0:0:
256,192,101472,128,0,101555:0:0:0:0:
402,192,101472,128,0,101555:0:0:0:0:
329,192,101555,128,0,101639:0:0:0:0:
36,192,101639,1,0,0:0:0:0:
182,192,101639,128,0,101722:0:0:0:0:
475,192,101639,1,0,0:0:0:0:
36,192,101722,1,0,0:0:0:0:
256,192,101722,128,0,101805:0:0:0:0:
36,192,101805,128,0,101889:0:0:0:0:
329,192,101805,128,0,101889:0:0:0:0:
402,192,101889,128,0,101972:0:0:0:0:
475,192,101972,1,0,0:0:0:0:
329,192,101972,128,0,102055:0:0:0:0:
182,192,101972,1,0,0:0:0:0:
475,192,102055,1,0,0:0:0:0:
256,192,102055,128,0,102139:0:0:0:0:
475,192,102139,128,0,102222:0:0:0:0:
182,192,102139,128,0,102222:0:0:0:0:
256,192,102222,128,0,102305:0:0:0:0:
109,192,102305,1,0,0:0:0:0:
329,192,102305,128,0,102389:0:0:0:0:
475,192,102305,1,0,0:0:0:0:
109,192,102389,1,0,0:0:0:0:
402,192,102389,128,0,102472:0:0:0:0:
109,192,102472,128,0,102555:0:0:0:0:
329,192,102472,128,0,102555:0:0:0:0:
256,192,102555,128,0,102639:0:0:0:0:
402,192,102639,1,0,0:0:0:0:
182,192,102639,128,0,102722:0:0:0:0:
36,192,102639,1,0,0:0:0:0:
402,192,102722,1,0,0:0:0:0:
109,192,102722,128,0,102805:0:0:0:0:
402,192,102805,128,0,102889:0:0:0:0:
182,192,102805,128,0,102889:0:0:0:0:
256,192,102889,128,0,102972:0:0:0:0:
109,192,102972,1,0,0:0:0:0:
329,192,102972,128,0,103055:0:0:0:0:
475,192,102972,1,0,0:0:0:0:
109,192,103055,1,0,0:0:0:0:
402,192,103055,128,0,103139:0:0:0:0:
109,192,103139,128,0,103222:0:0:0:0:
329,192,103139,128,0,103222:0:0:0:0:
402,192,103222,128,0,103305:0:0:0:0:
256,192,103305,1,0,0:0:0:0:
475,192,103305,128,0,103389:0:0:0:0:
109,192,103305,1,0,0:0:0:0:
256,192,103389,1,0,0:0:0:0:
36,192,103389,128,0,103472:0:0:0:0:
256,192,103472,128,0,103555:0:0:0:0:
109,192,103472,128,0,103555:0:0:0:0:
182,192,103555,128,0,103639:0:0:0:0:
256,192,103639,1,0,0:0:0:0:
475,192,103639,1,0,0:0:0:0:
402,192,103639,1,0,0:0:0:0:
36,192,103639,1,0,0:0:0:0:
329,192,103722,1,0,0:0:0:0:
182,192,103722,1,0,0:0:0:0:
36,192,103805,1,0,0:0:0:0:
109,192,103805,1,0,0:0:0:0:
402,192,103805,1,0,0:0:0:0:
329,192,103889,1,0,0:0:0:0:
475,192,103889,1,0,0:0:0:0:
109,192,103972,1,0,0:0:0:0:
182,192,103972,1,0,0:0:0:0:
256,192,103972,1,0,0:0:0:0:
36,192,104055,1,0,0:0:0:0:
402,192,104055,1,0,0:0:0:0:
256,192,104139,1,0,0:0:0:0:
182,192,104139,1,0,0:0:0:0:
475,192,104139,1,0,0:0:0:0:
329,192,104139,1,0,0:0:0:0:
109,192,104222,1,0,0:0:0:0:
36,192,104222,1,0,0:0:0:0:
475,192,104305,1,0,0:0:0:0:
256,192,104305,1,0,0:0:0:0:
402,192,104305,1,0,0:0:0:0:
109,192,104389,1,0,0:0:0:0:
182,192,104389,1,0,0:0:0:0:
475,192,104472,1,0,0:0:0:0:
329,192,104472,1,0,0:0:0:0:
109,192,104555,1,0,0:0:0:0:
36,192,104555,1,0,0:0:0:0:
329,192,104639,1,0,0:0:0:0:
256,192,104639,1,0,0:0:0:0:
182,192,104639,1,0,0:0:0:0:
402,192,104722,1,0,0:0:0:0:
475,192,104722,1,0,0:0:0:0:
256,192,104805,1,0,0:0:0:0:
182,192,104805,1,0,0:0:0:0:
109,192,104805,1,0,0:0:0:0:
36,192,104805,1,0,0:0:0:0:
329,192,104889,1,0,0:0:0:0:
402,192,104889,1,0,0:0:0:0:
36,192,104972,1,0,0:0:0:0:
256,192,104972,1,0,0:0:0:0:
475,192,104972,1,0,0:0:0:0:
329,192,105055,1,0,0:0:0:0:
402,192,105055,1,0,0:0:0:0:
109,192,105139,1,0,0:0:0:0:
475,192,105139,1,0,0:0:0:0:
256,192,105139,1,0,0:0:0:0:
182,192,105222,1,0,0:0:0:0:
36,192,105222,1,0,0:0:0:0:
329,192,105305,1,0,0:0:0:0:
475,192,105305,1,0,0:0:0:0:
402,192,105305,1,0,0:0:0:0:
256,192,105389,1,0,0:0:0:0:
182,192,105389,1,0,0:0:0:0:
329,192,105472,1,0,0:0:0:0:
402,192,105472,1,0,0:0:0:0:
36,192,105472,1,0,0:0:0:0:
109,192,105472,1,0,0:0:0:0:
475,192,105555,1,0,0:0:0:0:
182,192,105555,1,0,0:0:0:0:
256,192,105639,1,0,0:0:0:0:
402,192,105639,1,0,0:0:0:0:
36,192,105639,1,0,0:0:0:0:
109,192,105722,1,0,0:0:0:0:
329,192,105722,1,0,0:0:0:0:
182,192,105805,1,0,0:0:0:0:
256,192,105805,1,0,0:0:0:0:
475,192,105805,1,0,0:0:0:0:
36,192,105889,1,0,0:0:0:0:
402,192,105889,1,0,0:0:0:0:
109,192,105972,1,0,0:0:0:0:
329,192,105972,1,0,0:0:0:0:
256,192,105972,1,0,0:0:0:0:
182,192,106055,1,0,0:0:0:0:
402,192,106055,1,0,0:0:0:0:
256,192,106139,1,0,0:0:0:0:
475,192,106139,1,0,0:0:0:0:
36,192,106139,1,0,0:0:0:0:
182,192,106222,1,0,0:0:0:0:
402,192,106222,1,0,0:0:0:0:
109,192,106305,128,0,106389:0:0:0:0:
256,192,106305,128,0,106389:0:0:0:0:
36,192,106305,128,0,106389:0:0:0:0:
475,192,106305,128,0,106389:0:0:0:0:
182,192,106389,128,0,106472:0:0:0:0:
329,192,106389,128,0,106472:0:0:0:0:
109,192,106472,128,0,106555:0:0:0:0:
402,192,106472,128,0,106555:0:0:0:0:
475,192,106472,128,0,106555:0:0:0:0:
182,192,106555,128,0,106639:0:0:0:0:
36,192,106555,128,0,106639:0:0:0:0:
329,192,106639,128,0,106722:0:0:0:0:
256,192,106639,128,0,106722:0:0:0:0:
402,192,106639,128,0,106722:0:0:0:0:
475,192,106722,128,0,106805:0:0:0:0:
109,192,106722,128,0,106805:0:0:0:0:
329,192,106805,128,0,106889:0:0:0:0:
256,192,106805,128,0,106889:0:0:0:0:
182,192,106805,128,0,106889:0:0:0:0:
36,192,106805,128,0,106889:0:0:0:0:
402,192,106889,128,0,106972:0:0:0:0:
475,192,106889,128,0,106972:0:0:0:0:
256,192,106972,128,0,107055:0:0:0:0:
109,192,106972,128,0,107055:0:0:0:0:
36,192,106972,128,0,107055:0:0:0:0:
329,192,107055,128,0,107139:0:0:0:0:
402,192,107055,128,0,107139:0:0:0:0:
182,192,107139,128,0,107222:0:0:0:0:
36,192,107139,128,0,107222:0:0:0:0:
402,192,107222,128,0,107305:0:0:0:0:
475,192,107222,128,0,107305:0:0:0:0:
329,192,107305,128,0,107389:0:0:0:0:
256,192,107305,128,0,107389:0:0:0:0:
182,192,107305,128,0,107389:0:0:0:0:
36,192,107389,128,0,107472:0:0:0:0:
109,192,107389,128,0,107472:0:0:0:0:
329,192,107472,128,0,107555:0:0:0:0:
256,192,107472,128,0,107555:0:0:0:0:
402,192,107472,128,0,107555:0:0:0:0:
475,192,107472,128,0,107555:0:0:0:0:
182,192,107555,128,0,107639:0:0:0:0:
109,192,107555,128,0,107639:0:0:0:0:
36,192,107639,128,0,107722:0:0:0:0:
256,192,107639,128,0,107722:0:0:0:0:
475,192,107639,128,0,107722:0:0:0:0:
182,192,107722,128,0,107805:0:0:0:0:
109,192,107722,128,0,107805:0:0:0:0:
36,192,107805,128,0,107889:0:0:0:0:
256,192,107805,128,0,107889:0:0:0:0:
402,192,107805,128,0,107889:0:0:0:0:
329,192,107889,128,0,107972:0:0:0:0:
475,192,107889,128,0,107972:0:0:0:0:
109,192,107972,128,0,108055:0:0:0:0:
182,192,107972,128,0,108055:0:0:0:0:
36,192,107972,128,0,108055:0:0:0:0:
256,192,108055,128,0,108139:0:0:0:0:
329,192,108055,128,0,108139:0:0:0:0:
182,192,108139,128,0,108222:0:0:0:0:
109,192,108139,128,0,108222:0:0:0:0:
402,192,108139,128,0,108222:0:0:0:0:
475,192,108139,128,0,108222:0:0:0:0:
329,192,108222,128,0,108305:0:0:0:0:
36,192,108222,128,0,108305:0:0:0:0:
109,192,108305,128,0,108389:0:0:0:0:
256,192,108305,128,0,108389:0:0:0:0:
475,192,108305,128,0,108389:0:0:0:0:
402,192,108389,128,0,108472:0:0:0:0:
182,192,108389,128,0,108472:0:0:0:0:
329,192,108472,128,0,108555:0:0:0:0:
256,192,108472,128,0,108555:0:0:0:0:
36,192,108472,128,0,108555:0:0:0:0:
109,192,108555,128,0,108639:0:0:0:0:
475,192,108555,128,0,108639:0:0:0:0:
402,192,108639,128,0,108722:0:0:0:0:
182,192,108639,128,0,108722:0:0:0:0:
256,192,108639,128,0,108722:0:0:0:0:
329,192,108722,128,0,108805:0:0:0:0:
109,192,108722,128,0,108805:0:0:0:0:
256,192,108805,128,0,108889:0:0:0:0:
36,192,108805,128,0,108889:0:0:0:0:
475,192,108805,128,0,108889:0:0:0:0:
329,192,108889,128,0,108972:0:0:0:0:
109,192,108889,128,0,108972:0:0:0:0:
402,192,108972,128,0,109055:0:0:0:0:
475,192,108972,128,0,109139:0:0:0:0:
256,192,108972,128,0,109222:0:0:0:0:
36,192,108972,128,0,109055:0:0:0:0:
182,192,109055,128,0,109222:0:0:0:0:
329,192,109055,128,0,109139:0:0:0:0:
402,192,109139,128,0,109305:0:0:0:0:
109,192,109139,128,0,109222:0:0:0:0:
36,192,109139,128,0,109305:0:0:0:0:
475,192,109222,128,0,109389:0:0:0:0:
329,192,109222,128,0,109389:0:0:0:0:
182,192,109305,128,0,109389:0:0:0:0:
256,192,109305,128,0,109389:0:0:0:0:
109,192,109305,128,0,109472:0:0:0:0:
36,192,109389,128,0,109472:0:0:0:0:
402,192,109389,128,0,109555:0:0:0:0:
329,192,109472,128,0,109722:0:0:0:0:
256,192,109472,128,0,109555:0:0:0:0:
475,192,109472,128,0,109555:0:0:0:0:
182,192,109472,128,0,109639:0:0:0:0:
109,192,109555,128,0,109639:0:0:0:0:
36,192,109555,128,0,109805:0:0:0:0:
402,192,109639,128,0,109805:0:0:0:0:
475,192,109639,128,0,109722:0:0:0:0:
256,192,109639,128,0,109805:0:0:0:0:
109,192,109722,128,0,109805:0:0:0:0:
182,192,109722,128,0,109805:0:0:0:0:
475,192,109805,128,0,109889:0:0:0:0:
329,192,109805,128,0,109889:0:0:0:0:
36,192,109889,128,0,109972:0:0:0:0:
109,192,109889,128,0,109972:0:0:0:0:
256,192,109972,128,0,110055:0:0:0:0:
329,192,109972,128,0,110055:0:0:0:0:
182,192,109972,128,0,110055:0:0:0:0:
475,192,110055,128,0,110139:0:0:0:0:
402,192,110055,128,0,110139:0:0:0:0:
256,192,110139,128,0,110222:0:0:0:0:
182,192,110139,128,0,110222:0:0:0:0:
109,192,110139,128,0,110222:0:0:0:0:
36,192,110139,128,0,110222:0:0:0:0:
402,192,110222,128,0,110305:0:0:0:0:
329,192,110222,128,0,110305:0:0:0:0:
36,192,110305,128,0,110472:0:0:0:0:
256,192,110305,128,0,110389:0:0:0:0:
475,192,110305,128,0,110389:0:0:0:0:
329,192,110389,128,0,110555:0:0:0:0:
402,192,110389,128,0,110555:0:0:0:0:
256,192,110472,128,0,110639:0:0:0:0:
109,192,110472,128,0,110722:0:0:0:0:
475,192,110472,128,0,110555:0:0:0:0:
36,192,110555,128,0,110722:0:0:0:0:
182,192,110555,128,0,110639:0:0:0:0:
329,192,110639,128,0,110722:0:0:0:0:
402,192,110639,128,0,110722:0:0:0:0:
475,192,110639,128,0,110805:0:0:0:0:
256,192,110722,128,0,110889:0:0:0:0:
182,192,110722,128,0,110805:0:0:0:0:
109,192,110805,128,0,110972:0:0:0:0:
329,192,110805,128,0,110972:0:0:0:0:
402,192,110805,128,0,110889:0:0:0:0:
36,192,110805,128,0,110889:0:0:0:0:
475,192,110889,128,0,111055:0:0:0:0:
182,192,110889,128,0,111055:0:0:0:0:
256,192,110972,128,0,111055:0:0:0:0:
36,192,110972,128,0,111139:0:0:0:0:
402,192,110972,128,0,111139:0:0:0:0:
329,192,111055,128,0,111139:0:0:0:0:
109,192,111055,128,0,111139:0:0:0:0:
182,192,111139,128,0,111222:0:0:0:0:
475,192,111139,128,0,111222:0:0:0:0:
256,192,111139,128,0,111222:0:0:0:0:
36,192,111222,128,0,111305:0:0:0:0:
402,192,111222,128,0,111305:0:0:0:0:
109,192,111305,128,0,111389:0:0:0:0:
256,192,111305,128,0,111389:0:0:0:0:
329,192,111305,128,0,111389:0:0:0:0:
402,192,111389,128,0,111472:0:0:0:0:
182,192,111389,128,0,111472:0:0:0:0:
256,192,111472,128,0,111555:0:0:0:0:
475,192,111472,128,0,111555:0:0:0:0:
36,192,111472,128,0,111555:0:0:0:0:
182,192,111555,128,0,111639:0:0:0:0:
329,192,111555,128,0,111639:0:0:0:0:
36,192,111639,128,0,111805:0:0:0:0:
109,192,111639,128,0,111722:0:0:0:0:
256,192,111639,128,0,111889:0:0:0:0:
475,192,111639,1,0,0:0:0:0:
329,192,111722,128,0,111889:0:0:0:0:
182,192,111722,128,0,111805:0:0:0:0:
402,192,111805,128,0,111889:0:0:0:0:
109,192,111805,128,0,111972:0:0:0:0:
475,192,111805,1,0,0:0:0:0:
36,192,111889,128,0,112055:0:0:0:0:
182,192,111889,128,0,112055:0:0:0:0:
329,192,111972,128,0,112055:0:0:0:0:
256,192,111972,128,0,112055:0:0:0:0:
402,192,111972,1,0,0:0:0:0:
475,192,112055,128,0,112139:0:0:0:0:
109,192,112055,128,0,112222:0:0:0:0:
256,192,112139,128,0,112222:0:0:0:0:
36,192,112139,128,0,112222:0:0:0:0:
182,192,112139,128,0,112389:0:0:0:0:
329,192,112139,1,0,0:0:0:0:
475,192,112222,128,0,112472:0:0:0:0:
402,192,112222,128,0,112305:0:0:0:0:
109,192,112305,128,0,112639:0:0:0:0:
36,192,112305,128,0,112389:0:0:0:0:
256,192,112305,1,0,0:0:0:0:
402,192,112389,128,0,112472:0:0:0:0:
329,192,112389,128,0,112555:0:0:0:0:
36,192,112472,128,0,112639:0:0:0:0:
182,192,112472,1,0,0:0:0:0:
475,192,112555,128,0,112722:0:0:0:0:
402,192,112555,128,0,112722:0:0:0:0:
256,192,112639,128,0,112722:0:0:0:0:
182,192,112639,128,0,112805:0:0:0:0:
329,192,112639,1,0,0:0:0:0:
36,192,112722,128,0,112889:0:0:0:0:
109,192,112722,128,0,112805:0:0:0:0:
329,192,112805,128,0,113139:0:0:0:0:
402,192,112805,128,0,113055:0:0:0:0:
475,192,112805,128,0,112889:0:0:0:0:
256,192,112805,1,0,0:0:0:0:
182,192,112889,128,0,112972:0:0:0:0:
109,192,112889,128,0,112972:0:0:0:0:
256,192,112972,128,0,113055:0:0:0:0:
475,192,112972,128,0,113139:0:0:0:0:
36,192,112972,1,0,0:0:0:0:
109,192,113055,128,0,113222:0:0:0:0:
182,192,113055,128,0,113222:0:0:0:0:
36,192,113139,128,0,113222:0:0:0:0:
402,192,113139,128,0,113389:0:0:0:0:
256,192,113139,1,0,0:0:0:0:
329,192,113222,128,0,113305:0:0:0:0:
475,192,113222,128,0,113389:0:0:0:0:
36,192,113305,128,0,113472:0:0:0:0:
182,192,113305,128,0,113389:0:0:0:0:
109,192,113305,1,0,0:0:0:0:
256,192,113389,128,0,113555:0:0:0:0:
329,192,113389,128,0,113472:0:0:0:0:
109,192,113472,128,0,113555:0:0:0:0:
182,192,113472,128,0,113639:0:0:0:0:
475,192,113472,128,0,113555:0:0:0:0:
402,192,113472,1,0,0:0:0:0:
36,192,113555,128,0,113722:0:0:0:0:
329,192,113555,128,0,113722:0:0:0:0:
475,192,113639,128,0,113805:0:0:0:0:
256,192,113639,128,0,113722:0:0:0:0:
109,192,113639,1,0,0:0:0:0:
182,192,113722,128,0,113889:0:0:0:0:
402,192,113722,128,0,113889:0:0:0:0:
36,192,113805,128,0,114055:0:0:0:0:
256,192,113805,128,0,113889:0:0:0:0:
329,192,113805,1,0,0:0:0:0:
109,192,113889,128,0,113972:0:0:0:0:
475,192,113889,128,0,114055:0:0:0:0:
256,192,113972,128,0,114055:0:0:0:0:
402,192,113972,128,0,114222:0:0:0:0:
182,192,113972,1,0,0:0:0:0:
329,192,114055,128,0,114139:0:0:0:0:
109,192,114055,128,0,114139:0:0:0:0:
36,192,114139,128,0,114222:0:0:0:0:
256,192,114139,128,0,114222:0:0:0:0:
475,192,114139,1,0,0:0:0:0:
329,192,114222,128,0,114305:0:0:0:0:
109,192,114222,128,0,114305:0:0:0:0:
256,192,114305,128,0,114555:0:0:0:0:
475,192,114305,128,0,114472:0:0:0:0:
36,192,114305,128,0,114389:0:0:0:0:
402,192,114305,1,0,0:0:0:0:
182,192,114389,128,0,114555:0:0:0:0:
329,192,114389,1,0,0:0:0:0:
109,192,114472,128,0,114555:0:0:0:0:
402,192,114472,128,0,114639:0:0:0:0:
36,192,114472,1,0,0:0:0:0:
329,192,114555,128,0,114722:0:0:0:0:
475,192,114555,1,0,0:0:0:0:
109,192,114639,1,0,0:0:0:0:
182,192,114639,128,0,114722:0:0:0:0:
256,192,114639,128,0,114722:0:0:0:0:
402,192,114722,128,0,114889:0:0:0:0:
36,192,114722,1,0,0:0:0:0:
182,192,114805,1,0,0:0:0:0:
256,192,114805,128,0,114889:0:0:0:0:
329,192,114805,128,0,115055:0:0:0:0:
475,192,114805,128,0,114889:0:0:0:0:
36,192,114889,128,0,115139:0:0:0:0:
109,192,114889,1,0,0:0:0:0:
256,192,114972,1,0,0:0:0:0:
475,192,114972,128,0,115055:0:0:0:0:
402,192,114972,128,0,115305:0:0:0:0:
109,192,115055,128,0,115139:0:0:0:0:
182,192,115055,1,0,0:0:0:0:
329,192,115139,1,0,0:0:0:0:
475,192,115139,128,0,115305:0:0:0:0:
109,192,115222,128,0,115389:0:0:0:0:
36,192,115222,1,0,0:0:0:0:
329,192,115305,128,0,115472:0:0:0:0:
182,192,115305,1,0,0:0:0:0:
256,192,115305,128,0,115389:0:0:0:0:
475,192,115389,128,0,115555:0:0:0:0:
402,192,115389,1,0,0:0:0:0:
256,192,115472,1,0,0:0:0:0:
109,192,115472,128,0,115722:0:0:0:0:
36,192,115472,128,0,115555:0:0:0:0:
182,192,115472,128,0,115805:0:0:0:0:
402,192,115555,128,0,115639:0:0:0:0:
329,192,115555,1,0,0:0:0:0:
475,192,115639,1,0,0:0:0:0:
36,192,115639,128,0,115805:0:0:0:0:
256,192,115639,128,0,115722:0:0:0:0:
329,192,115722,128,0,115889:0:0:0:0:
402,192,115722,1,0,0:0:0:0:
475,192,115805,128,0,115889:0:0:0:0:
109,192,115805,128,0,116055:0:0:0:0:
256,192,115805,1,0,0:0:0:0:
36,192,115889,128,0,116055:0:0:0:0:
182,192,115889,1,0,0:0:0:0:
475,192,115972,128,0,116139:0:0:0:0:
329,192,115972,128,0,116055:0:0:0:0:
402,192,115972,1,0,0:0:0:0:
182,192,116055,128,0,116139:0:0:0:0:
256,192,116055,1,0,0:0:0:0:
402,192,116139,128,0,116222:0:0:0:0:
329,192,116139,128,0,116305:0:0:0:0:
36,192,116139,128,0,116222:0:0:0:0:
109,192,116139,1,0,0:0:0:0:
182,192,116222,128,0,116389:0:0:0:0:
475,192,116222,1,0,0:0:0:0:
256,192,116305,128,0,116389:0:0:0:0:
402,192,116305,1,0,0:0:0:0:
36,192,116305,128,0,116472:0:0:0:0:
329,192,116389,128,0,116555:0:0:0:0:
109,192,116389,1,0,0:0:0:0:
182,192,116472,1,0,0:0:0:0:
256,192,116472,128,0,116555:0:0:0:0:
475,192,116472,128,0,116722:0:0:0:0:
402,192,116555,128,0,116639:0:0:0:0:
36,192,116555,1,0,0:0:0:0:
109,192,116639,128,0,116889:0:0:0:0:
256,192,116639,128,0,116722:0:0:0:0:
329,192,116639,1,0,0:0:0:0:
402,192,116722,128,0,116805:0:0:0:0:
182,192,116722,1,0,0:0:0:0:
36,192,116805,1,0,0:0:0:0:
256,192,116805,128,0,116889:0:0:0:0:
475,192,116805,128,0,116889:0:0:0:0:
182,192,116889,128,0,116972:0:0:0:0:
402,192,116889,1,0,0:0:0:0:
329,192,116972,1,0,0:0:0:0:
475,192,116972,1,0,0:0:0:0:
36,192,116972,1,0,0:0:0:0:
109,192,116972,1,0,0:0:0:0:
256,192,116972,128,0,118311:0:0:0:0:
109,192,118311,128,0,118646:0:0:0:0:
256,192,118646,128,0,118980:0:0:0:0:
329,192,118980,128,0,119315:0:0:0:0:
402,192,119315,128,0,119650:0:0:0:0:
475,192,119650,128,0,120989:0:0:0:0:
36,192,120989,128,0,122329:0:0:0:0:
182,192,122329,128,0,122998:0:0:0:0:
329,192,122998,128,0,123668:0:0:0:0:
402,192,123668,128,0,124338:0:0:0:0:
109,192,124338,128,0,124672:0:0:0:0:
182,192,124672,128,0,125007:0:0:0:0:
256,192,125007,128,0,127686:0:0:0:0:
402,192,127686,128,0,129695:0:0:0:0:
109,192,129695,128,0,133713:0:0:0:0:
