osu file format v9

[General]
AudioFilename: DM Ashura - FI - Fantasie Impromptu.mp3
AudioLeadIn: 1004
PreviewTime: 66312
Countdown: 0
SampleSet: Soft
StackLeniency: 0.5
Mode: 0
LetterboxInBreaks: 0
StoryFireInFront: 0
EpilepsyWarning: 1

[Editor]
DistanceSpacing: 0.9
BeatDivisor: 4
GridSize: 8

[Metadata]
Title:F.I
Artist:44teru-k
Creator:Philippines
Version:Silver
Source:BMS
Tags:fantasie frederic holic respect for chopin o2jam classical mix ultimate fantasy electro emdyion impromptu

[Difficulty]
HPDrainRate:5
CircleSize:4
OverallDifficulty:5
ApproachRate:7
SliderMultiplier:1.4
SliderTickRate:1

[Events]
//Background and Video events
0,0,"BG.jpg"
//Break Periods
2,34506,53406
2,82505,86739
//Storyboard Layer 0 (Background)
//Storyboard Layer 1 (Fail)
//Storyboard Layer 2 (Pass)
//Storyboard Layer 3 (Foreground)
Sprite,Foreground,Centre,"SB\Credits.png",320,240 M,0,132978,,477,425 S,0,132978,,0.75424 F,0,132978,134311,0,1 F,0,134311,135644,1 F,0,135644,135863,1,0
//Storyboard Sound Samples
//Background Colour Transformations
3,100,163,162,255

[TimingPoints]
2307,333.333333333333,4,2,0,80,1,0
34307,333.333333333333,3,2,0,80,1,0
54306,333.333333333333,4,2,0,30,1,0
54528,-100,4,2,0,30,0,0
54750,-100,4,2,0,35,0,0
54972,-100,4,2,0,40,0,0
55194,-100,4,2,0,45,0,0
55417,-100,4,2,0,50,0,0
55637,-100,4,2,0,100,0,0
66304,-100,4,2,0,100,0,1
76971,-100,4,1,0,85,0,1
82304,-100,4,2,0,80,0,0
95636,-100,4,1,0,65,0,0
116970,-100,4,2,0,40,0,0

[Colours]
Combo1 : 255,128,192
Combo2 : 255,255,128

[HitObjects]
56,64,2140,1,0
104,120,2306,6,0,B|248:128,1,140,4|2
328,240,2973,2,0,B|184:232,1,140,0|2
80,328,3640,2,0,B|224:336,1,140,0|2
360,336,4306,2,0,B|416:328|456:288|440:216,1,140,0|2
424,104,4973,6,0,B|280:56,1,140,0|2
152,96,5640,2,0,B|288:144,1,140,0|2
328,280,6306,2,0,B|264:240|168:264,1,140,0|2
120,248,6806,1,0
72,192,6973,1,0
56,120,7140,2,0,B|40:72,2,35,0|0|2
128,104,7473,1,0
200,96,7640,6,0,B|344:96,1,140,4|2
464,168,8306,2,0,B|376:176|344:248,1,140,0|2
232,320,8973,2,0,B|152:336|88:288,1,140,0|2
64,232,9473,1,0
72,160,9640,2,0,B|216:160,1,140,0|2
312,56,10306,6,0,B|368:112|456:96,1,140,4|2
448,168,10806,1,0
408,224,10973,2,0,B|320:192,1,70
336,272,11307,2,0,B|256:272,1,70,2|0
208,312,11640,5,0
136,304,11807,1,0
80,256,11973,2,0,B|32:200,1,70,2|0
80,144,12307,1,2
152,144,12473,1,0
216,112,12640,2,0,B|264:56,1,70,2|0
336,48,12973,6,0,B|408:80|480:64,1,140,4|0
480,208,13640,2,0,B|400:192,1,70
368,248,13973,2,0,B|280:232,1,70,2|0
280,304,14307,2,0,B|208:280|136:312,1,140,0|2
48,208,14973,2,0,B|120:176,1,70,2|0
88,112,15307,2,0,B|160:80,1,70,2|0
216,48,15640,5,4
288,40,15807,1,0
260,104,15973,1,2
372,200,16307,1,0
344,264,16473,1,0
416,256,16640,1,2
256,288,16973,5,4
352,192,17307,1,4
256,96,17640,1,4
160,192,17973,1,4
40,120,18307,6,0,B|160:48,1,140,4|2
256,96,18973,1,0
248,168,19140,1,0
312,144,19306,1,2
408,240,19640,1,0
296,320,19973,6,0,B|208:320,1,70,6|0
208,248,20306,2,0,B|136:248,1,70,4|0
128,176,20640,2,0,B|48:176,1,70,6|0
72,104,20973,6,0,B|128:64|208:80,1,140,4|2
344,48,21640,1,0
416,48,21806,1,0
384,112,21973,1,2
424,248,22306,6,0,B|432:320,1,70,0|0
360,320,22640,2,0,B|352:240,1,70,6|0
280,256,22973,2,0,B|288:336,1,70,4|0
216,328,23306,2,0,B|208:248,1,70,6|0
136,256,23640,6,0,B|88:200|0:200,1,140,4|2
64,72,24306,2,0,B|144:56,1,70,0|0
200,88,24640,1,2
272,104,24806,1,0
344,120,24973,6,0,B|392:184|464:184,1,140,0|6
392,312,25640,1,4
320,304,25806,1,0
248,296,25973,1,6
112,280,26306,6,0,B|48:144,1,140,4|2
176,80,26973,1,0
144,144,27140,1,0
216,140,27306,1,0
336,72,27640,6,0,B|392:120|472:112,1,140,4|2
456,256,28306,2,0,B|376:248,1,70
328,296,28640,2,0,B|248:288,1,70,2|0
200,336,28973,6,0,B|144:336,4,35,4|0|0|0|2
280,224,29640,2,0,B|320:224,4,35,4|0|0|0|2
176,136,30306,2,0,B|128:136,4,35,6|2|2|2|2
312,128,30973,2,0,B|352:128,4,35,4|0|0|0|2
456,136,31640,6,0,B|424:216,1,70
360,176,31973,2,0,B|328:240,1,70,2|0
256,216,32306,2,2,B|224:280,1,70
152,256,32640,2,0,B|120:320,1,70,2|0
40,296,32973,5,2
40,224,33140,1,2
56,152,33306,2,0,B|96:120|128:104,1,70
184,88,33640,1,2
256,80,33806,1,2
328,80,33973,2,0,B|400:56,1,70
448,8,34306,1,4
352,128,54306,6,0,B|456:128,5,93.3333333333333
448,208,55639,6,0,B|360:208,1,70,4|0
328,264,55972,2,0,B|240:264,1,70,2|0
232,336,56306,1,0
168,304,56472,1,0
168,232,56639,1,2
232,192,56806,1,0
256,120,56972,6,0,B|232:48,1,70
160,64,57306,2,0,B|184:128,1,70,2|0
120,152,57639,1,0
88,216,57806,1,0
88,288,57972,1,2
120,352,58139,1,0
192,344,58306,6,0,B|336:336,1,140,0|2
448,256,58972,2,2,B|376:224|384:136,1,140,0|2
280,48,59639,2,0,B|208:56,1,70
144,80,59972,1,2
88,128,60139,1,0
80,200,60306,2,0,B|152:208,1,70
224,208,60639,1,2
272,256,60806,1,0
280,328,60972,6,0,B|136:344,1,140,0|2
48,248,61639,1,0
120,256,61806,1,0
176,208,61972,1,2
160,136,62139,1,0
216,88,62306,6,0,B|304:72|320:0,1,140,0|2
440,80,62972,2,0,B|456:160,1,70
384,168,63306,2,0,B|400:240,1,70,2|0
352,288,63639,6,0,B|304:304,4,35,0|0|0|0|2
232,208,64306,2,0,B|184:224,4,35,0|0|0|0|2
136,104,64972,5,4
376,104,65306,1,6
136,280,65639,1,4
376,280,65972,1,6
256,352,66306,6,0,B|176:344,1,70,4|0
184,272,66639,2,0,B|240:264,2,35,2|0|0
144,208,66972,2,0,B|200:144,1,70
80,176,67306,2,0,B|96:128,2,35,2|0|0
72,256,67639,5,4
208,240,67972,1,4
344,216,68306,1,4
480,192,68639,1,4
352,256,68972,6,0,B|282:262,1,70,4|0
322,184,69306,2,0,B|288:180,2,35,2|0|0
360,120,69639,2,0,B|314:68,1,70
425,89,69972,2,0,B|414:56,2,35,2|0|0
448,160,70306,6,0,B|384:200|296:192,1,140,4|2
64,224,70972,2,0,B|128:184|216:192,1,140,4|2
168,56,71639,6,0,B|208:120,1,70,4|0
264,80,71972,2,0,B|336:112,1,70,6|0
320,176,72305,6,0,B|280:240,1,70,4|0
224,200,72639,2,0,B|152:232,1,70,6|0
144,296,72972,6,0,B|240:304|288:368,1,140,4|2
368,88,73639,2,0,B|272:80|224:16,1,140,4|2
120,104,74305,6,0,B|72:160,1,70,4|0
48,224,74639,1,2
80,288,74805,1,0
152,304,74972,2,0,B|200:248,1,70,4|0
224,184,75305,1,2
192,120,75472,1,0
264,104,75639,6,0,B|320:56,1,70,4|0
384,40,75972,1,2
456,64,76139,1,0
464,136,76305,2,0,B|408:184,1,70,4|0
344,208,76639,1,2
280,176,76805,1,0
208,176,76972,5,4
208,176,77139,1,0
208,176,77305,1,2
208,176,77472,1,0
112,136,77639,5,4
112,136,77805,1,0
112,136,77972,1,2
112,136,78139,1,0
64,224,78305,5,4
64,224,78472,1,0
64,224,78639,1,2
64,224,78805,1,0
160,272,78972,5,4
160,272,79139,1,0
160,272,79305,1,2
160,272,79472,1,0
264,304,79639,5,6
328,272,79805,1,0
392,240,79972,1,6
456,208,80139,1,0
432,104,80305,5,6
368,136,80472,1,0
304,168,80639,1,6
240,200,80805,1,0
192,144,80972,5,6
128,120,81139,1,0
104,184,81305,1,6
168,208,81472,1,0
208,152,81639,5,6
94,109,81805,1,0
51,223,81972,1,6
165,265,82139,1,0
132,188,82305,5,6
248,128,87639,6,0,B|216:192|248:272,1,140,0|2
459,263,88305,2,0,B|488:192|456:128,1,140,0|2
392,248,88972,6,0,B|360:296|304:304|256:248,1,140,0|2
216,216,89472,1,0
176,152,89639,2,0,B|143:112|87:120|55:168,1,140,0|2
57,164,90139,1,0
24,232,90305,6,0,B|56:280|112:288|160:232,1,140,0|2
216,216,90805,1,0
264,160,90972,2,0,B|296:120|352:128|384:176,1,140,0|2
382,173,91472,1,0
336,232,91639,6,0,B|272:272|272:360,1,140,0|2
176,152,92305,2,0,B|240:112|240:24,1,140,0|2
112,88,92972,6,0,B|64:160,1,70
104,208,93305,2,0,B|184:248,1,70,2|0
232,216,93639,2,0,B|280:144,1,70
240,96,93972,2,0,B|160:56,1,70,2|0
112,80,94305,6,0,B|72:144|96:240,1,140,0|2
400,304,94972,2,0,B|440:240|416:144,1,140,0|2
256,192,95639,12,0,98305
32,152,98639,5,6
32,152,98972,1,4
32,152,99305,1,6
32,152,99639,1,4
144,64,99972,5,6
144,64,100305,1,4
144,64,100639,1,6
144,64,100972,1,4
280,56,101305,5,6
280,56,101639,1,4
280,56,101972,1,6
408,112,102305,6,0,B|416:192,1,70,4|0
344,192,102639,2,0,B|352:272,1,70,6|0
280,272,102972,2,0,B|232:344,1,70,4|0
176,304,103305,2,0,B|128:368,1,70,6|0
256,192,103639,12,0,105639
256,192,105972,6,0,B|256:112,2,70
256,192,106472,12,0,108305
256,192,108472,6,0,B|256:264,2,70
312,224,108972,2,0,B|400:248,1,70
432,208,109305,5,0
456,152,109472,2,0,B|368:128,2,70
344,64,110139,2,0,B|256:56,2,70
232,144,110805,2,0,B|144:168,2,70
160,264,111472,1,0
112,312,111639,6,0,B|32:328,1,70,4|0
40,256,111972,2,0,B|64:192,1,70
136,176,112305,2,0,B|216:192,1,70,4|0
208,120,112639,2,0,B|184:56,1,70
256,40,112972,5,4
328,48,113139,1,0
384,96,113305,1,0
416,160,113472,1,0
432,232,113639,1,4
424,304,113805,1,0
376,360,113972,1,0
304,352,114139,1,0
232,336,114305,5,4
168,304,114472,1,0
208,248,114639,1,4
144,216,114805,1,0
184,160,114972,1,4
120,128,115139,1,0
160,72,115305,1,4
96,40,115472,1,0
40,80,115639,6,0,B|40:128,3,35,4|0|0|0
40,152,115972,2,0,B|40:200,3,35,4|0|0|0
40,224,116305,2,0,B|40:264,3,35,4|4|0|0
40,296,116639,2,0,B|40:344,3,35,4|0|0|0
40,368,116972,1,4
