osu file format v9

[General]
AudioFilename: DM Ashura - FI - Fantasie Impromptu.mp3
AudioLeadIn: 0
PreviewTime: 66312
Countdown: 0
SampleSet: Soft
StackLeniency: 0.5
Mode: 0
LetterboxInBreaks: 0
StoryFireInFront: 0
EpilepsyWarning: 1

[Editor]
DistanceSpacing: 0.8
BeatDivisor: 4
GridSize: 8

[Metadata]
Title:F.I
Artist:44teru-k
Creator:Philippines
Version:Rust
Source:BMS
Tags:fantasie frederic holic respect for chopin o2jam classical mix ultimate fantasy electro emdyion impromptu

[Difficulty]
HPDrainRate:1
CircleSize:3
OverallDifficulty:1
ApproachRate:2
SliderMultiplier:0.80000000596046
SliderTickRate:1

[Events]
//Background and Video events
0,0,"BG.jpg"
//Break Periods
2,34510,52746
2,82505,86079
//Storyboard Layer 0 (Background)
//Storyboard Layer 1 (Fail)
//Storyboard Layer 2 (Pass)
//Storyboard Layer 3 (Foreground)
Sprite,Foreground,Centre,"SB\Credits.png",320,240 M,0,132978,,477,425 S,0,132978,,0.75424 F,0,132978,134311,0,1 F,0,134311,135644,1 F,0,135644,135863,1,0
//Storyboard Sound Samples
//Background Colour Transformations
3,100,163,162,255

[TimingPoints]
2307,333.333333333333,4,2,0,80,1,0
34307,333.333333333333,3,2,0,80,1,0
54306,333.333333333333,4,2,0,50,1,0
54472,-100,4,2,0,5,0,0
55637,-100,4,2,0,100,0,0
66304,-100,4,2,0,100,0,1
76971,-100,4,1,0,85,0,1
82304,-100,4,2,0,80,0,0
95636,-100,4,1,0,65,0,0
116970,-100,4,2,0,40,0,0

[Colours]
Combo1 : 255,128,192
Combo2 : 255,255,128

[HitObjects]
96,80,7640,2,0,B|304:40|208:112|416:72,1,320.000002384184,4|8
472,184,9640,1,0
412,311,10306,2,0,B|208:272|304:344|88:304,1,320.000002384184,2|0
72,176,12307,2,8,B|104:104,1,80.000000596046
168,88,12973,5,2
296,56,13640,1,0
400,136,14307,2,0,B|392:208|320:272,1,160.000001192092
216,192,15640,6,0,B|224:120|296:56,1,160.000001192092
416,104,16973,1,2
440,232,17640,1,0
352,328,18307,6,0,B|96:328,1,240.000001788138,4|0
72,272,19640,1,0
80,144,20306,1,2
208,136,20973,5,0
224,264,21640,1,2
360,280,22306,2,0,B|432:224|456:144,1,160.000001192092,0|2
328,112,23640,6,0,B|160:104,1,160.000001192092,4|0
88,200,24973,2,0,B|272:208,1,160.000001192092,4|0
208,328,26306,6,0,B|288:280|376:320,1,160.000001192092,4|0
440,208,27640,2,0,B|496:128,2,80.000000596046,4|0|4
312,232,28973,6,0,B|128:216,1,160.000001192092,4|2
88,112,30306,2,0,B|280:128,1,160.000001192092,0|2
256,192,31640,12,4,34306
136,160,54306,6,0,B|336:80|240:224|448:144,1,320.000002384184,0|4
456,280,56306,2,0,B|264:320,1,160.000001192092,2|0
200,232,57639,2,0,B|376:200,1,160.000001192092,2|0
408,88,58972,2,0,B|256:32|88:88,1,320.000002384184,2|0
80,152,60639,1,0
80,216,60972,6,0,B|192:336,1,160.000001192092,2|0
256,224,62306,2,0,B|328:272|416:248,1,160.000001192092,0|0
440,128,63639,6,0,B|384:152|352:256|400:240|328:344|280:344|216:328,1,320.000002384184,8|4
112,280,65639,1,8
80,224,65972,1,0
64,160,66306,5,6
120,48,66972,1,8
248,24,67639,1,0
312,40,67972,1,8
360,80,68306,1,0
392,136,68639,1,8
408,200,68972,6,0,B|488:352,1,160.000001192092,4|8
352,320,70306,2,0,B|304:232,1,80.000000596046,0|8
248,248,70972,2,0,B|296:344,1,80.000000596046,0|8
224,352,71639,6,0,B|56:336|56:336,1,160.000001192092,4|8
56,208,72972,1,0
104,168,73305,1,8
160,136,73639,1,8
224,120,73972,1,8
288,112,74305,6,0,B|432:192,1,160.000001192092,4|8
424,320,75639,2,0,B|272:232,1,160.000001192092,4|0
168,296,76972,6,0,B|48:184,1,160.000001192092,4|4
72,128,77972,1,0
136,128,78305,2,0,B|280:256|280:256,1,160.000001192092,4|4
256,192,79639,12,4,82305
64,104,87639,5,0
192,128,88305,1,8
320,152,88972,1,0
448,176,89639,1,8
464,304,90305,5,0
336,280,90972,1,8
208,256,91639,1,0
80,232,92305,1,8
40,112,92972,6,0,B|216:72,1,160.000001192092,2|4
248,192,94305,2,0,B|416:160|416:160,1,160.000001192092,2|4
256,192,95639,12,0,98305
88,104,98972,5,0
208,64,99639,1,0
336,56,100305,2,0,B|392:224,1,160.000001192092,2|0
304,304,101639,2,0,B|248:136,2,160.000001192092,8|0|8
256,192,103639,12,0,105639
256,192,106305,12,0,108305
128,120,108972,6,0,B|304:72,1,160.000001192092
400,136,110305,2,0,B|240:184,1,160.000001192092
128,232,111639,5,4
240,288,112305,1,4
368,272,112972,1,6
448,168,113639,1,4
256,192,114305,12,4,116972
