osu file format v9

[General]
AudioFilename: DM Ashura - FI - Fantasie Impromptu.mp3
AudioLeadIn: 1004
PreviewTime: 66312
Countdown: 0
SampleSet: Soft
StackLeniency: 0.5
Mode: 0
LetterboxInBreaks: 0
StoryFireInFront: 0
EpilepsyWarning: 1

[Editor]
DistanceSpacing: 1.1
BeatDivisor: 4
GridSize: 16

[Metadata]
Title:F.I
Artist:44teru-k
Creator:Philippines
Version:Platinum
Source:BMS
Tags:fantasie frederic holic respect for chopin o2jam classical mix ultimate fantasy electro emdyion impromptu

[Difficulty]
HPDrainRate:6
CircleSize:5
OverallDifficulty:7
ApproachRate:9
SliderMultiplier:1.4
SliderTickRate:1

[Events]
//Background and Video events
0,0,"BG.jpg"
//Break Periods
2,34506,53706
//Storyboard Layer 0 (Background)
//Storyboard Layer 1 (Fail)
//Storyboard Layer 2 (Pass)
//Storyboard Layer 3 (Foreground)
Sprite,Foreground,Centre,"SB\Credits.png",320,240 M,0,132978,,477,425 S,0,132978,,0.75424 F,0,132978,134311,0,1 F,0,134311,135644,1 F,0,135644,135863,1,0
//Storyboard Sound Samples
//Background Colour Transformations
3,100,163,162,255

[TimingPoints]
2307,333.333333333333,4,2,0,80,1,0
18306,-100,4,2,0,60,0,0
19640,-100,4,2,0,85,0,0
20973,-100,4,2,0,60,0,0
22306,-100,4,2,0,85,0,0
23640,-100,4,2,0,60,0,0
24973,-100,4,2,0,85,0,0
26306,-100,4,2,0,60,0,0
27640,-100,4,2,0,85,0,0
28973,-100,4,2,0,80,0,0
32973,-100,4,2,0,50,0,0
33473,-100,4,2,0,70,0,0
33973,-100,4,2,0,90,0,0
34307,333.333333333333,3,2,0,80,1,0
54306,333.333333333333,4,2,0,25,1,0
54528,-100,4,2,0,30,0,0
54750,-100,4,2,0,35,0,0
54972,-100,4,2,0,40,0,0
55194,-100,4,2,0,45,0,0
55417,-100,4,2,0,50,0,0
55637,-100,4,2,0,100,0,0
66304,-100,4,2,0,100,0,1
76971,-100,4,1,0,50,0,1
82304,-100,4,2,0,80,0,0
116970,-100,4,1,0,80,0,0
117136,-200,4,2,0,20,0,0
127631,-170.940170940171,4,2,0,20,0,0

[Colours]
Combo1 : 255,128,192
Combo2 : 255,255,128

[HitObjects]
64,104,2140,1,0
168,144,2306,5,4
184,112,2390,1,0
208,88,2473,1,0
240,72,2556,1,0
272,64,2640,1,2
304,64,2723,1,0
336,72,2806,1,0
368,88,2890,1,0
392,112,2973,1,0
408,144,3056,1,0
416,176,3140,1,0
416,208,3223,1,0
408,240,3306,2,0,B|384:280,3,35,2|0|0|0
360,296,3640,5,0
328,312,3723,1,0
296,320,3806,1,0
264,320,3890,1,0
232,304,3973,1,2
208,280,4056,1,0
184,256,4140,1,0
152,240,4223,1,0
112,232,4306,1,0
72,240,4390,1,0
40,264,4473,1,0
32,304,4556,1,0
52,336,4640,2,0,B|68:352|84:360,3,35,2|0|2|0
112,352,4973,5,0
136,328,5056,1,0
144,296,5140,1,0
136,264,5223,1,0
112,240,5306,1,2
88,216,5390,1,0
72,184,5473,1,0
64,152,5556,1,0
64,120,5640,1,0
80,88,5723,1,0
104,64,5806,1,0
136,48,5890,1,0
168,40,5973,2,0,B|216:48,3,35,2|0|0|0
232,56,6306,5,0
248,88,6390,1,0
272,120,6473,1,0
304,144,6556,1,0
344,152,6640,1,2
384,152,6723,1,0
424,136,6806,1,0
448,104,6890,1,0
456,64,6973,1,0
432,32,7056,1,0
392,24,7140,1,0
360,40,7223,1,0
344,72,7306,2,0,B|328:88|352:120,3,35,2|0|2|0
360,136,7640,6,0,B|408:192,1,70,4|0
424,264,7973,1,8
352,296,8140,1,0
320,280,8223,1,0
288,280,8306,1,0
256,296,8390,1,0
224,304,8473,1,0
192,304,8556,1,0
160,288,8640,1,8
128,272,8723,1,0
96,272,8806,1,0
64,288,8890,1,0
32,304,8973,6,0,B|16:232,1,70
40,144,9306,1,8
112,80,9473,1,0
128,112,9556,1,0
160,128,9640,1,0
192,136,9723,1,0
224,136,9806,1,0
256,120,9890,1,0
280,96,9973,1,8
288,64,10056,1,0
296,32,10140,1,8
320,8,10223,1,0
352,24,10306,6,0,B|392:88,1,70,0|0
416,224,10640,2,0,B|368:152,1,70,8|0
344,152,10890,1,0
312,152,10973,1,0
280,168,11056,1,0
256,192,11140,1,0
240,224,11223,1,0
240,256,11307,1,8
232,288,11390,1,0
216,320,11473,1,0
184,336,11557,1,0
152,344,11640,6,0,B|104:344,3,35
80,336,11973,1,8
56,312,12057,1,0
40,280,12140,1,0
40,248,12223,1,0
48,216,12307,2,0,B|80:176,3,35
88,160,12640,1,8
96,128,12723,1,0
88,96,12807,1,8
72,64,12890,1,0
48,40,12973,5,0
152,72,13140,1,0
256,40,13307,1,8
360,72,13473,1,0
432,144,13640,1,0
408,168,13723,1,0
376,184,13807,1,0
344,184,13890,1,0
312,176,13973,1,8
280,160,14057,1,0
248,144,14140,1,0
216,144,14223,1,0
184,160,14307,6,0,B|120:192,1,70
80,328,14640,2,0,B|152:288,1,70,8|0
264,368,14973,1,0
280,336,15057,1,0
304,312,15140,1,0
336,304,15223,1,0
368,296,15307,1,8
400,280,15390,1,0
416,248,15473,1,8
424,216,15557,1,8
432,184,15640,6,0,B|456:120,1,70
448,40,15973,1,8
416,48,16057,1,0
384,56,16140,1,0
248,48,16307,5,0
264,80,16390,1,0
280,112,16473,1,0
280,144,16557,1,0
272,176,16640,1,8
256,208,16723,1,0
232,232,16807,1,0
208,256,16890,1,0
176,280,16973,6,0,B|96:296,1,70,4|0
336,224,17307,2,0,B|416:240,1,70,8|0
176,176,17640,2,0,B|96:192,1,70,4|0
336,128,17973,2,4,B|416:144,1,70,8|0
48,72,18307,5,0
80,64,18390,1,0
112,56,18473,1,0
256,48,18640,1,2
256,80,18723,1,0
256,112,18807,1,0
400,56,18973,1,0
432,64,19056,1,0
464,72,19140,1,0
432,208,19306,1,2
400,224,19390,1,0
368,240,19473,1,0
80,208,19640,6,0,B|160:248,1,70,4|0
224,304,19973,2,0,B|256:328|288:304,1,70,6|0
288,192,20306,2,0,B|255:167|223:191,1,70,4|0
432,208,20640,2,0,B|352:248,1,70,6|0
68,132,20973,5,0
84,164,21056,1,0
100,196,21140,1,2
224,40,21306,1,0
240,72,21390,1,0
256,104,21473,1,2
444,252,21640,1,0
428,220,21723,1,0
412,188,21806,1,2
288,344,21973,1,0
272,312,22056,1,0
256,280,22140,1,2
68,132,22306,6,0,B|112:216,1,70,4|0
224,40,22640,2,0,B|264:120,1,70,4|0
444,252,22973,2,0,B|400:168,1,70,4|0
288,344,23306,2,0,B|248:264,1,70,4|0
408,96,23640,6,0,B|348:148,1,70
320,80,23973,2,0,B|264:136,1,70,2|0
64,160,24306,2,0,B|124:108,1,70
152,176,24640,2,0,B|208:120,1,70,2|0
112,264,24973,5,4
144,288,25056,1,0
176,312,25140,1,0
224,208,25306,1,6
256,232,25390,1,0
288,256,25473,1,0
336,136,25640,1,4
368,160,25723,1,0
400,184,25806,1,0
448,80,25973,1,6
480,104,26056,1,0
512,128,26140,1,0
480,240,26306,6,0,B|448:312,1,70,4|0
336,208,26640,2,0,B|296:288,1,70,2|0
208,168,26973,2,0,B|176:240,1,70
64,136,27306,2,0,B|24:216,1,70,2|0
96,328,27640,6,0,B|104:256,1,70,4|0
208,32,27973,2,0,B|200:104,1,70,6|0
264,336,28306,2,0,B|272:264,1,70,4|0
376,40,28640,2,0,B|368:112,1,70,6|0
456,304,28973,5,4
432,272,29056,1,0
400,256,29140,1,0
368,248,29223,1,0
336,248,29306,2,0,B|288:256,3,35,2|0|0|0
264,264,29640,1,4
232,272,29723,1,0
200,288,29806,1,0
168,304,29890,1,0
136,312,29973,2,0,B|88:320,3,35,2|0|0|0
64,312,30306,5,4
32,296,30390,1,0
16,264,30473,1,0
16,232,30556,1,0
40,208,30640,2,0,B|80:192,3,35,2|0|0|0
104,176,30973,1,4
128,152,31056,1,0
152,120,31140,1,0
160,88,31223,1,0
160,56,31306,2,0,B|136:24,3,35,2|0|0|0
104,24,31640,6,0,B|32:56,1,70,4|0
128,152,31973,2,0,B|64:176,1,70,6|0
176,264,32306,2,0,B|232:320,1,70,4|0
288,184,32640,2,0,B|352:248,1,70,6|0
234,85,32973,5,4
358,226,33140,1,0
174,263,33306,1,2
252,51,33473,1,0
379,259,33640,1,0
135,265,33806,1,0
283,11,33973,1,2
398,306,34140,1,0
85,258,34306,1,4
176,302,54306,5,0
256,56,54528,1,0
335,302,54750,1,0
126,149,54972,1,0
385,149,55194,1,0
176,302,55417,1,0
48,296,55639,5,0
64,264,55722,1,0
96,240,55806,1,0
128,232,55889,1,0
160,232,55972,1,2
192,240,56056,1,0
224,256,56139,1,0
256,264,56222,1,0
288,272,56306,1,0
320,272,56389,1,0
352,264,56472,1,0
384,248,56556,1,0
408,224,56639,2,0,B|448:160,1,70,2|0
384,40,56972,6,0,B|336:120,1,70
328,128,57222,1,0
296,144,57306,1,2
264,144,57389,1,0
232,128,57472,1,0
208,104,57556,1,0
176,80,57639,1,0
144,72,57722,1,0
112,72,57806,1,0
80,88,57889,1,0
56,112,57972,2,0,B|32:184,1,70,2|0
64,312,58306,6,0,B|96:288,5,35,0|0|0|0|2|0
120,272,58806,1,0
152,264,58889,1,0
184,264,58972,1,0
216,280,59056,1,0
248,304,59139,1,0
280,320,59222,1,0
312,328,59306,1,2
344,328,59389,1,0
376,320,59472,1,0
408,304,59556,1,0
432,280,59639,6,0,B|456:240,3,35
464,216,59972,1,2
456,184,60056,1,0
432,160,60139,1,0
400,144,60222,2,0,B|360:128,3,35
336,128,60556,1,0
304,128,60639,1,2
272,136,60722,1,0
240,152,60806,1,0
216,176,60889,1,0
200,208,60972,6,0,B|176:280,1,70
48,328,61306,2,0,B|80:240,1,70,2|0
80,232,61556,1,0
88,200,61639,1,0
88,168,61722,1,0
80,136,61806,1,0
64,104,61889,1,0
48,72,61972,2,0,B|96:16,1,70,2|0
216,88,62306,5,0
248,72,62389,1,0
280,64,62472,1,0
312,64,62556,1,0
344,72,62639,1,2
376,88,62722,1,0
400,112,62806,1,0
416,144,62889,1,0
424,176,62972,1,0
424,208,63056,1,0
416,240,63139,1,0
400,272,63222,1,0
384,304,63306,2,0,B|368:320|328:320|312:304,1,70,2|0
240,336,63639,5,0
208,344,63722,1,0
176,344,63806,1,0
144,336,63889,1,0
112,320,63972,1,2
80,304,64056,1,0
56,272,64139,1,0
48,240,64222,1,0
40,208,64306,1,0
40,176,64389,1,0
48,144,64472,1,0
64,112,64556,1,0
96,88,64639,1,2
128,72,64722,1,0
160,64,64806,1,0
192,64,64889,1,0
224,64,64972,6,0,B|296:64,1,70,4|0
288,320,65306,2,0,B|216:320,1,70,6|0
384,160,65639,2,0,B|384:232,1,70,4|0
128,224,65972,2,0,B|128:152,1,70,6|0
80,288,66306,5,6
120,296,66389,1,2
160,296,66472,1,0
200,288,66556,1,2
240,272,66639,1,2
280,264,66722,1,0
320,256,66806,1,2
360,264,66889,1,0
400,280,66972,1,2
440,280,67056,1,2
472,256,67139,1,0
480,216,67222,1,2
464,184,67306,1,2
432,168,67389,1,0
392,168,67472,1,2
360,184,67556,1,0
320,192,67639,5,4
280,200,67722,1,0
240,208,67806,2,0,B|192:224,1,35
40,152,67972,1,4
80,144,68056,1,0
120,136,68139,2,0,B|168:120,1,35
392,24,68306,1,4
352,32,68389,1,0
312,40,68472,2,0,B|264:56,1,35
128,320,68639,1,4
168,312,68722,1,0
208,304,68806,2,0,B|256:288,1,35
464,96,68972,5,2
432,112,69056,1,2
416,144,69139,1,0
424,184,69222,1,2
440,216,69306,1,2
448,256,69389,1,0
440,296,69472,1,2
408,320,69556,1,0
368,320,69639,1,2
328,312,69722,1,2
288,304,69806,1,0
248,304,69889,1,2
208,312,69972,1,2
176,328,70056,1,0
136,336,70139,1,2
96,328,70222,1,0
64,304,70306,5,4
72,264,70389,1,0
80,224,70472,2,0,B|96:160,1,35
216,24,70639,1,4
208,64,70722,1,0
200,104,70806,2,0,B|184:168,1,35
288,312,70972,1,4
296,272,71056,1,0
303,232,71139,2,0,B|312:198,1,35
456,40,71305,1,4
448,80,71389,1,0
440,119,71472,2,0,B|431:153,1,35
464,328,71639,5,2
432,304,71722,1,2
392,304,71805,1,0
352,312,71889,1,2
320,328,71972,1,2
280,336,72055,1,0
240,336,72139,1,2
200,336,72222,1,0
160,328,72305,1,2
120,320,72389,1,2
80,304,72472,1,0
56,280,72555,1,2
40,248,72639,1,2
32,208,72722,1,0
32,168,72805,1,2
40,128,72889,1,0
64,104,72972,5,4
96,88,73055,1,0
128,71,73139,2,0,B|159:55,1,35
192,224,73305,1,4
160,240,73389,1,0
128,257,73472,2,0,B|96:272,1,35
432,256,73639,1,4
400,272,73722,1,0
368,289,73805,2,0,B|336:304,1,35
280,105,73972,1,4
312,89,74055,1,0
344,72,74139,2,0,B|375:56,1,35
64,200,74305,5,2
96,184,74389,1,2
136,176,74472,1,0
176,176,74555,1,2
216,184,74639,1,2
256,192,74722,1,0
288,208,74805,1,2
328,216,74889,1,0
368,216,74972,1,2
408,208,75055,1,2
448,192,75139,1,0
472,160,75222,1,2
480,120,75305,1,2
464,80,75389,1,0
432,64,75472,1,2
392,64,75555,1,0
352,72,75639,6,4,B|272:88,1,70,4|0
160,312,75972,2,4,B|240:296,1,70,4|0
368,0,76305,2,4,B|288:16,1,70,4|0
144,384,76639,2,4,B|224:368,1,70,4|0
40,152,76972,6,0,B|72:112,1,35
120,144,77139,2,0,B|144:112,1,35,2|0
200,136,77305,2,0,B|232:96,1,35
280,128,77472,2,0,B|304:96,1,35,2|0
472,232,77639,6,0,B|440:272,1,35
392,240,77805,2,0,B|368:272,1,35,2|0
312,248,77972,2,0,B|280:288,1,35
232,256,78139,2,0,B|208:288,1,35,2|2
168,48,78305,6,0,B|128:64,1,35
280,88,78472,2,0,B|240:104,1,35,2|0
392,136,78639,2,0,B|352:152,1,35
504,176,78805,2,0,B|464:192,1,35,2|2
344,336,78972,6,0,B|384:320,1,35
232,296,79139,2,0,B|272:280,1,35,2|0
120,248,79305,2,0,B|160:232,1,35
8,208,79472,2,0,B|48:192,1,35,2|0
72,72,79639,5,0
96,104,79722,1,0
128,120,79805,1,2
168,128,79889,1,0
208,128,79972,1,0
248,120,80055,1,0
288,112,80139,1,2
328,112,80222,1,0
368,120,80305,1,0
400,136,80389,1,0
424,168,80472,1,2
440,200,80555,1,0
448,240,80639,1,0
440,280,80722,1,0
424,312,80805,1,2
408,344,80889,1,0
368,360,80972,5,0
324,338,81055,1,0
280,316,81139,1,2
237,294,81222,1,0
193,273,81305,1,0
150,251,81389,1,0
106,229,81472,2,0,B|54:204,1,35,2|0
144,24,81639,1,0
188,46,81722,1,0
232,68,81805,1,2
275,90,81889,1,0
319,111,81972,1,0
362,133,82055,1,0
406,155,82139,2,0,B|457:179,1,35,2|0
440,232,82305,5,4
400,240,82389,1,0
360,240,82472,1,0
320,232,82555,1,0
288,216,82639,1,2
256,208,82722,1,0
216,200,82805,1,0
176,192,82889,1,0
136,200,82972,1,0
96,216,83055,1,0
64,240,83139,1,0
40,272,83222,1,0
24,304,83305,2,0,B|96:336,1,70,2|2
168,320,83639,6,0,B|240:304,1,70
272,304,83889,1,0
304,320,83972,1,2
336,336,84055,1,0
376,344,84139,1,0
416,336,84222,1,0
456,320,84305,1,0
472,288,84389,1,0
480,248,84472,1,0
472,208,84555,1,0
464,168,84639,2,0,B|448:96,1,70,2|2
368,64,84972,6,0,B|320:56,5,35,0|0|0|0|2|0
296,56,85472,1,0
256,56,85555,1,0
216,64,85639,1,0
184,80,85722,1,0
160,104,85805,1,0
136,136,85889,1,0
120,168,85972,1,2
104,200,86055,1,0
96,240,86139,1,0
88,280,86222,1,0
88,320,86305,6,0,B|136:336,1,35,0|0
160,312,86472,2,0,B|200:320,1,35
216,288,86639,2,0,B|256:296,1,35,2|0
264,256,86805,2,0,B|312:256,1,35
312,216,86972,2,0,B|352:200,1,35,0|0
328,168,87139,2,0,B|352:144,1,35
320,120,87305,2,0,B|336:80,1,35,2|0
296,72,87472,2,0,B|296:32,1,35
272,8,87639,6,0,B|224:32,3,35,0|0|0|0
208,40,87972,1,2
184,72,88055,1,0
176,112,88139,1,0
192,144,88222,1,0
224,168,88305,1,0
264,184,88389,1,0
296,208,88472,1,0
320,240,88555,1,0
320,280,88639,2,0,B|296:352,1,70,2|0
224,352,88972,6,0,B|192:336,3,35,0|0|0|0
160,320,89305,1,2
136,296,89389,1,0
112,264,89472,1,0
104,224,89555,2,0,B|104:176,3,35,0|0|0|0
112,152,89889,1,0
120,112,89972,1,2
144,80,90055,1,0
288,32,90305,6,0,B|320:48,3,35,0|0|0|0
352,64,90639,1,2
376,88,90722,1,0
400,120,90805,1,0
408,160,90889,2,0,B|408:208,3,35,0|0|0|0
400,232,91222,1,0
392,272,91305,1,2
368,304,91389,1,0
256,328,91639,6,0,B|208:312,3,35,0|0|0|0
192,296,91972,1,2
176,264,92055,1,0
176,224,92139,1,0
192,192,92222,2,0,B|216:168,3,35
240,136,92555,1,0
240,96,92639,1,2
224,56,92722,1,0
31,203,92972,6,0,B|68:188,3,35
98,177,93305,1,2
135,163,93389,1,0
173,148,93472,1,0
210,134,93555,1,0
248,120,93639,1,0
285,105,93722,1,0
322,91,93805,1,0
360,76,93889,1,0
397,62,93972,2,0,B|441:44,2,35,2|0|0
483,111,94305,6,0,B|445:125,3,35
416,136,94639,1,2
384,152,94722,1,0
352,176,94805,1,0
336,208,94889,1,0
328,248,94972,1,0
312,280,95055,1,0
280,296,95139,1,0
240,296,95222,1,0
200,288,95305,2,0,B|184:240,3,35
176,216,95639,5,4
168,176,95722,1,0
168,136,95805,1,2
184,96,95889,1,0
216,64,95972,1,0
256,48,96055,1,0
296,40,96139,1,2
336,40,96222,1,0
376,48,96305,5,4
408,64,96389,1,0
440,88,96472,1,2
464,120,96555,1,0
480,160,96639,1,0
488,200,96722,1,0
480,240,96805,1,2
464,280,96889,1,0
440,312,96972,5,0
408,336,97055,1,0
376,352,97139,1,2
336,360,97222,1,0
296,352,97305,1,0
264,328,97389,1,0
232,312,97472,1,2
192,304,97555,1,0
152,312,97639,5,0
112,320,97722,1,0
72,312,97805,1,2
40,288,97889,1,0
24,256,97972,1,0
24,216,98055,1,0
32,176,98139,2,0,B|48:96,1,70
112,56,98639,5,4
384,112,98972,1,4
200,320,99305,1,4
480,312,99639,1,4
248,152,99972,5,4
48,344,100305,1,4
48,64,100639,1,4
328,56,100972,1,4
328,336,101305,1,4
88,200,101639,6,0,B|128:144,1,70
200,264,101972,2,0,B|248:200,1,70
352,120,102305,2,0,B|394:176,1,70
465,55,102639,2,0,B|505:111,1,70
432,288,102972,2,0,B|392:344,1,70
320,224,103305,2,0,B|272:288,1,70
256,192,103639,12,0,105805
184,256,105972,5,8
224,104,106139,1,2
336,208,106306,1,4
256,192,106472,12,0,108139
168,112,108305,5,2
304,88,108472,1,8
336,224,108639,1,2
200,248,108805,1,10
152,344,108972,6,0,B|80:288,1,70,4|2
96,192,109305,2,0,B|152:128,1,70,0|2
248,120,109639,2,0,B|320:176,1,70,0|2
304,272,109972,2,0,B|248:336,1,70,0|2
360,40,110305,6,0,B|432:96,1,70,0|2
416,192,110639,2,0,B|360:256,1,70,0|2
264,264,110972,2,0,B|192:208,1,70,0|2
208,112,111305,2,0,B|264:48,1,70,0|2
24,360,111639,5,4
96,306,111805,2,0,B|152:264,2,70
24,360,112305,1,0
208,224,112472,2,0,B|264:182,2,70
24,360,112972,1,4
320,136,113139,2,0,B|376:94,2,70
24,360,113639,1,0
432,48,113805,2,0,B|488:6,2,70
24,224,114305,5,4
40,208,114389,1,0
56,200,114472,1,0
80,192,114555,1,0
104,192,114639,1,8
128,200,114722,1,0
144,208,114805,1,0
160,224,114889,1,0
176,240,114972,1,4
184,256,115055,1,0
192,272,115139,1,0
208,288,115222,1,0
224,296,115305,1,8
248,304,115389,1,0
272,304,115472,1,0
296,296,115555,1,0
320,288,115639,5,0
368,272,115722,1,0
408,240,115805,1,0
440,208,115889,1,0
464,168,115972,1,0
472,120,116055,1,0
464,72,116139,1,0
432,32,116222,1,0
384,24,116305,1,0
336,32,116389,1,0
296,56,116472,1,0
248,72,116555,1,0
200,80,116639,1,0
152,72,116722,1,0
104,64,116805,1,0
56,40,116889,1,0
24,0,116972,1,4
424,264,117972,6,0,B|376:336,1,70
320,288,118639,2,0,B|280:344,1,70
208,320,119305,1,0
160,256,119639,2,0,B|48:168,1,140
136,72,120972,2,0,B|248:160,1,140
320,24,122305,6,0,B|464:80,1,140
424,272,123639,2,0,B|288:216,1,140
264,288,124639,1,0
208,240,124972,2,0,B|72:192,3,140
80,32,127639,6,0,B|128:208|368:96|448:336,1,491.399995020747
