osu file format v9

[General]
AudioFilename: DM Ashura - FI - Fantasie Impromptu.mp3
AudioLeadIn: 1000
PreviewTime: 66312
Countdown: 0
SampleSet: Soft
StackLeniency: 0.5
Mode: 0
LetterboxInBreaks: 0
StoryFireInFront: 0
EpilepsyWarning: 1

[Editor]
DistanceSpacing: 1.1
BeatDivisor: 4
GridSize: 8

[Metadata]
Title:F.I
Artist:44teru-k
Creator:Philippines
Version:Gold
Source:BMS
Tags:fantasie frederic holic respect for chopin o2jam classical mix ultimate fantasy electro emdyion impromptu

[Difficulty]
HPDrainRate:6
CircleSize:5
OverallDifficulty:6
ApproachRate:8
SliderMultiplier:1.4
SliderTickRate:1

[Events]
//Background and Video events
0,0,"BG.jpg"
//Break Periods
2,34506,53556
//Storyboard Layer 0 (Background)
//Storyboard Layer 1 (Fail)
//Storyboard Layer 2 (Pass)
//Storyboard Layer 3 (Foreground)
Sprite,Foreground,Centre,"SB\Credits.png",320,240 M,0,132978,,477,425 S,0,132978,,0.75424 F,0,132978,134311,0,1 F,0,134311,135644,1 F,0,135644,135863,1,0
//Storyboard Sound Samples
//Background Colour Transformations
3,100,163,162,255

[TimingPoints]
2307,333.333333333333,4,2,0,80,1,0
34307,333.333333333333,3,2,0,80,1,0
54306,333.333333333333,4,2,0,25,1,0
54528,-100,4,2,0,30,0,0
54750,-100,4,2,0,35,0,0
54972,-100,4,2,0,40,0,0
55194,-100,4,2,0,45,0,0
55417,-100,4,2,0,50,0,0
55637,-100,4,2,0,100,0,0
66304,-100,4,2,0,100,0,1
76971,-100,4,1,0,50,0,1
82304,-100,4,2,0,80,0,0
95636,-100,4,1,0,65,0,0
116970,-100,4,2,0,85,0,0
117136,-200,4,2,0,20,0,0

[Colours]
Combo1 : 255,128,192
Combo2 : 255,255,128

[HitObjects]
64,88,2140,1,0
136,64,2306,6,0,B|272:112,1,140,4|2
336,248,2973,2,0,B|176:192,1,140,0|2
72,288,3640,2,0,B|160:336|216:344,1,140,0|2
280,336,4140,1,2
360,336,4306,2,0,B|416:288|504:304,1,140,2|2
448,64,4973,6,0,B|400:112|312:96,1,140,0|2
176,40,5640,2,0,B|104:80|96:160,1,140,0|2
176,280,6306,2,0,B|256:304|328:272,1,140,0|2
368,216,6806,1,2
448,224,6973,2,0,B|432:296,1,70,2|0
432,312,7223,1,0
432,328,7306,1,0
296,296,7473,5,0
168,240,7640,5,2
104,200,7806,2,0,B|72:160,2,35
168,160,8140,1,0
232,120,8306,1,0
304,104,8473,1,0
384,104,8640,1,2
456,120,8806,1,2
440,264,8973,6,0,B|360:256,1,70
352,256,9223,1,0
336,256,9306,1,0
280,200,9473,1,0
216,160,9640,1,0
144,144,9806,1,0
72,160,9973,1,2
8,200,10140,1,2
72,320,10306,5,0
152,320,10473,2,0,B|208:296,2,35
120,248,10806,1,2
192,232,10973,1,2
216,160,11140,1,0
288,152,11307,1,2
336,96,11473,1,0
368,168,11640,6,0,B|448:200,1,70,2|0
480,256,11973,2,0,B|448:328,1,70,2|0
376,344,12307,2,0,B|296:312,1,70,0|0
264,256,12640,2,0,B|296:184,1,70,2|0
256,112,12973,6,0,B|208:160|120:144,1,140,4|2
40,152,13473,1,0
40,232,13640,1,0
96,288,13807,2,0,B|56:328,2,35,0|0|0
176,288,14140,1,2
248,320,14307,6,0,B|400:344,1,140,0|2
432,280,14807,2,0,B|336:264,1,70,2|2
336,192,15140,2,2,B|288:184,2,35
408,208,15473,1,2
464,152,15640,6,0,B|440:80,1,70,4|2
376,128,15973,2,0,B|352:64,1,70
288,104,16307,2,0,B|263:38,1,70
192,72,16640,2,0,B|216:136,1,70,2|0
136,144,16973,5,4
376,144,17307,1,4
136,240,17640,1,4
376,240,17973,1,4
104,336,18307,6,0,B|168:304,1,70,4|0
152,232,18640,2,2,B|192:216,2,35,2|0|0
144,152,18973,2,0,B|216:120,1,70,2|0
280,160,19306,2,2,B|320:144,2,35,2|0|0
320,232,19640,6,0,B|384:200|456:224,1,140,6|2
480,152,20140,1,2
440,88,20306,2,0,B|296:64,1,140,4|2
184,168,20973,6,0,B|80:72,1,140,2|6
24,128,21473,1,4
48,216,21640,2,0,B|152:320,1,140,2|6
224,304,22140,1,0
280,248,22306,6,0,B|328:248,2,35,2|0|0
240,184,22640,1,6
208,200,22723,1,0
176,216,22806,1,0
139,160,22973,2,0,B|104:160,2,35,6|0|0
64,96,23306,1,6
32,112,23390,1,0
0,128,23473,1,0
48,208,23640,6,0,B|96:256|96:336,1,140,4|2
168,312,24140,1,2
240,280,24306,2,0,B|320:272,1,70,2|0
384,256,24640,1,2
384,176,24806,1,2
320,128,24973,5,4
280,120,25056,1,0
240,112,25140,1,0
176,152,25306,2,0,B|200:200,2,35,4|0|0
104,144,25640,1,4
96,184,25723,1,0
88,224,25806,1,0
136,288,25973,2,0,B|112:328,2,35,4|0|0
216,280,26306,6,2,B|360:272,1,140,6|2
408,128,26973,2,2,B|264:136,1,140
144,40,27640,6,0,B|72:64,1,70,0|0
56,136,27973,2,0,B|80:200,1,70,2|0
152,240,28306,2,0,B|224:216,1,70
240,144,28640,2,0,B|216:80,1,70,2|0
296,72,28973,6,0,B|384:56|440:80,1,140,4|2
448,152,29473,1,0
424,224,29640,2,0,B|360:240|312:312,1,140,0|2
240,328,30140,1,0
168,312,30306,6,0,B|88:304,1,70
64,232,30640,2,0,B|144:240,1,70
176,176,30973,2,0,B|104:168,1,70
56,104,31306,2,0,B|128:56,1,70
192,64,31640,5,4
272,64,31806,1,0
344,96,31973,1,4
400,144,32140,1,0
448,208,32306,2,0,B|376:224,1,70,4|0
424,288,32640,2,0,B|344:304,1,70,4|0
280,296,32973,5,4
200,296,33140,1,0
128,264,33306,1,4
72,216,33473,1,0
24,152,33640,2,4,B|96:136,1,70,4|0
48,72,33973,2,4,B|128:56,1,70,4|0
192,48,34306,1,6
64,112,54306,5,0
200,96,54528,1,0
336,80,54750,1,0
440,176,54972,1,0
304,200,55194,1,0
168,216,55417,1,0
32,312,55639,6,0,B|80:304,3,35,4|0|0|0
98,306,55972,2,0,B|152:304,3,35,2|0|0|0
168,304,56306,1,0
208,304,56389,1,0
248,312,56472,1,0
288,328,56556,1,0
320,344,56639,1,2
376,296,56806,1,0
448,240,56972,6,0,B|400:232,3,35
381,227,57306,2,0,B|327:224,3,35,2|0|0|0
312,224,57639,1,0
272,224,57722,1,0
232,232,57806,1,0
192,248,57889,1,0
160,264,57972,1,2
104,216,58139,1,0
64,144,58306,6,0,B|88:96,7,35,0|0|0|0|2|0|0|0
120,88,58972,2,0,B|144:24,1,70,2|0
216,56,59306,2,0,B|184:128,1,70
334,128,59639,6,0,B|264:128,1,70,2|0
392,254,59972,2,0,B|392:184,1,70
266,304,60306,2,0,B|336:304,1,70,2|0
208,178,60639,2,0,B|208:248,1,70
136,152,60972,6,0,B|104:168,3,35,2|0|0|0
72,184,61306,2,0,B|40:224,3,35
32,248,61639,1,2
32,288,61722,1,0
56,320,61806,1,0
96,336,61889,1,0
136,336,61972,1,0
216,328,62139,1,0
296,328,62306,6,0,B|352:336,3,35,2|0|0|0
368,336,62639,2,0,B|424:336,3,35
440,320,62972,1,2
472,296,63056,1,0
488,264,63139,1,0
488,224,63222,1,0
480,184,63306,1,0
448,112,63472,1,0
384,72,63639,6,0,B|344:56,3,35,2|0|0|0
312,48,63972,2,0,B|248:40,3,35
240,48,64306,1,2
200,48,64389,1,0
160,64,64472,1,0
128,88,64556,1,0
104,120,64639,1,0
96,160,64722,1,0
104,200,64806,1,0
120,240,64889,1,0
136,272,64972,5,4
216,136,65306,1,6
368,136,65639,1,4
288,272,65972,1,6
440,272,66306,5,2
448,232,66389,1,2
456,192,66472,1,0
464,152,66556,1,2
472,112,66639,1,2
400,88,66806,1,2
320,96,66972,1,2
280,96,67056,1,2
240,96,67139,1,0
200,160,67306,1,2
240,160,67389,1,2
280,160,67472,1,0
312,232,67639,6,0,B|296:304,1,70,4|0
224,328,67972,2,0,B|224:256,1,70,6|0
152,232,68306,2,0,B|136:304,1,70,4|0
64,328,68639,2,0,B|64:256,1,70,6|0
32,192,68972,5,6
56,160,69056,1,2
80,128,69139,1,0
104,96,69222,1,2
128,72,69306,1,2
176,128,69472,1,2
224,192,69639,1,2
264,184,69722,1,2
288,152,69806,1,0
296,112,69889,1,2
280,80,69972,1,2
344,40,70139,1,2
416,56,70306,5,2
384,136,70472,1,0
424,208,70639,2,0,B|416:296,1,70,6|0
344,304,70972,2,0,B|320:216,1,70,2|0
248,240,71305,2,0,B|240:328,1,70,6|0
168,296,71639,5,6
128,288,71722,1,2
96,272,71805,1,0
64,248,71889,1,2
48,216,71972,1,2
64,144,72139,1,2
136,120,72305,1,2
176,112,72389,1,0
216,104,72472,1,0
256,96,72555,1,2
296,88,72639,1,2
360,136,72805,1,2
416,192,72972,6,0,B|480:240,1,70,4|0
400,264,73305,2,0,B|432:336,1,70,6|0
352,328,73639,2,4,B|288:376,1,70
288,296,73972,2,0,B|208:288,1,70,6|0
144,264,74305,5,2
120,232,74389,1,2
96,200,74472,1,0
72,168,74555,1,2
48,136,74639,1,2
112,96,74805,1,0
184,112,74972,1,2
192,152,75055,1,2
208,184,75139,1,0
248,200,75222,1,2
288,200,75305,1,2
352,160,75472,1,0
416,208,75639,6,0,B|384:280,1,70,4|0
320,312,75972,2,0,B|232:312,1,70,6|0
184,272,76305,2,0,B|152:200,1,70,4|0
88,168,76639,2,0,B|0:168,1,70,6|0
40,96,76972,5,2
40,96,77055,1,0
40,96,77139,1,2
40,96,77222,1,0
40,96,77305,1,0
40,96,77389,1,0
40,96,77472,1,0
184,48,77639,1,2
184,48,77722,1,0
184,48,77805,1,2
184,48,77889,1,0
184,48,77972,1,0
184,48,78055,1,0
184,48,78139,1,0
336,88,78305,5,2
336,88,78389,1,0
336,88,78472,1,2
336,88,78555,1,0
336,88,78639,1,0
336,88,78722,1,0
336,88,78805,1,0
352,240,78972,1,2
352,240,79055,1,0
352,240,79139,1,2
352,240,79222,1,0
352,240,79305,1,0
352,240,79389,1,0
352,240,79472,1,0
224,328,79639,6,0,B|208:296,1,35
176,312,79805,2,0,B|176:264,1,35
136,288,79972,2,0,B|152:240,1,35,2|0
112,248,80139,2,0,B|144:216,1,35
104,200,80305,2,0,B|144:184,1,35
112,152,80472,2,0,B|152:160,1,35
136,120,80639,2,0,B|176:144,1,35,2|0
184,104,80805,2,0,B|208:136,1,35
240,136,80972,5,2
280,144,81055,1,0
320,152,81139,1,2
360,160,81222,1,0
400,168,81305,1,4
416,240,81472,1,2
424,320,81639,1,2
384,312,81722,1,0
344,304,81805,1,2
304,296,81889,1,0
264,288,81972,1,4
192,272,82139,1,4
120,256,82305,6,0,B|96:224,2,35,4|0|0
152,184,82639,2,0,B|144:144,2,35,2|0|0
216,144,82972,2,0,B|240:112,2,35
296,152,83305,2,0,B|352:152,2,35,2|0|0
336,216,83639,5,0
352,288,83805,1,0
280,304,83972,1,2
264,232,84139,1,0
208,280,84305,1,0
168,288,84389,1,0
128,280,84472,1,0
96,256,84555,1,0
80,216,84639,1,2
80,136,84805,1,0
136,80,84972,6,0,B|176:72,7,35,0|0|0|0|2|0|0|0
208,64,85639,1,0
248,64,85722,1,0
288,72,85805,1,0
328,80,85889,1,0
360,96,85972,1,2
392,112,86055,1,0
424,136,86139,1,0
448,160,86222,1,0
456,200,86305,6,0,B|456:240,2,35
384,280,86639,2,0,B|368:312,2,35,2|0|0
288,320,86972,2,0,B|248:352,2,35
184,336,87305,2,0,B|152:352,2,35,2|0|0
272,256,87639,5,0
248,280,87722,1,0
216,296,87805,1,0
176,304,87889,1,0
136,304,87972,1,2
96,296,88055,1,0
64,272,88139,1,0
48,240,88222,1,0
40,200,88305,2,0,B|40:152,6,35,0|0|0|0|2|0|0
96,80,88972,5,2
136,80,89055,1,0
176,88,89139,1,0
208,104,89222,1,0
232,136,89305,1,0
256,168,89389,1,0
288,192,89472,1,0
320,208,89555,1,0
360,216,89639,2,0,B|400:224,6,35,2|0|0|0|0|0|0
424,104,90305,6,0,B|368:112,3,35,2|0|0|0
352,112,90639,2,0,B|304:128,3,35
280,136,90972,2,0,B|240:160,3,35,2|0|0|0
216,176,91305,2,0,B|192:216,3,35
184,240,91639,6,0,B|144:264,1,35,2|0
120,280,91805,2,0,B|80:272,1,35
56,256,91972,2,0,B|40:216,1,35
48,184,92139,2,0,B|80:160,1,35
104,136,92305,2,0,B|112:88,3,35,2|0|0|0
152,96,92639,2,0,B|184:72,2,35
368,48,92972,6,0,B|392:88,1,35,2|0
424,88,93139,2,0,B|424:136,1,35
424,160,93305,2,0,B|400:192,1,35
376,216,93472,2,0,B|328:224,1,35
312,248,93639,2,0,B|264:288,3,35,2|0|0|0
256,288,93972,2,0,B|200:288,1,35
184,296,94139,2,0,B|136:304,1,35
112,304,94305,6,0,B|80:280,3,35,2|0|0|0
64,248,94639,2,0,B|64:200,3,35
64,176,94972,1,2
88,144,95055,1,0
120,120,95139,1,0
152,104,95222,1,0
192,96,95305,1,0
232,96,95389,1,0
272,104,95472,1,0
312,112,95555,1,0
352,128,95639,1,2
256,192,95722,12,0,98305
176,192,98639,5,4
336,192,98972,1,4
148,139,99305,1,4
363,244,99639,1,4
182,97,99972,5,4
329,286,100305,1,4
218,15,100639,1,4
293,368,100972,1,4
128,304,101305,6,0,B|208:304,3,70,4|0|0|4
392,232,101972,2,0,B|312:232,3,70,4|0|0|0
128,152,102639,2,4,B|208:152,3,70
392,80,103305,2,4,B|312:80,3,70
256,192,103972,12,0,105639
256,192,105805,6,4,B|256:120,2,70
256,192,106305,12,0,108305
256,192,108472,6,4,B|256:264,2,70
192,296,108972,5,0
160,280,109055,1,0
128,264,109139,1,0
112,192,109305,2,0,B|112:120,1,70,2|0
176,80,109639,5,0
208,96,109722,1,0
240,112,109805,1,0
256,184,109972,2,0,B|256:256,1,70,2|0
320,296,110305,5,0
352,280,110389,1,0
384,264,110472,1,0
400,192,110639,2,0,B|400:120,1,70,2|0
336,80,110972,5,0
304,96,111055,1,0
272,112,111139,1,0
256,184,111305,2,0,B|256:256,1,70,2|0
152,344,111639,6,0,B|72:344,1,70
32,272,111972,2,0,B|104:272,1,70,2|0
168,184,112305,2,0,B|88:184,1,70
48,72,112639,2,0,B|128:72,1,70,2|0
360,40,112972,6,0,B|440:40,1,70
480,112,113305,2,0,B|408:112,1,70,2|0
344,200,113639,2,0,B|424:200,1,70
464,312,113972,2,0,B|384:312,1,70,2|0
256,312,114305,6,0,B|216:312,1,35
192,312,114472,2,0,B|144:312,1,35,2|0
256,280,114639,2,0,B|216:280,1,35,0|0
192,280,114805,2,0,B|144:280,1,35,2|0
256,256,114972,6,0,B|216:256,1,35,0|0
192,256,115139,2,0,B|144:256,1,35,2|0
256,224,115305,2,0,B|216:224,1,35,0|0
192,224,115472,2,0,B|144:224,1,35,2|0
128,224,115639,5,4
96,208,115722,1,0
64,184,115805,1,2
56,144,115889,1,0
64,104,115972,1,4
88,72,116055,1,0
128,64,116139,1,2
168,72,116222,1,0
200,96,116305,5,4
232,120,116389,1,0
264,136,116472,1,6
304,144,116555,1,0
344,136,116639,1,4
384,120,116722,1,0
416,96,116805,1,6
440,64,116889,1,0
464,32,116972,1,4
384,304,117972,6,0,B|328:248,1,70
264,312,118639,2,0,B|208:256,1,70
264,200,119305,1,0
192,184,119639,2,0,B|48:160,1,140
80,312,120972,2,0,B|160:344|216:280,1,140
160,104,122305,5,0
232,128,122972,1,0
304,104,123639,1,0
376,120,124305,1,0
408,144,124639,1,0
440,168,124972,2,0,B|440:320,1,140
296,264,126305,2,0,B|296:120,1,140
424,208,127639,6,0,B|288:16|40:104,1,420
