osu file format v9

[General]
AudioFilename: fi.mp3
AudioLeadIn: 0
PreviewTime: 82315
Countdown: 0
SampleSet: Soft
StackLeniency: 0.6
Mode: 1
LetterboxInBreaks: 0

[Editor]
Bookmarks: 8738,19404,30071,35404,39404,42436,43428,56738,67404,78071,83404,96734,99401,104738,118071
DistanceSpacing: 0.8
BeatDivisor: 4
GridSize: 8

[Metadata]
Title:F.I
Artist:44teru-k
Creator:AngelHoney
Version:lepidon! - Taiko Oni
Source:BMS
Tags:Frederic Chopin holic 44teru-k respect for Chopin O2jam Classical fantasie impromptu mix Ultimate Fantasy Electro Fantasy OST gow3 gowww lepidopodus

[Difficulty]
HPDrainRate:5
CircleSize:5
OverallDifficulty:6
ApproachRate:5
SliderMultiplier:1.4
SliderTickRate:1

[Events]
//Background and Video events
0,0,"11572606.jpg"
//Break Periods
//Storyboard Layer 0 (Background)
//Storyboard Layer 1 (Fail)
//Storyboard Layer 2 (Pass)
//Storyboard Layer 3 (Foreground)
Sprite,Foreground,Centre,"11390062 (800x600).jpg",320,240 S,0,34306,,0.8 F,0,34306,38336,0,1 F,0,54322,55644,1,0
//Storyboard Sound Samples
//Background Colour Transformations
3,100,0,0,0

[TimingPoints]
973,333.333333333333,4,2,1,90,1,0
34306,500,4,2,1,90,1,0
34306,-66.6666666666667,4,2,1,90,0,0
35306,-100,4,2,1,45,0,0
54181,-100,4,2,1,75,0,0
54306,333.333333333333,4,2,1,75,1,0
54306,-125,4,2,1,75,0,0
55528,-100,4,2,1,90,0,0
98639,-100,4,2,1,90,0,1
116972,669.642857142857,4,2,1,90,1,0
116972,-50,4,2,1,90,0,0
117222,-80,4,2,1,60,0,0

[Colours]
Combo1 : 255,255,128
Combo2 : 255,0,0
Combo3 : 128,255,128
Combo4 : 255,128,64

[HitObjects]
248,192,2306,1,4
359,178,2639,1,8
370,289,2972,1,8
257,288,3306,1,8
181,251,3639,1,8
271,185,3972,1,8
337,94,4306,1,8
352,176,4639,1,8
240,165,4972,1,0
352,171,5306,1,8
335,281,5639,1,8
223,278,5972,1,8
174,176,6306,1,8
283,153,6639,1,8
362,232,6972,1,8
251,213,7306,1,8
201,114,7639,5,4
229,116,7806,1,8
256,121,7889,1,0
283,127,7972,1,0
310,133,8056,1,0
337,135,8139,1,8
364,136,8222,1,8
391,142,8306,1,0
417,149,8389,1,8
443,157,8472,1,0
466,173,8556,1,8
462,200,8639,1,0
447,223,8722,1,0
418,224,8806,1,8
393,237,8889,1,8
365,241,8972,1,0
229,116,9139,1,8
256,121,9222,1,0
283,127,9305,1,0
310,133,9389,1,0
337,135,9472,1,8
364,136,9555,1,8
391,142,9639,1,0
417,149,9722,1,8
443,157,9805,1,0
466,173,9889,1,8
462,200,9972,1,0
447,223,10055,1,0
418,224,10139,1,8
393,237,10222,1,8
365,241,10305,1,0
308,237,10472,1,0
279,236,10556,1,0
254,222,10639,1,8
227,212,10722,1,8
219,184,10806,1,0
196,167,10889,1,0
217,149,10972,1,8
242,136,11056,1,8
267,125,11139,1,8
293,116,11222,1,8
320,119,11306,1,0
347,123,11389,1,0
466,173,11472,1,0
466,173,11556,1,0
441,185,11639,1,8
450,158,11722,1,8
427,174,11806,1,0
411,197,11889,1,0
403,223,11972,1,8
398,195,12056,1,8
373,207,12139,1,0
346,215,12222,1,0
318,207,12306,1,8
341,192,12389,1,8
366,203,12472,1,0
383,224,12556,1,0
373,250,12639,1,0
466,173,12722,1,8
440,184,12806,1,0
441,185,12972,5,0
229,116,13139,1,8
256,121,13222,1,0
283,127,13305,1,0
310,133,13389,1,0
337,135,13472,1,8
364,136,13555,1,8
391,142,13639,1,0
417,149,13722,1,8
443,157,13805,1,0
466,173,13889,1,8
462,200,13972,1,0
447,223,14055,1,0
418,224,14139,1,8
393,237,14222,1,8
365,241,14305,1,0
229,116,14472,1,8
256,121,14555,1,0
283,127,14638,1,0
310,133,14722,1,0
337,135,14805,1,8
364,136,14888,1,8
391,142,14972,1,0
417,149,15055,1,8
443,157,15138,1,0
466,173,15222,1,8
462,200,15305,1,0
447,223,15388,1,0
418,224,15472,1,8
393,237,15555,1,8
365,241,15638,1,0
312,224,15806,1,8
288,240,15889,1,0
264,256,15972,1,0
256,232,16056,1,8
248,208,16139,1,0
256,184,16222,1,0
280,168,16306,1,0
304,160,16389,1,8
328,152,16472,1,0
352,144,16556,1,0
376,144,16639,1,0
400,136,16722,1,8
424,152,16806,1,0
384,112,16972,1,4
384,96,17139,1,8
408,112,17222,1,0
424,136,17306,1,0
424,160,17389,1,0
448,176,17472,1,8
448,208,17556,1,0
432,232,17639,1,0
408,248,17722,1,0
392,224,17806,1,8
368,216,17889,1,0
344,216,17972,1,0
328,152,18056,1,8
392,224,18139,1,0
344,256,18306,5,4
288,240,18472,1,8
272,216,18556,1,0
248,200,18639,1,0
424,136,18806,1,8
448,176,18889,1,0
448,208,18972,1,0
448,152,19139,1,8
448,208,19222,1,0
424,224,19306,1,0
400,240,19389,1,0
400,216,19472,1,8
360,176,19639,1,4
376,120,19806,1,8
424,96,19972,1,4
448,152,20139,1,8
448,152,20306,1,4
392,168,20472,1,0
368,176,20556,1,0
344,192,20639,1,8
304,232,20806,1,8
272,184,20972,1,4
320,160,21139,1,8
344,168,21222,1,0
368,184,21306,1,0
424,176,21472,1,8
440,200,21556,1,0
448,224,21639,1,0
448,152,21806,1,8
456,176,21889,1,0
440,200,21972,1,0
448,224,22056,1,0
424,176,22139,1,8
376,144,22306,1,4
408,96,22472,1,8
440,136,22639,1,4
456,176,22806,1,8
448,152,22972,1,4
392,168,23139,1,0
368,176,23222,1,0
368,208,23306,1,8
344,256,23639,5,4
288,240,23805,1,8
272,216,23889,1,0
248,200,23972,1,0
424,136,24139,1,8
448,176,24222,1,0
448,208,24305,1,0
448,152,24472,1,8
448,208,24555,1,0
424,224,24639,1,0
400,240,24722,1,0
400,216,24805,1,8
360,176,24972,1,4
376,120,25139,1,8
424,96,25305,1,4
448,152,25472,1,8
448,152,25639,1,4
392,168,25805,1,0
368,176,25889,1,0
344,192,25972,1,8
288,184,26139,1,8
320,136,26306,1,0
344,128,26389,1,8
368,136,26472,1,0
424,152,26639,1,8
448,168,26722,1,0
472,184,26806,1,8
448,232,26972,1,0
416,232,27056,1,8
392,248,27139,1,0
336,232,27306,1,8
320,248,27389,1,0
344,256,27472,1,8
288,240,27639,1,4
240,216,27806,1,0
264,208,27889,1,8
288,200,27972,1,0
256,200,28056,1,0
464,144,28139,1,8
440,96,28306,1,4
392,128,28472,1,8
448,232,28556,1,0
432,168,28639,1,0
424,192,28722,1,0
408,160,28806,1,8
352,152,28972,5,0
352,120,29056,1,8
376,120,29139,1,0
432,104,29306,1,8
448,128,29389,1,0
464,152,29472,1,8
448,208,29639,1,0
464,184,29722,1,8
464,184,29806,1,0
408,192,29972,1,8
376,192,30056,1,0
352,208,30139,1,8
312,176,30306,1,4
360,152,30472,1,0
376,128,30556,1,8
464,152,30639,1,0
440,152,30722,1,0
408,152,30806,1,8
352,136,30972,1,4
400,104,31139,1,8
408,128,31222,1,0
408,192,31306,1,0
408,192,31389,1,0
424,216,31472,1,8
304,232,31639,1,4
464,152,31806,1,0
448,176,31889,1,0
472,168,31972,1,8
448,176,32139,1,0
424,192,32222,1,0
472,168,32306,1,8
448,176,32472,1,0
424,192,32556,1,0
472,168,32639,1,8
440,216,32806,1,0
424,232,32889,1,0
128,208,32972,1,8
152,224,33056,1,0
176,232,33139,1,0
200,240,33222,1,0
224,248,33306,1,8
248,248,33389,1,0
272,248,33472,1,0
296,240,33556,1,0
320,224,33639,1,8
336,208,33722,1,0
344,184,33806,1,0
336,160,33889,1,0
312,144,33972,1,8
280,144,34056,1,0
256,144,34139,1,0
272,112,34306,5,4
216,264,38306,1,0
384,296,39306,1,0
368,240,39556,1,0
384,184,39806,1,8
392,128,40056,1,8
392,184,40306,1,0
168,200,41306,1,8
392,232,42306,1,8
336,240,42806,1,8
368,192,43306,1,0
384,80,43806,1,8
424,200,44056,1,0
368,208,44306,5,0
144,224,45306,1,0
352,256,47306,1,0
328,248,47556,1,0
352,200,47806,1,8
360,144,48056,1,8
408,176,48306,1,0
336,264,48806,1,0
392,168,49306,1,8
280,176,49806,1,0
264,288,50306,1,0
328,72,51306,1,8
320,240,52056,1,8
312,296,52306,1,8
192,224,54306,1,0
224,176,54528,1,0
280,168,54750,1,8
336,160,54972,1,8
376,200,55194,1,0
384,256,55417,1,0
320,296,55639,5,4
229,116,55806,1,8
256,121,55889,1,0
283,127,55972,1,0
310,133,56056,1,0
337,135,56139,1,8
364,136,56222,1,8
391,142,56306,1,0
417,149,56389,1,8
443,157,56472,1,0
466,173,56556,1,8
462,200,56639,1,0
447,223,56722,1,0
418,224,56806,1,8
393,237,56889,1,8
365,241,56972,1,0
229,116,57139,1,8
256,121,57222,1,0
283,127,57305,1,0
310,133,57389,1,0
337,135,57472,1,8
364,136,57555,1,8
391,142,57639,1,0
417,149,57722,1,8
443,157,57805,1,0
466,173,57889,1,8
462,200,57972,1,0
447,223,58055,1,0
418,224,58139,1,8
393,237,58222,1,8
365,241,58305,1,0
308,237,58472,1,0
279,236,58556,1,0
254,222,58639,1,8
227,212,58722,1,8
219,184,58806,1,0
196,167,58889,1,0
217,149,58972,1,8
242,136,59056,1,8
267,125,59139,1,8
293,116,59222,1,8
320,119,59306,1,0
347,123,59389,1,0
466,173,59472,1,0
466,173,59556,1,0
441,185,59639,1,8
450,158,59722,1,8
427,174,59806,1,0
411,197,59889,1,0
403,223,59972,1,8
398,195,60056,1,8
373,207,60139,1,0
346,215,60222,1,0
318,207,60306,1,8
341,192,60389,1,8
366,203,60472,1,0
383,224,60556,1,0
373,250,60639,1,0
466,173,60722,1,8
440,184,60806,1,0
441,185,60972,5,0
229,116,61139,1,8
256,121,61222,1,0
283,127,61305,1,0
310,133,61389,1,0
337,135,61472,1,8
364,136,61555,1,8
391,142,61639,1,0
417,149,61722,1,8
443,157,61805,1,0
466,173,61889,1,8
462,200,61972,1,0
447,223,62055,1,0
418,224,62139,1,8
393,237,62222,1,8
365,241,62305,1,0
229,116,62472,1,8
256,121,62555,1,0
283,127,62638,1,0
310,133,62722,1,0
337,135,62805,1,8
364,136,62888,1,8
391,142,62972,1,0
417,149,63055,1,8
443,157,63138,1,0
466,173,63222,1,8
462,200,63305,1,0
447,223,63388,1,0
418,224,63472,1,8
393,237,63555,1,8
365,241,63638,1,0
312,224,63806,1,8
288,240,63889,1,0
264,256,63972,1,0
256,232,64056,1,8
248,208,64139,1,0
256,184,64222,1,0
280,168,64306,1,0
304,160,64389,1,8
328,152,64472,1,0
352,144,64556,1,0
376,144,64639,1,0
400,136,64722,1,8
424,152,64806,1,0
384,112,64972,1,4
384,96,65139,1,8
408,112,65222,1,0
424,136,65306,1,0
424,160,65389,1,0
448,176,65472,1,8
448,208,65556,1,0
432,232,65639,1,0
408,248,65722,1,0
392,224,65806,1,8
368,216,65889,1,0
344,216,65972,1,0
328,152,66056,1,8
392,224,66139,1,0
336,208,66305,5,8
312,200,66389,1,8
368,136,66639,1,0
384,96,66722,1,0
448,152,66972,1,8
448,176,67055,1,8
344,216,67305,1,0
416,280,67389,1,0
336,272,67639,1,0
312,264,67722,1,0
304,240,67805,1,8
344,200,67972,1,0
368,184,68055,1,0
392,168,68139,1,8
440,136,68305,1,0
416,120,68389,1,0
440,112,68472,1,8
456,136,68555,1,0
456,168,68639,1,0
456,192,68722,1,0
432,176,68805,1,8
384,144,68972,1,8
360,136,69055,1,8
384,184,69305,1,0
368,208,69389,1,0
296,160,69639,1,8
272,176,69722,1,8
320,240,69972,1,0
320,264,70055,1,0
240,232,70305,1,0
216,216,70389,1,0
240,200,70472,1,8
296,184,70639,1,0
320,184,70722,1,0
344,176,70805,1,8
400,168,70972,1,0
424,168,71055,1,8
456,168,71139,1,0
456,192,71222,1,0
464,168,71305,1,8
448,144,71389,1,0
448,120,71472,1,8
392,136,71639,5,8
368,144,71722,1,8
360,224,71972,1,0
352,248,72055,1,0
424,296,72305,1,8
448,304,72389,1,8
368,288,72639,1,0
344,288,72722,1,0
280,232,72972,1,0
256,216,73055,1,0
368,144,73139,1,8
424,160,73305,1,0
440,176,73389,1,0
456,152,73472,1,8
416,112,73639,1,0
392,104,73722,1,0
376,128,73805,1,8
392,152,73889,1,0
392,176,73972,1,0
392,200,74055,1,0
416,208,74139,1,8
424,264,74305,5,8
408,288,74389,1,8
384,280,74472,1,0
336,248,74639,1,8
312,232,74722,1,8
304,208,74805,1,0
296,152,74972,1,8
272,136,75055,1,8
304,136,75139,1,0
328,136,75222,1,8
352,136,75305,1,8
376,144,75389,1,8
400,152,75472,1,0
416,96,75639,1,12
464,128,75805,1,8
472,152,75889,1,0
464,176,75972,1,8
456,200,76055,1,8
440,224,76139,1,0
392,200,76305,1,12
336,184,76472,1,0
360,168,76555,1,8
392,168,76639,1,8
392,168,76722,1,8
456,200,76805,1,0
400,192,76972,1,12
344,184,77139,1,0
464,176,77222,1,8
440,224,77305,1,0
344,192,77472,1,0
320,192,77555,1,0
312,216,77638,1,8
344,192,77805,1,0
320,192,77888,1,8
296,208,77972,1,0
344,192,78139,1,0
320,192,78222,1,0
312,216,78305,1,8
352,248,78472,1,0
376,232,78555,1,8
400,224,78639,1,0
400,168,78805,1,0
384,144,78889,1,0
408,152,78972,1,8
384,168,79055,1,8
408,176,79139,1,0
432,168,79222,1,8
448,192,79305,1,0
440,248,79472,1,0
416,240,79555,1,0
392,224,79639,1,8
368,216,79722,1,0
344,208,79805,1,0
320,200,79889,1,0
336,176,79972,1,8
352,152,80055,1,0
352,152,80139,1,0
352,152,80222,1,0
376,152,80305,1,8
400,160,80389,1,0
448,192,80472,1,0
432,168,80555,1,0
464,168,80639,1,8
440,184,80722,1,0
392,224,80805,1,0
416,168,80972,1,12
432,168,81139,1,0
464,168,81305,1,12
496,168,81472,1,0
400,160,81639,1,12
400,160,81805,1,0
344,160,81972,1,12
288,256,82305,5,4
229,116,82472,1,8
256,121,82555,1,0
283,127,82638,1,0
310,133,82722,1,0
337,135,82805,1,8
364,136,82888,1,8
391,142,82972,1,0
417,149,83055,1,8
443,157,83138,1,0
466,173,83222,1,8
462,200,83305,1,0
447,223,83388,1,0
418,224,83472,1,8
393,237,83555,1,8
365,241,83638,1,0
229,116,83805,1,8
256,121,83888,1,0
283,127,83971,1,0
310,133,84055,1,0
337,135,84138,1,8
364,136,84221,1,8
391,142,84305,1,0
417,149,84388,1,8
443,157,84471,1,0
466,173,84555,1,8
462,200,84638,1,0
447,223,84721,1,0
418,224,84805,1,8
393,237,84888,1,8
365,241,84971,1,0
308,237,85138,1,0
279,236,85222,1,0
254,222,85305,1,8
227,212,85388,1,8
219,184,85472,1,0
196,167,85555,1,0
217,149,85638,1,8
242,136,85722,1,8
267,125,85805,1,8
293,116,85888,1,8
320,119,85972,1,0
347,123,86055,1,0
466,173,86138,1,0
466,173,86222,1,0
441,185,86305,1,8
450,158,86388,1,8
427,174,86472,1,0
411,197,86555,1,0
403,223,86638,1,8
398,195,86722,1,8
373,207,86805,1,0
346,215,86888,1,0
318,207,86972,1,8
341,192,87055,1,8
366,203,87138,1,0
383,224,87222,1,0
373,250,87305,1,0
466,173,87388,1,8
440,184,87472,1,0
384,184,87639,5,0
229,116,87805,1,8
256,121,87888,1,0
283,127,87971,1,0
310,133,88055,1,0
337,135,88138,1,8
364,136,88221,1,8
391,142,88305,1,0
417,149,88388,1,8
443,157,88471,1,0
466,173,88555,1,8
462,200,88638,1,0
447,223,88721,1,0
418,224,88805,1,8
393,237,88888,1,8
365,241,88971,1,0
312,256,89139,1,8
288,264,89222,1,8
264,280,89305,1,0
240,288,89389,1,0
224,264,89472,1,8
200,256,89555,1,8
224,240,89639,1,0
248,224,89722,1,8
272,216,89805,1,0
296,208,89889,1,8
320,200,89972,1,0
344,192,90055,1,0
368,184,90139,1,8
392,168,90222,1,8
368,168,90305,1,8
440,160,90472,1,8
440,160,90555,1,8
416,248,90639,1,0
392,264,90722,1,0
384,240,90805,1,8
376,216,90889,1,8
416,160,90972,1,0
440,160,91055,1,8
464,168,91139,1,0
488,168,91222,1,8
464,160,91305,1,0
440,152,91389,1,0
440,128,91472,1,8
416,120,91555,1,8
418,224,91639,1,0
392,216,91722,1,8
368,216,91805,1,0
344,200,91889,1,8
320,184,91972,1,0
296,184,92055,1,0
320,176,92139,1,8
304,152,92222,1,8
328,152,92305,1,0
336,128,92389,1,8
360,120,92472,1,0
440,152,92555,1,8
440,184,92639,1,0
432,208,92722,1,0
408,224,92805,1,8
384,240,92889,1,8
360,256,92972,5,0
304,240,93139,1,0
280,232,93222,1,0
256,224,93305,1,0
264,200,93389,1,8
272,176,93472,1,8
280,152,93555,1,8
304,144,93639,1,0
328,144,93722,1,8
352,144,93805,1,8
384,144,93889,1,8
408,152,93972,1,0
432,160,94055,1,8
456,168,94139,1,0
480,176,94222,1,8
472,200,94305,1,0
304,240,94472,1,0
280,232,94555,1,0
256,224,94638,1,0
264,200,94722,1,8
272,176,94805,1,8
280,152,94888,1,8
304,144,94972,1,0
328,144,95055,1,8
352,144,95138,1,8
384,144,95222,1,8
408,152,95305,1,0
432,160,95388,1,8
456,168,95472,1,0
472,200,95638,1,4
280,320,96305,1,12
272,160,98305,5,4
384,160,98639,1,8
408,168,98722,1,0
432,168,98805,1,8
472,128,98972,1,8
472,152,99055,1,0
472,184,99139,1,8
448,232,99305,1,8
432,168,99389,1,0
416,184,99472,1,8
384,160,99639,1,8
408,168,99722,1,0
432,168,99805,1,8
472,128,99972,1,8
472,152,100055,1,0
472,184,100139,1,8
448,232,100305,1,8
432,168,100389,1,0
416,184,100472,1,8
384,160,100639,1,8
408,168,100722,1,0
432,184,100805,1,8
384,160,100972,1,8
408,168,101055,1,0
432,184,101138,1,8
392,224,101305,1,4
336,240,101472,1,0
312,248,101555,1,0
328,224,101639,1,8
360,176,101805,1,0
360,176,101889,1,0
336,176,101972,1,0
280,168,102139,1,0
256,160,102222,1,0
280,152,102305,1,8
336,152,102472,1,0
360,152,102555,1,0
384,160,102639,1,0
392,216,102805,1,0
392,248,102889,1,0
416,232,102972,1,8
424,176,103139,1,0
440,152,103222,1,0
464,144,103305,1,8
440,144,103389,1,0
424,168,103472,1,8
440,128,103639,5,4
256,160,103805,1,0
224,160,103889,1,0
248,152,103972,1,8
272,160,104055,1,0
424,176,104139,1,8
376,152,104305,1,0
376,152,104389,1,0
400,136,104472,1,8
440,152,104555,1,0
440,184,104639,1,0
440,184,104722,1,0
400,136,104805,1,8
352,160,104972,1,0
328,168,105055,1,0
424,176,105139,1,8
408,232,105305,1,0
392,256,105389,1,0
392,232,105472,1,8
336,232,105639,1,0
312,240,105722,1,0
288,240,105805,1,0
376,152,105889,1,8
424,176,105972,1,0
400,192,106055,1,0
400,192,106139,1,0
440,128,106305,1,4
256,160,106471,1,0
224,160,106555,1,0
248,152,106638,1,8
272,160,106721,1,0
424,176,106805,1,8
376,152,106971,1,0
376,152,107055,1,0
400,136,107138,1,8
440,152,107221,1,0
440,184,107305,1,0
440,184,107388,1,0
400,136,107471,1,8
352,160,107638,1,0
328,168,107721,1,0
424,176,107805,1,8
408,232,107971,1,0
392,256,108055,1,0
392,232,108138,1,8
336,232,108305,1,0
312,240,108388,1,0
288,240,108471,1,0
376,152,108555,1,8
424,176,108638,1,0
400,192,108721,1,0
400,192,108805,1,0
352,160,108972,5,4
296,144,109139,1,0
272,144,109222,1,0
248,144,109305,1,0
304,136,109472,1,8
328,136,109555,1,0
312,128,109639,1,0
360,200,109805,1,0
360,232,109889,1,8
360,256,109972,1,0
400,216,110139,1,8
424,176,110222,1,0
400,168,110305,1,0
296,144,110472,1,0
272,144,110555,1,0
248,144,110638,1,0
304,136,110805,1,8
328,136,110888,1,0
352,144,110972,1,0
360,200,111138,1,0
360,232,111222,1,8
360,256,111305,1,0
336,248,111389,1,0
400,216,111472,1,8
376,168,111639,1,4
432,152,111805,1,8
456,160,111889,1,0
456,184,111972,1,0
432,152,112139,1,8
456,160,112223,1,0
456,184,112306,1,0
432,152,112472,1,8
456,160,112556,1,0
456,184,112639,1,0
432,184,112722,1,0
432,152,112805,1,8
376,168,112972,1,4
432,152,113138,1,8
456,160,113222,1,0
456,184,113305,1,0
432,152,113472,1,8
456,160,113556,1,0
456,184,113639,1,0
432,152,113805,1,8
456,160,113889,1,0
456,184,113972,1,0
432,184,114055,1,0
432,152,114138,1,8
384,176,114305,5,0
360,184,114389,1,0
352,208,114472,1,8
368,232,114555,1,0
368,264,114639,1,0
384,288,114722,1,0
400,264,114805,1,8
376,256,114889,1,0
352,248,114972,1,0
328,240,115055,1,0
336,216,115139,1,8
336,192,115222,1,8
360,184,115305,1,0
432,184,115389,1,0
456,160,115472,1,8
456,184,115555,1,8
424,184,115639,1,0
400,184,115722,1,0
400,160,115805,1,8
384,136,115889,1,0
360,128,115972,1,0
336,120,116055,1,0
360,112,116139,1,8
456,160,116222,1,0
440,184,116305,1,0
424,208,116389,1,0
376,256,116472,1,8
352,248,116555,1,8
328,232,116639,1,0
304,216,116722,1,8
304,192,116805,1,8
288,168,116972,5,4
88,272,118311,1,0
144,256,118646,1,0
200,240,118980,1,8
256,224,119315,1,8
312,208,119650,1,0
336,160,120989,1,8
304,280,122329,1,8
304,280,122998,1,8
384,168,123668,1,0
496,88,124338,1,8
464,152,124672,1,0
416,200,125007,1,0
376,240,127686,1,8
16,16,129695,1,0
72,64,130030,1,0
