osu file format v9

[General]
AudioFilename: fi.mp3
AudioLeadIn: 0
PreviewTime: 82315
Countdown: 0
SampleSet: Normal
StackLeniency: 0.6
Mode: 0
LetterboxInBreaks: 0

[Editor]
Bookmarks: 8738,19404,35404,39404,42436,43428,56738,67404,78071,83404,96734,99401,104738,118071
DistanceSpacing: 0.8
BeatDivisor: 2
GridSize: 16

[Metadata]
Title:F.I
Artist:44teru-k
Creator:AngelHoney
Version:Easy
Source:BMS
Tags:Frederic Chopin holic 44teru-k respect for Chopin O2jam Classical fantasie impromptu mix Ultimate Fantasy Electro Fantasy OST gow3 gowww lepidopodus

[Difficulty]
HPDrainRate:2
CircleSize:3
OverallDifficulty:1
ApproachRate:3
SliderMultiplier:1.2
SliderTickRate:1

[Events]
//Background and Video events
0,0,"11572606.jpg"
//Break Periods
2,34506,54199
//Storyboard Layer 0 (Background)
//Storyboard Layer 1 (Fail)
//Storyboard Layer 2 (Pass)
//Storyboard Layer 3 (Foreground)
Sprite,Foreground,Centre,"11390062 (800x600).jpg",320,240 S,0,34306,,0.8 F,0,34306,38336,0,1 F,0,54322,55644,1,0
//Storyboard Sound Samples
//Background Colour Transformations
3,100,0,0,0

[TimingPoints]
973,333.333333333333,4,2,1,80,1,0
3556,-100,4,2,1,85,0,0
4889,-100,4,2,1,90,0,0
6222,-100,4,2,1,95,0,0
7556,-100,4,1,1,40,0,0
34306,500,4,1,1,40,1,0
54306,333.333333333333,4,1,1,40,1,0
55556,-100,4,1,1,50,0,0
82222,-100,4,1,1,60,0,0
95556,-100,4,1,1,70,0,0
95722,-100,4,1,1,40,0,0
96306,-100,4,1,1,35,0,0
98264,-100,4,1,1,60,0,0
116972,669.642857142857,4,1,1,60,1,0

[Colours]
Combo1 : 255,255,128
Combo2 : 255,0,0
Combo3 : 128,255,128
Combo4 : 255,128,64

[HitObjects]
64,288,2306,5,0
176,192,2972,1,0
288,288,3639,1,0
384,192,4306,1,0
480,80,4972,5,0
336,48,5639,1,0
336,192,6306,1,0
192,256,6972,1,0
96,152,7639,6,0,B|64:216|0:240,2,120,4|8|0
152,224,8639,1,8
104,304,8972,2,0,B|176:304|232:352,2,120,0|8|0
152,224,9972,1,8
128,136,10306,6,0,B|256:88|368:168,1,240
432,224,11306,1,8
360,288,11639,2,0,B|232:240|120:304,1,240,0|8
48,344,12639,1,8
48,248,12972,6,0,B|0:120,1,120,0|8
176,56,13972,1,8
256,120,14306,2,0,B|224:264,1,120,0|8
448,160,15306,1,8
392,80,15639,5,0
208,88,16306,1,0
88,224,16972,1,0
248,312,17639,1,0
448,320,18306,6,0,B|528:192|448:80,2,240,4|0|0
320,192,20306,1,8
192,64,20972,6,0,B|96:192|176:304,2,240,4|0|0
352,128,22972,1,0
480,256,23639,6,0,B|384:352|256:320,2,240,4|0|0
320,176,25639,1,0
160,112,26306,6,0,B|256:16|400:72,2,240,4|0|0
72,272,28306,1,4
240,304,28972,6,0,B|368:352|480:304,1,240,4|4
384,112,30306,2,0,B|256:64|144:112,1,240,4|4
64,288,31639,2,0,B|192:336|304:288,1,240,4|4
240,112,32972,2,0,B|112:64|0:112,1,240,4|4
80,288,34306,5,4
80,208,55639,6,0,B|208:256|320:144,1,240,4|0
256,80,56639,1,8
176,112,56972,2,0,B|208:240|80:320,1,240
16,272,57972,1,8
48,184,58306,6,0,B|112:80|296:120,1,240
472,80,59639,2,0,B|512:136|504:216,1,120
408,168,60306,2,0,B|360:232|376:328,1,120,8|8
288,304,60972,5,0
200,280,61306,1,8
64,160,61972,1,8
152,128,62306,1,0
240,160,62639,1,8
416,240,63306,1,8
336,192,63639,6,0,B|288:144|264:48,1,120,0|8
360,48,64306,2,0,B|424:59|480:104,1,120,0|8
488,184,64972,1,4
456,280,65306,1,4
360,248,65639,1,4
392,152,65972,1,4
312,88,66306,5,4
192,288,67639,1,4
288,288,67972,1,12
376,256,68306,1,4
472,272,68639,1,12
488,176,68972,5,4
256,144,70306,1,4
272,240,70639,1,4
176,272,70972,1,4
96,208,71306,1,4
160,128,71639,5,4
448,136,72972,1,4
368,80,73306,1,4
280,48,73639,1,4
184,64,73972,1,4
96,112,74306,5,0
64,272,74972,1,0
224,304,75639,1,4
256,160,76306,1,4
416,192,76972,1,0
400,336,77639,1,4
224,304,78306,1,0
48,256,78972,1,4
80,112,79639,5,0
224,32,80306,1,4
368,112,80972,1,0
224,192,81639,1,4
160,320,82306,6,0,B|96:320|32:288,1,120,4|0
32,144,83306,2,0,B|96:112|160:112,1,120,8|0
240,112,83972,1,8
432,144,84639,2,0,B|384:192|384:272,1,120,8|0
384,344,85306,5,8
216,280,85972,1,8
256,192,86306,2,0,B|128:128|16:192,1,240,0|8
32,96,87306,1,8
120,48,87639,6,0,B|256:16|384:80,2,240,4|0|0
176,176,89639,1,0
160,320,90306,2,0,B|272:368|416:336,2,240
240,176,92306,1,0
376,240,92972,6,0,B|424:208|504:208,2,120,0|8|0
240,144,94306,2,0,B|184:120|96:120,2,120,0|8|0
160,304,95639,6,0,B|304:320|400:192,1,240,4|4
416,80,98306,5,0
384,160,98639,1,12
352,240,98972,1,0
320,320,99306,1,12
224,336,99639,5,0
256,256,99972,1,12
288,176,100306,1,8
320,96,100639,1,12
240,64,100972,5,0
208,144,101306,1,12
176,224,101639,1,0
144,304,101972,1,12
48,320,102306,5,0
80,240,102639,1,12
112,160,102972,1,12
144,80,103306,1,12
64,32,103639,5,4
16,128,103972,2,0,B|144:176|272:96,1,240
224,208,104972,2,0,B|336:160|480:208,1,240
496,288,105972,1,8
416,352,106306,5,4
400,256,106639,2,0,B|352:128|208:112,1,240
144,160,107639,2,0,B|256:208|384:112,1,240
432,48,108639,1,8
487,132,108972,6,0,B|359:164|231:68,1,240,4|0
176,32,109972,1,8
128,112,110306,2,0,B|160:240|48:336,1,240
150,352,111306,1,8
240,336,111639,6,0,B|384:320,1,120,4|8
320,240,112306,2,0,B|464:224,1,120,0|8
480,144,112973,2,0,B|352:128,1,120,4|8
400,48,113639,2,0,B|272:32,1,120,0|8
256,192,114306,12,4,116972
