osu file format v9

[General]
AudioFilename: Tower of Torments (Supermoon Synth Mix) - 423 Ohm.mp3
AudioLeadIn: 0
PreviewTime: 69996
Countdown: 1
SampleSet: Normal
StackLeniency: 0.7
Mode: 0
LetterboxInBreaks: 1

[Editor]
Bookmarks: 43542,43815,61269,69996,87451,96178,113087,122360,134905,157269,183451,192178,213996,235815
DistanceSpacing: 0.8
BeatDivisor: 4
GridSize: 8

[Metadata]
Title:Tower Of Torments -Supermoon Synth Mix-
Artist:423 Ohm
Creator:TheMagicianType0
Version:Nintendo
Source:The Legend Of Zelda: Haunted Majora's Mask Cartridge
Tags:423 Ohm Tower Of Torments Supermoon Synth Mix BEN Jadusable Haunted Majora Mask Cartridge Creepypasta Never Gonna Give You Up

[Difficulty]
HPDrainRate:10
CircleSize:7
OverallDifficulty:10
ApproachRate:10
SliderMultiplier:1.4
SliderTickRate:2

[Events]
//Background and Video events
0,0,"terrible fate.png"
//Break Periods
2,61469,69546
2,87651,95728
2,113287,121910
2,140015,156819
2,183651,191728
//Storyboard Layer 0 (Background)
//Storyboard Layer 1 (Fail)
//Storyboard Layer 2 (Pass)
//Storyboard Layer 3 (Foreground)
//Storyboard Sound Samples
//Background Colour Transformations
3,100,29,29,29

[TimingPoints]
8905.9203009828,545.454545454546,4,1,0,65,1,0
69996,-100,4,1,0,65,0,1
87451,-100,4,1,0,65,0,0
122360,-100,4,1,0,65,0,1
139815,-100,4,1,0,65,0,0
157269,-100,4,2,0,65,0,0
192178,-100,4,1,0,65,0,0
218360,-100,4,1,0,65,0,1
235815,-100,4,1,0,65,0,0

[Colours]
Combo1 : 64,0,128
Combo2 : 192,192,192
Combo3 : 0,64,0
Combo4 : 0,0,160

[HitObjects]
32,352,43815,1,4
144,352,44360,1,8
144,296,44633,1,8
192,328,44905,1,0
192,272,45178,1,0
240,296,45451,1,8
240,352,45724,2,0,B|464:352,1,210
448,296,46815,1,2
448,192,47360,5,8
472,144,47633,1,8
448,96,47905,1,0
400,96,48178,1,2
400,152,48451,1,0
352,152,48724,1,0
352,96,48996,1,8
376,48,49269,2,0,B|216:48,1,140
240,104,50087,1,8
272,128,50224,1,0
240,152,50360,1,8
184,176,50633,1,0
136,152,50905,1,8
104,128,51042,1,0
136,104,51178,1,8
16,104,51724,37,8
64,104,51996,1,0
40,152,52269,2,8,B|112:152,1,70
144,152,52815,1,0
120,200,53087,1,8
168,200,53360,1,0
192,152,53633,2,0,B|344:152,1,140
304,208,54451,1,8
264,224,54587,1,8
224,208,54724,1,0
240,264,54996,1,0
288,264,55269,1,0
264,304,55542,2,8,B|264:376,3,70
264,376,56633,1,0
336,376,56905,5,2
392,376,57178,1,8
448,376,57451,1,0
504,376,57724,1,0
504,320,57996,2,8,B|504:224|400:224,1,140
424,280,58815,1,0
424,336,59087,2,8,B|328:336|328:232,1,140
304,208,59905,1,0
352,208,60178,1,10
328,160,60451,2,8,B|176:160,1,140
136,160,61269,1,4
480,32,69996,5,6
480,88,70269,2,0,B|416:144|344:80,1,140
352,32,71087,2,8,B|272:32,1,70
240,72,71633,1,0
200,112,71905,1,0
160,152,72178,2,8,B|200:216|288:232,1,140
328,224,72996,1,0
320,168,73269,1,10
376,160,73542,2,0,B|472:160|472:264,1,140
472,296,74360,1,8
440,336,74633,1,8
400,296,74905,1,0
360,336,75178,2,0,B|272:336,1,70
232,336,75724,1,8
184,336,75996,1,0
208,288,76269,1,0
256,192,76815,1,4
336,120,77360,2,8,B|448:152|480:272,1,210
480,352,78724,5,6
480,296,78997,2,0,B|416:240|344:304,1,140
352,352,79815,2,8,B|272:352,1,70
240,312,80361,1,0
200,272,80633,1,0
160,232,80906,2,8,B|200:168|288:152,1,140
328,160,81724,1,0
320,216,81997,1,10
376,224,82270,2,0,B|472:224|472:120,1,140
472,88,83088,1,8
440,48,83361,1,8
400,88,83633,1,0
360,48,83906,2,0,B|272:48,1,70
232,48,84452,1,8
184,48,84724,1,0
208,96,84997,1,0
256,192,85543,1,10
176,264,86088,2,8,B|64:232|32:112,1,210
32,64,87178,5,0
80,24,87451,1,4
24,192,96178,5,4
56,144,96451,1,0
80,112,96587,1,0
104,144,96724,1,8
136,192,96996,1,0
80,208,97269,2,0,B|80:360,1,140
136,352,98087,1,8
184,352,98360,1,8
160,304,98633,1,0
208,304,98905,1,0
232,352,99178,2,8,B|464:352,1,210
496,352,100269,1,0
464,304,100542,1,10
504,264,100815,5,0
496,208,101087,1,0
440,208,101360,1,8
440,152,101633,1,8
384,152,101905,1,0
384,96,102178,2,0,B|240:96,1,140
248,152,102996,1,8
296,152,103133,1,0
272,192,103269,1,8
224,192,103542,2,0,B|144:192,1,70
112,192,104087,1,8
136,152,104360,1,8
192,144,104633,2,0,B|192:64,1,70,0|2
192,32,105178,6,0,B|280:32,1,70
312,32,105724,1,0
296,80,105996,1,8
336,120,106269,1,0
376,80,106542,1,0
360,32,106815,2,8,B|456:32,1,70
488,32,107360,1,0
448,72,107633,1,0
416,112,107905,2,0,B|328:168|352:192|240:256,1,210
224,280,108996,1,0
200,248,109269,1,8
152,248,109542,37,0
104,248,109815,1,8
56,248,110087,1,0
80,200,110360,1,8
128,200,110633,1,0
176,200,110905,1,0
152,152,111178,1,8
104,152,111451,1,8
104,104,111724,1,0
152,104,111996,1,0
128,56,112269,1,0
128,56,112542,2,8,B|184:0|288:0,1,140
16,208,122360,6,0,B|56:264|96:264|136:200,1,140,4|0
72,192,123178,1,8
72,192,123451,1,8
16,168,123724,2,0,B|56:112|96:112|136:176,1,140
184,160,124542,1,8
232,184,124815,1,8
280,208,125087,1,0
336,208,125360,2,8,B|336:304,1,70
280,280,125905,1,0
232,280,126178,1,8
256,328,126451,1,0
312,328,126724,2,0,B|472:328,1,140
456,288,127542,1,0
480,248,127678,1,8
456,264,127815,1,8
432,248,128087,1,0
376,248,128360,2,0,B|376:104,1,140
376,56,129178,1,4
432,64,129451,5,8
440,120,129724,1,0
424,176,129996,1,8
432,232,130269,1,0
464,280,130542,1,8
496,232,130815,1,8
496,176,131087,6,8,B|456:120|416:120|376:184,1,140
424,192,131905,1,0
440,192,132042,1,0
456,192,132178,1,8
496,216,132451,2,0,B|456:272|416:272|376:208,1,140
328,224,133269,1,8
280,200,133542,1,8
232,176,133814,1,0
176,176,134087,2,8,B|80:176,1,70
256,192,134905,12,4,139815
32,96,157269,21,10
72,56,157542,1,0
128,40,157815,2,8,B|168:120|120:176|80:232|128:320,1,280
176,312,159178,1,0
232,312,159451,1,8
344,312,159996,1,0
400,312,160269,1,6
320,232,160815,2,0,B|408:232|408:136,1,140
480,96,161633,1,10
440,56,161905,1,0
384,40,162179,2,8,B|344:120|392:176|432:232|384:320,1,280
336,312,163542,1,0
280,312,163815,1,8
168,312,164360,1,0
112,312,164633,1,6
192,232,165179,2,0,B|104:232|104:136,1,140
104,88,165996,5,14
128,40,166269,1,0
152,88,166542,2,8,B|312:88,1,140
344,88,167360,1,0
400,88,167633,2,8,B|472:88|472:192,1,140
416,192,168451,1,0
360,192,168724,1,0
304,192,168996,1,6
264,248,169269,1,8
304,296,169542,1,0
328,248,169815,1,8
384,248,170087,1,0
408,296,170360,37,14
384,344,170633,1,0
360,296,170906,2,8,B|200:296,1,140
168,296,171724,1,0
112,296,171997,2,8,B|40:296|40:192,1,140
96,192,172815,1,0
152,192,173088,1,0
208,192,173360,1,6
248,136,173633,1,8
208,88,173906,1,0
184,136,174179,1,8
128,136,174451,1,0
104,88,174724,5,14
104,32,174996,1,0
160,32,175269,1,8
216,32,175542,1,0
216,88,175815,2,0,B|368:88,1,140
416,88,176633,1,0
472,88,176905,1,8
496,136,177178,1,8
472,184,177451,1,0
416,184,177724,1,10
488,256,178269,1,0
440,256,178542,1,8
464,296,178815,1,0
408,296,179087,37,14
408,352,179359,1,0
352,352,179632,1,8
296,352,179905,1,0
296,296,180178,2,0,B|144:296,1,140
96,296,180996,1,0
40,296,181268,1,8
16,248,181541,1,8
40,200,181814,1,0
96,200,182087,1,10
24,128,182632,1,0
72,128,182905,1,8
48,88,183178,1,0
48,32,183451,1,14
384,352,192178,37,4
328,352,192451,1,8
328,296,192724,1,8
272,296,192996,1,0
272,240,193269,1,8
216,240,193542,2,8,B|128:240|128:152,1,140
72,152,194360,1,8
48,104,194633,1,0
96,104,194905,1,0
72,64,195178,2,0,B|80:24|352:24,1,280
392,24,196542,1,10
448,24,196815,37,0
480,64,197087,1,8
448,104,197360,1,0
448,160,197633,1,0
416,200,197905,1,8
448,240,198178,1,0
448,296,198451,2,0,B|448:368,1,70
376,328,198996,1,8
376,328,199133,1,8
376,328,199269,1,8
320,328,199542,1,8
320,328,199678,1,8
320,328,199815,1,8
264,328,200087,1,0
208,328,200360,1,4
152,328,200633,1,0
96,328,200905,1,8
40,328,201178,5,0
16,280,201451,1,0
16,224,201724,1,8
40,176,201996,1,8
96,176,202269,1,0
152,176,202542,1,0
208,176,202815,2,8,B|280:176,1,70
336,176,203360,1,0
376,136,203633,1,0
432,136,203905,2,8,B|496:184|480:288|272:304,1,280
248,304,205269,1,0
192,304,205542,5,0
160,352,205815,1,8
104,352,206087,1,0
72,304,206360,1,8
104,256,206633,1,8
160,256,206905,1,0
192,208,207178,1,0
160,160,207451,1,8
104,160,207724,1,8
72,208,207996,1,0
104,256,208269,1,8
160,256,208542,1,10
104,352,209087,21,0
160,352,209360,1,0
216,352,209633,2,0,B|384:352,1,140
440,352,210587,1,8
440,352,210724,1,8
440,296,210996,2,0,B|440:216|360:184,1,140
312,184,211815,1,8
256,184,212087,1,8
256,128,212360,1,0
312,128,212633,1,8
360,160,212905,2,0,B|504:160,1,140
256,192,213996,12,4,217815
256,352,218360,5,4
200,352,218633,2,0,B|200:272,1,70
256,280,219178,2,8,B|256:192,1,70
312,208,219724,1,0
336,248,219996,1,8
360,208,220269,1,0
336,168,220542,2,8,B|336:96,1,70
392,112,221087,1,0
392,160,221360,1,8
440,136,221633,2,0,B|488:80,1,70,0|8
480,32,222178,2,8,B|400:32,1,70
360,32,222724,1,0
384,80,222996,1,0
336,80,223269,1,0
336,136,223542,2,0,B|240:136,1,70
208,136,224087,1,0
160,136,224360,1,0
184,184,224633,1,0
304,176,225178,5,4
360,152,225451,1,8
304,128,225724,1,0
360,104,225996,1,8
304,80,226269,1,0
360,56,226542,1,0
304,32,226815,1,8
256,32,227087,5,4
200,32,227360,2,0,B|200:112,1,70
256,104,227905,2,8,B|256:192,1,70
312,176,228451,1,0
336,136,228723,1,8
360,176,228996,1,0
336,216,229269,2,8,B|336:288,1,70
392,272,229814,1,0
392,224,230087,1,8
440,248,230360,1,10
256,192,230905,12,4,235815
