osu file format v9

[General]
AudioFilename: Tower of Torments (Supermoon Synth Mix) - 423 Ohm.mp3
AudioLeadIn: 0
PreviewTime: 69996
Countdown: 1
SampleSet: Normal
StackLeniency: 0.7
Mode: 0
LetterboxInBreaks: 1

[Editor]
Bookmarks: 43542,43815,61269,69996,86905,87451,96178,113087,122360,134905,157269,183451,192178,213996,235815
DistanceSpacing: 0.8
BeatDivisor: 4
GridSize: 8

[Metadata]
Title:Tower Of Torments -Supermoon Synth Mix-
Artist:423 Ohm
Creator:TheMagicianType0
Version:Link
Source:The Legend Of Zelda: Haunted Majora's Mask Cartridge
Tags:423 Ohm Tower Of Torments Supermoon Synth Mix BEN Jadusable Haunted Majora Mask Cartridge Creepypasta Never Gonna Give You Up

[Difficulty]
HPDrainRate:1
CircleSize:3
OverallDifficulty:1
ApproachRate:0
SliderMultiplier:1.4
SliderTickRate:2

[Events]
//Background and Video events
0,0,"terrible fate.png"
//Break Periods
2,61469,68196
2,87651,94378
2,112742,120560
2,140015,155469
2,183651,190378
//Storyboard Layer 0 (Background)
//Storyboard Layer 1 (Fail)
//Storyboard Layer 2 (Pass)
//Storyboard Layer 3 (Foreground)
//Storyboard Sound Samples
//Background Colour Transformations
3,100,29,29,29

[TimingPoints]
8905.9203009828,545.454545454546,4,1,0,65,1,0
69996,-100,4,1,0,65,0,1
87451,-100,4,1,0,65,0,0
122360,-100,4,1,0,65,0,1
139815,-100,4,1,0,65,0,0
157269,-100,4,2,0,65,0,0
192178,-100,4,1,0,65,0,0
218360,-100,4,1,0,65,0,1
235815,-100,4,1,0,65,0,0

[Colours]
Combo1 : 128,128,0
Combo2 : 192,192,192
Combo3 : 0,64,0
Combo4 : 0,0,160

[HitObjects]
256,240,43815,21,4
392,288,44360,2,0,B|392:192|288:192,2,140
256,352,45996,1,8
120,288,46542,2,0,B|120:192|224:192,1,140
200,80,47633,5,0
312,80,48178,1,8
328,192,48724,2,0,B|168:192,1,140
312,304,49815,1,0
200,304,50360,1,8
184,192,50905,2,0,B|344:192,1,140
256,104,51996,5,8
256,104,52542,1,8
368,104,53087,6,0,B|432:136|432:256,1,140
328,192,54178,2,0,B|176:192,1,140
144,104,55269,2,8,B|80:136|80:256,1,140
200,224,56360,5,0
312,224,56905,1,2
392,304,57451,6,0,B|88:304,1,280
160,200,59087,1,0
256,192,59633,1,8
256,192,59905,1,8
256,192,60178,1,8
256,32,61269,5,4
480,32,69996,6,0,B|432:32|432:80|384:80|344:80,1,140,4|0
256,144,71087,1,8
168,72,71633,2,0,B|72:72|72:168,1,140,0|8
176,192,72724,2,0,B|176:288|272:288,1,140,0|8
320,192,73815,5,8
320,192,74087,1,8
320,192,74360,1,8
408,120,74905,2,0,B|440:192|416:272,1,140
328,328,75996,2,8,B|168:328,1,140
144,224,77087,1,4
64,152,77633,6,0,B|40:296,1,140
32,352,78724,22,0,B|80:352|80:304|128:304|168:304,1,140,4|0
256,240,79815,1,8
344,312,80361,2,0,B|440:312|440:216,1,140,0|8
336,192,81452,2,0,B|336:96|240:96,1,140,0|8
192,192,82543,5,8
192,192,82815,1,8
192,192,83088,1,8
104,264,83633,2,0,B|72:192|96:112,1,140
184,56,84724,2,8,B|344:56,1,140
368,160,85815,1,2
448,232,86361,6,0,B|472:88,1,140
376,32,87451,1,4
144,360,96178,5,4
256,352,96724,2,8,B|232:312|256:288|288:256|256:216,3,140
256,104,98905,1,8
256,104,99178,1,8
400,192,99996,1,8
400,192,100269,1,8
360,296,100815,5,2
312,336,101087,2,0,B|256:296|176:336,2,140
256,240,102724,1,8
256,184,102996,2,0,B|232:144|256:120|288:88|256:48,1,140,0|8
368,88,104087,1,0
368,88,104360,1,8
496,192,105178,5,8
496,192,105451,1,8
496,192,105724,1,8
440,192,105996,2,0,B|296:192,1,140
256,296,107087,1,8
152,256,107633,2,0,B|128:184|184:200|160:120,2,140
248,192,109269,5,8
344,128,109815,2,0,B|368:200|312:184|336:264,3,140
424,192,111996,1,0
424,192,112269,1,0
424,192,112542,1,2
112,192,122360,54,0,B|200:192|200:104,3,140,4|0|0|8
312,112,124542,2,0,B|312:200|400:200,3,140,2|0|0|8
456,296,126724,5,0
352,336,127269,2,8,B|280:296|200:336,1,140
112,288,128360,1,8
112,288,128633,1,8
48,192,129178,1,4
120,104,129724,6,0,B|256:48|400:104,1,280
400,192,131087,22,0,B|312:192|312:280,3,140,4|0|0|8
200,272,133269,2,0,B|200:184|112:184,2,140,0|0|8
256,192,134905,12,4,139815
40,40,157269,6,0,B|112:40|112:128|216:128|216:40|296:40,1,280,6|0
472,344,159451,2,0,B|400:344|400:256|296:256|296:344|216:344,1,280,2|0
472,40,161633,22,0,B|400:40|400:128|296:128|296:40|216:40,1,280,6|0
40,344,163815,2,0,B|112:344|112:256|216:256|216:344|296:344,1,280,2|0
104,224,165996,6,0,B|168:176|256:176,2,140,2|0|0
48,128,167633,1,8
120,48,168178,2,0,B|184:0|272:0,2,140,8|0|0
248,96,169815,1,0
408,224,170360,6,0,B|344:176|256:176,2,140,2|0|0
464,128,171997,1,8
392,48,172542,2,0,B|328:0|240:0,2,140,8|0|0
264,96,174179,1,0
176,24,174724,6,0,B|48:128|48:288|240:376,1,420,2|8
336,360,176905,2,0,B|464:256|464:96|272:8,1,420,4|8
184,40,179087,6,0,B|64:120|64:120|176:200|176:200|48:296|48:296,1,420,8|0
328,344,181269,2,0,B|448:264|448:264|336:184|336:184|464:88|464:88,1,420,8|0
256,192,183451,1,14
368,24,192178,5,4
312,32,192451,1,0
256,32,192724,2,8,B|280:72|256:96|224:128|256:168,3,140
256,280,194905,1,8
256,280,195178,1,8
112,192,195724,5,0
112,192,195996,1,8
112,192,196269,1,8
152,88,196815,5,2
200,48,197087,2,0,B|256:88|336:48,2,140
200,112,198451,1,0
256,144,198724,1,8
256,200,198996,2,0,B|280:240|256:264|224:296|256:336,1,140,0|8
144,296,200087,1,0
144,296,200360,1,8
16,192,201178,5,8
16,192,201451,1,8
16,192,201724,1,8
72,192,201996,2,0,B|216:192,1,140
232,144,202815,1,0
256,88,203087,1,8
360,128,203633,2,0,B|384:200|328:184|352:264,2,140
264,192,205269,5,8
232,240,205542,1,0
168,256,205815,2,0,B|144:184|200:200|176:120,3,140
88,192,207996,1,0
88,192,208269,1,0
88,192,208542,1,2
88,304,209087,5,0
88,304,209360,1,8
152,304,209633,2,0,B|224:232|224:152|312:64,1,280
416,96,211269,1,8
472,192,211815,2,0,B|408:248|320:192,3,140
256,192,213996,12,4,217815
256,344,218360,6,0,B|400:288,1,140,4|0
392,240,219178,1,8
256,224,219724,1,8
256,160,219996,1,8
256,40,220542,2,8,B|112:96,1,140,2|0
120,144,221360,1,4
288,144,222178,5,0
344,144,222451,1,0
400,144,222724,2,0,B|392:232|320:288,1,140
288,272,223542,1,0
224,240,224087,5,0
168,240,224360,1,0
112,240,224633,2,0,B|120:152|192:96,1,140,0|4
224,112,225451,1,2
256,40,226542,5,0
256,40,227087,2,0,B|400:96,1,140,4|0
392,144,227905,1,8
256,160,228451,1,8
256,224,228723,1,8
256,344,229269,2,8,B|112:288,1,140,2|0
120,240,230087,1,2
256,192,230905,12,4,235815
