osu file format v9

[General]
AudioFilename: Tower of Torments (Supermoon Synth Mix) - 423 Ohm.mp3
AudioLeadIn: 0
PreviewTime: 69996
Countdown: 1
SampleSet: Soft
StackLeniency: 0.7
Mode: 0
LetterboxInBreaks: 1

[Editor]
Bookmarks: 43542,43815,61269,69996,86905,87451,96178,113087,122360,134905,157269,183451,192178,213996,235815
DistanceSpacing: 0.8
BeatDivisor: 4
GridSize: 8

[Metadata]
Title:Tower Of Torments -Supermoon Synth Mix-
Artist:423 Ohm
Creator:TheMagicianType0
Version:Jadusable
Source:The Legend Of Zelda: Haunted Majora's Mask Cartridge
Tags:423 Ohm Tower Of Torments Supermoon Synth Mix BEN Jadusable Haunted Majora Mask Cartridge Creepypasta Never Gonna Give You Up

[Difficulty]
HPDrainRate:2
CircleSize:4
OverallDifficulty:3
ApproachRate:4
SliderMultiplier:1.4
SliderTickRate:2

[Events]
//Background and Video events
0,0,"terrible fate.png"
//Break Periods
2,61469,68676
2,87651,94858
2,113287,121040
2,140015,155949
2,183651,190858
//Storyboard Layer 0 (Background)
//Storyboard Layer 1 (Fail)
//Storyboard Layer 2 (Pass)
//Storyboard Layer 3 (Foreground)
//Storyboard Sound Samples
//Background Colour Transformations
3,100,29,29,29

[TimingPoints]
8905.9203009828,545.454545454546,4,1,0,65,1,0
69996,-100,4,1,0,65,0,1
87451,-100,4,1,0,65,0,0
122360,-100,4,1,0,65,0,1
139815,-100,4,1,0,65,0,0
157269,-100,4,2,0,65,0,0
192178,-100,4,1,0,65,0,0
218360,-100,4,1,0,65,0,1
235815,-100,4,1,0,65,0,0

[Colours]
Combo1 : 128,128,0
Combo2 : 192,192,192
Combo3 : 0,64,0
Combo4 : 0,0,160

[HitObjects]
32,32,43814,1,4
112,104,44360,1,0
224,104,44905,1,8
224,160,45178,1,0
224,216,45451,2,0,B|224:368,1,140
376,288,46542,1,0
376,288,46815,1,2
440,192,47360,5,8
440,136,47633,1,8
480,32,48178,37,10
400,104,48724,1,0
288,104,49269,1,8
288,160,49542,1,0
288,216,49815,2,0,B|288:368,1,140
136,288,50905,1,0
136,288,51179,1,2
72,192,51724,5,8
72,136,51997,1,8
120,32,52542,37,2
176,32,52815,1,0
232,32,53087,2,0,B|384:32,1,140
328,136,54178,1,8
328,192,54451,1,8
440,192,54996,1,8
480,232,55269,1,8
480,288,55542,1,2
368,288,56087,5,8
368,288,56633,1,8
368,344,56905,37,2
256,344,57451,1,8
232,296,57724,1,8
280,296,57996,1,0
256,192,58542,1,8
256,192,59087,1,8
232,88,59633,1,0
280,88,59905,1,8
256,40,60178,1,8
256,192,61269,5,4
32,192,69996,5,4
144,192,70542,2,0,B|200:144|200:64,1,140
312,64,71633,1,8
344,112,71905,1,0
376,160,72178,2,0,B|464:160|464:56,1,140
408,72,72996,1,10
288,192,73815,5,0
288,136,74087,1,8
288,80,74360,2,0,B|376:80|376:168,1,140
376,224,75178,1,8
264,224,75724,2,0,B|264:312|368:312,1,140
464,312,76815,1,4
376,224,77360,5,8
376,224,77633,1,8
424,120,78178,1,8
480,192,78724,21,4
368,192,79270,2,0,B|312:240|312:320,1,140
200,320,80361,1,8
168,272,80633,1,0
136,224,80906,2,0,B|48:224|48:328,1,140
104,312,81724,1,10
224,192,82543,5,0
224,248,82815,1,8
224,304,83088,2,0,B|136:304|136:216,1,140
136,160,83906,1,8
248,160,84452,2,0,B|248:72|144:72,1,140
48,72,85543,1,10
136,160,86088,5,8
136,160,86361,1,8
88,264,86906,1,8
200,264,87451,1,4
32,192,96178,5,4
144,192,96724,1,0
192,192,96996,1,8
168,144,97269,1,0
168,32,97815,1,8
328,80,98633,1,8
328,136,98905,1,8
328,192,99178,2,8,B|328:320|464:320,1,210
464,264,100269,1,8
480,192,100815,5,2
424,192,101087,1,8
424,136,101360,1,0
480,136,101633,1,8
480,80,101905,1,0
424,80,102178,1,8
264,136,102996,2,8,B|104:136,1,140
32,136,104087,1,8
32,136,104360,1,8
24,304,105178,6,8,B|176:304,1,140
216,304,105996,1,8
384,304,106542,1,8
384,304,106815,1,0
320,232,107360,1,8
272,232,107633,1,8
296,184,107905,1,10
408,184,108451,5,8
408,184,108996,1,8
464,184,109269,5,2
464,128,109542,1,0
464,72,109815,2,0,B|400:24|312:24,1,140
328,80,110633,2,8,B|328:304,1,210
272,288,111724,1,0
216,288,111996,1,0
216,232,112269,1,0
272,232,112542,1,0
240,128,113087,1,2
256,352,122360,5,4
200,352,122633,1,0
88,352,123178,2,8,B|32:288,1,70
24,192,123996,1,8
64,152,124269,1,0
104,192,124542,2,0,B|160:192|200:232|256:232,1,140
296,232,125360,1,10
464,232,126178,5,8
416,208,126451,1,0
368,184,126724,1,8
320,160,126996,1,8
272,136,127269,1,0
224,112,127542,1,8
112,112,128087,2,8,B|32:112,2,70
160,192,129178,1,4
160,96,129996,5,0
136,48,130269,1,0
184,48,130542,1,0
256,32,131087,21,4
312,32,131360,1,0
368,32,131633,1,8
424,32,131905,2,8,B|480:96,1,70
488,192,132723,1,8
448,232,132996,1,0
408,192,133269,2,0,B|352:192|312:152|256:152,1,140
216,152,134087,1,10
256,192,134905,12,4,139815
408,360,157269,37,8
320,296,157815,1,0
320,240,158087,1,0
432,112,158905,2,0,B|360:88|272:112,1,140
216,192,159996,1,0
160,192,160269,1,2
48,192,160815,2,0,B|16:112|72:32,1,140
104,24,161633,21,8
192,88,162179,1,0
192,144,162451,1,0
80,272,163269,2,0,B|152:296|240:272,1,140
296,192,164360,1,0
352,192,164633,1,2
464,192,165179,2,0,B|496:272|440:352,1,140
400,328,165996,5,14
288,328,166542,1,0
240,296,166815,1,8
376,192,167633,1,0
336,152,167905,1,0
296,112,168178,2,0,B|232:64|160:112,1,140
128,144,168996,1,6
88,184,169269,1,8
16,104,169815,21,0
64,80,170087,1,0
112,56,170360,37,14
224,56,170906,1,0
272,88,171179,1,8
136,192,171997,1,0
176,232,172269,1,0
216,272,172542,2,0,B|280:320|352:272,1,140
384,240,173360,1,6
424,200,173633,1,8
496,280,174179,5,0
448,304,174451,1,0
416,352,174724,21,6
360,352,174996,1,0
328,304,175269,1,0
328,248,175542,2,0,B|328:168|208:168,1,140
192,208,176360,1,0
152,248,176633,1,0
96,248,176905,2,0,B|16:272|24:128,1,140
80,160,177724,1,2
192,144,178269,2,8,B|128:64,1,70
96,80,178815,21,0
96,32,179087,21,6
152,32,179359,1,0
184,80,179632,1,0
184,136,179905,2,0,B|184:216|304:216,1,140
320,176,180723,1,0
360,136,180996,1,0
416,136,181268,2,0,B|496:112|488:256,1,140
432,224,182087,1,2
320,240,182632,2,8,B|384:320,1,70
416,304,183178,21,0
472,304,183451,5,14
56,328,192178,5,4
104,296,192451,1,8
152,328,192724,1,8
200,296,192996,1,0
248,264,193269,1,8
296,296,193542,2,0,B|456:296,1,140
440,192,194633,5,8
400,232,194905,1,0
360,192,195178,2,0,B|296:136|224:192,1,140
256,240,195996,2,8,B|336:240,1,70
392,336,196815,37,2
432,296,197087,1,0
472,256,197360,1,8
472,208,197633,1,8
432,168,197905,1,0
392,128,198178,1,8
392,232,198724,5,2
336,232,198996,2,0,B|168:232,1,140
144,232,199815,1,8
104,208,200087,1,0
104,256,200360,1,8
256,232,201178,37,2
296,192,201451,1,0
296,136,201724,2,8,B|336:120|368:136,1,70
368,192,202269,1,0
408,232,202542,1,8
368,272,202815,2,8,B|320:296|280:264,1,70
272,232,203360,1,0
312,192,203633,1,0
344,144,203905,2,8,B|344:0,2,140
448,192,205542,6,0,B|488:240|480:272|440:344,1,140
400,296,206360,1,8
352,328,206633,1,8
304,296,206905,1,0
352,264,207178,1,0
304,232,207451,2,8,B|304:160,1,70
344,120,207996,1,0
304,80,208269,2,8,B|304:-16,1,70
200,48,209087,37,10
144,48,209360,1,8
88,48,209633,2,0,B|16:48|16:304|80:304,1,280
120,304,210996,2,8,B|192:336|264:296,1,140
312,296,211815,1,8
352,256,212087,1,0
384,208,212360,2,0,B|384:128,1,70
384,80,212905,2,8,B|336:-8|264:88,1,140
256,192,213996,12,4,217815
480,192,218360,5,4
448,232,218633,2,8,B|352:232,1,70
376,288,219178,2,0,B|280:288,1,70
288,232,219724,1,8
336,232,219996,1,8
312,184,220269,1,0
256,184,220542,2,0,B|96:184,2,140
256,296,222178,5,2
280,344,222451,1,8
232,344,222724,1,8
192,344,222996,1,0
216,296,223269,2,8,B|160:240,1,70
136,344,224087,2,8,B|72:280,1,70
32,352,224633,1,0
32,352,225178,1,4
32,272,226542,5,8
32,272,226815,1,0
32,192,227087,5,4
64,152,227360,2,8,B|160:152,1,70
136,96,227905,2,0,B|232:96,1,70
224,152,228451,1,8
176,152,228723,1,8
200,200,228996,1,0
256,200,229269,2,0,B|416:200,2,140
256,192,230905,12,4,235815
