osu file format v9

[General]
AudioFilename: Tower of Torments (Supermoon Synth Mix) - 423 Ohm.mp3
AudioLeadIn: 0
PreviewTime: 69996
Countdown: 1
SampleSet: Normal
StackLeniency: 0.7
Mode: 0
LetterboxInBreaks: 1

[Editor]
Bookmarks: 43542,43815,61269,69996,87451,96178,113087,122360,134905,157269,183451,192178,213996,235815
DistanceSpacing: 0.8
BeatDivisor: 4
GridSize: 8

[Metadata]
Title:Tower Of Torments -Supermoon Synth Mix-
Artist:423 Ohm
Creator:TheMagicianType0
Version:BEN
Source:The Legend Of Zelda: Haunted Majora's Mask Cartridge
Tags:423 Ohm Tower Of Torments Supermoon Synth Mix BEN Jadusable Haunted Majora Mask Cartridge Creepypasta Never Gonna Give You Up

[Difficulty]
HPDrainRate:7
CircleSize:5
OverallDifficulty:6
ApproachRate:7
SliderMultiplier:1.4
SliderTickRate:2

[Events]
//Background and Video events
0,0,"terrible fate.png"
//Break Periods
2,61469,69096
2,87651,95278
2,113287,121460
2,140015,156369
2,183651,191278
//Storyboard Layer 0 (Background)
//Storyboard Layer 1 (Fail)
//Storyboard Layer 2 (Pass)
//Storyboard Layer 3 (Foreground)
//Storyboard Sound Samples
//Background Colour Transformations
3,100,29,29,29

[TimingPoints]
8905.9203009828,545.454545454546,4,1,0,65,1,0
69996,-100,4,1,0,65,0,1
87451,-100,4,1,0,65,0,0
122360,-100,4,1,0,65,0,1
139815,-100,4,1,0,65,0,0
157269,-100,4,2,0,65,0,0
192178,-100,4,1,0,65,0,0
218360,-100,4,1,0,65,0,1
235815,-100,4,1,0,65,0,0

[Colours]
Combo1 : 64,0,128
Combo2 : 192,192,192
Combo3 : 0,64,0
Combo4 : 0,0,160

[HitObjects]
32,32,43815,1,4
144,32,44360,1,8
144,88,44633,1,8
192,56,44905,1,0
192,112,45178,1,0
240,88,45451,1,8
240,32,45724,2,0,B|464:32,1,210
448,88,46815,1,2
448,192,47360,5,8
472,240,47633,1,8
448,288,47905,1,0
400,288,48178,1,2
400,232,48451,1,0
352,232,48724,1,0
352,288,48996,1,8
376,336,49269,2,0,B|216:336,1,140
240,280,50087,2,8,B|240:200,1,70
184,208,50633,1,0
128,208,50905,2,8,B|128:280,1,70
16,280,51724,37,8
64,280,51996,1,0
40,232,52269,2,8,B|112:232,1,70
144,232,52815,1,0
120,184,53087,1,8
168,184,53360,1,0
192,232,53633,2,0,B|344:232,1,140
296,176,54451,2,8,B|216:176,1,70
240,120,54996,1,0
288,120,55269,1,0
264,80,55542,2,8,B|264:8,3,70
264,8,56633,1,0
336,8,56905,5,2
392,8,57178,1,8
448,8,57451,1,0
504,8,57724,1,0
504,64,57996,2,8,B|504:160|400:160,1,140
424,104,58815,1,0
424,48,59087,2,8,B|328:48|328:152,1,140
304,176,59905,1,0
352,176,60178,1,10
328,224,60451,2,8,B|176:224,1,140
136,224,61269,1,4
32,32,69996,5,6
32,88,70269,2,0,B|96:144|168:80,1,140
160,32,71087,2,8,B|240:32,1,70
272,72,71633,1,0
312,112,71905,1,0
352,152,72178,2,8,B|312:216|224:232,1,140
184,224,72996,1,0
192,168,73269,1,10
136,160,73542,2,0,B|40:160|40:264,1,140
40,296,74360,1,8
72,336,74633,1,8
112,296,74905,1,0
152,336,75178,2,0,B|240:336,1,70
280,336,75724,1,8
328,336,75996,1,0
304,288,76269,1,0
256,192,76815,1,4
336,120,77360,2,8,B|448:152|480:272,1,210
480,352,78724,5,6
480,296,78997,2,0,B|416:240|344:304,1,140
352,352,79815,2,8,B|272:352,1,70
240,312,80361,1,0
200,272,80633,1,0
160,232,80906,2,8,B|200:168|288:152,1,140
328,160,81724,1,0
320,216,81997,1,10
376,224,82270,2,0,B|472:224|472:120,1,140
472,88,83088,1,8
440,48,83361,1,8
400,88,83633,1,0
360,48,83906,2,0,B|272:48,1,70
232,48,84452,1,8
184,48,84724,1,0
208,96,84997,1,0
256,192,85543,1,10
176,264,86088,2,8,B|64:232|32:112,1,210
32,64,87178,5,0
32,64,87451,1,4
488,192,96178,5,4
464,144,96451,1,0
408,144,96724,1,8
376,192,96996,1,0
432,208,97269,2,0,B|432:360,1,140
376,352,98087,1,8
328,352,98360,1,8
352,304,98633,1,0
304,304,98905,1,0
280,352,99178,2,8,B|48:352,1,210
16,352,100269,1,0
48,304,100542,1,10
8,264,100815,5,0
16,208,101087,1,0
72,208,101360,1,8
72,152,101633,1,8
128,152,101905,1,0
128,96,102178,2,0,B|272:96,1,140
264,152,102996,1,8
240,192,103269,1,8
288,192,103542,2,0,B|368:192,1,70
400,192,104087,1,8
376,152,104360,1,8
320,144,104633,2,0,B|320:64,1,70,0|2
320,32,105178,6,0,B|232:32,1,70
200,32,105724,1,0
216,80,105996,1,8
176,120,106269,1,0
136,80,106542,1,0
152,32,106815,2,8,B|56:32,1,70
24,32,107360,1,0
64,72,107633,1,0
96,112,107905,2,0,B|184:168|160:192|272:256,1,210
312,248,108996,1,0
312,248,109269,1,8
360,248,109542,37,0
408,248,109815,1,8
456,248,110087,1,0
432,200,110360,1,8
384,200,110633,1,0
336,200,110905,1,0
360,152,111178,1,8
408,152,111451,1,8
408,104,111724,1,0
360,104,111996,1,0
384,56,112269,1,0
384,56,112542,2,8,B|328:0|224:0,1,140
16,176,122360,6,0,B|56:120|96:120|136:184,1,140,4|0
72,192,123178,1,8
72,192,123451,1,8
16,216,123724,2,0,B|56:272|96:272|136:208,1,140
184,224,124542,1,8
232,200,124815,1,8
280,176,125087,1,0
336,176,125360,2,8,B|336:80,1,70
280,104,125905,1,0
232,104,126178,1,8
256,56,126451,1,0
312,56,126724,2,0,B|472:56,1,140
488,136,127678,1,8
488,136,127815,1,8
432,136,128087,1,0
376,136,128360,2,0,B|376:280,1,140
376,328,129178,1,4
432,320,129451,5,8
432,264,129724,1,0
432,208,129996,1,8
432,152,130269,1,0
464,104,130542,1,8
496,152,130815,1,8
496,208,131087,6,8,B|456:264|416:264|376:200,1,140
440,192,131905,1,0
440,192,132178,1,8
496,168,132451,2,0,B|456:112|416:112|376:176,1,140
328,160,133269,1,8
280,184,133542,1,8
232,208,133814,1,0
176,208,134087,2,8,B|80:208,1,70
256,192,134905,12,4,139815
32,96,157269,21,10
128,40,157815,2,8,B|168:120|120:176|80:232|128:320,1,280
176,312,159178,1,0
232,312,159451,1,8
344,312,159996,1,0
400,312,160269,1,6
320,232,160815,2,0,B|408:232|408:136,1,140
480,96,161633,1,10
384,40,162179,2,8,B|344:120|392:176|432:232|384:320,1,280
336,312,163542,1,0
280,312,163815,1,8
168,312,164360,1,0
112,312,164633,1,6
192,232,165179,2,0,B|104:232|104:136,1,140
104,88,165996,5,14
128,40,166269,1,0
152,88,166542,2,8,B|312:88,1,140
344,88,167360,1,0
400,88,167633,2,8,B|472:88|472:192,1,140
416,192,168451,1,0
360,192,168724,1,0
304,192,168996,1,6
304,296,169542,1,0
328,248,169815,1,8
384,248,170087,1,0
408,296,170360,37,14
384,344,170633,1,0
360,296,170906,2,8,B|200:296,1,140
168,296,171724,1,0
112,296,171997,2,8,B|40:296|40:192,1,140
96,192,172815,1,0
152,192,173088,1,0
208,192,173360,1,6
208,88,173906,1,0
184,136,174179,1,8
128,136,174451,1,0
104,88,174724,5,14
104,32,174996,1,0
160,32,175269,1,8
216,32,175542,1,0
216,88,175815,2,0,B|368:88,1,140
416,88,176633,1,0
472,88,176905,1,8
496,136,177178,1,8
472,184,177451,1,0
416,184,177724,1,10
488,256,178269,1,0
440,256,178542,1,8
464,296,178815,1,0
408,296,179087,37,14
408,352,179359,1,0
352,352,179632,1,8
296,352,179905,1,0
296,296,180178,2,0,B|144:296,1,140
96,296,180996,1,0
40,296,181268,1,8
16,248,181541,1,8
40,200,181814,1,0
96,200,182087,1,10
24,128,182632,1,0
72,128,182905,1,8
48,88,183178,1,0
48,32,183451,1,14
128,32,192178,37,4
184,32,192451,1,8
184,88,192724,1,8
240,88,192996,1,0
240,144,193269,1,8
296,144,193542,2,8,B|384:144|384:232,1,140
440,232,194360,1,8
464,280,194633,1,0
416,280,194905,1,0
440,320,195178,2,0,B|440:360|160:360,1,280
120,360,196542,1,10
64,360,196815,37,0
32,320,197087,1,8
64,280,197360,1,0
64,224,197633,1,0
96,184,197905,1,8
64,144,198178,1,0
64,88,198451,2,0,B|64:16,1,70
128,40,198996,2,8,B|128:88,2,35
192,72,199542,2,8,B|192:24,2,35
248,56,200087,1,0
304,56,200360,1,4
360,56,200633,1,0
416,56,200905,1,8
472,56,201178,5,0
496,104,201451,1,0
496,160,201724,1,8
472,208,201996,1,8
416,208,202269,1,0
360,208,202542,1,0
304,208,202815,2,8,B|232:208,1,70
176,208,203360,1,0
136,248,203633,1,0
80,248,203905,2,8,B|16:200|32:96|240:80,1,280
264,80,205269,1,0
320,80,205542,5,0
352,32,205815,1,8
408,32,206087,1,0
440,80,206360,1,8
408,128,206633,1,8
352,128,206905,1,0
320,176,207178,1,0
352,224,207451,1,8
408,224,207724,1,8
440,176,207996,1,0
408,128,208269,1,8
352,128,208542,1,10
408,32,209087,21,0
352,32,209360,1,0
296,32,209633,2,0,B|128:32,1,140
72,32,210587,1,8
72,32,210724,1,8
72,88,210996,2,0,B|72:168|152:200,1,140
200,200,211815,1,8
256,200,212087,1,8
256,256,212360,1,0
200,256,212633,1,8
152,224,212905,2,0,B|8:224,1,140
256,192,213996,12,4,217815
256,352,218360,5,4
200,352,218633,2,0,B|200:272,1,70
256,280,219178,2,8,B|256:192,1,70
312,208,219724,1,0
336,248,219996,1,8
360,208,220269,1,0
336,168,220542,2,8,B|336:96,1,70
392,112,221087,1,0
392,160,221360,1,8
440,136,221633,1,10
480,32,222178,2,8,B|400:32,1,70
360,32,222724,1,0
384,80,222996,1,0
336,80,223269,1,0
336,136,223542,2,0,B|240:136,1,70
208,136,224087,1,0
160,136,224360,1,0
184,184,224633,1,0
312,176,225178,5,4
352,160,225451,1,8
312,128,225724,1,0
352,112,225996,1,8
312,80,226269,1,0
352,64,226542,1,0
312,32,226815,1,8
256,32,227087,5,4
200,32,227360,2,0,B|200:112,1,70
256,104,227905,2,8,B|256:192,1,70
312,176,228451,1,0
336,136,228723,1,8
360,176,228996,1,0
336,216,229269,2,8,B|336:288,1,70
392,272,229814,1,0
392,224,230087,1,8
440,248,230360,1,10
256,192,230905,12,4,235815
