osu file format v14

[General]
AudioFilename: 40mP - Getting Faster and Faster.mp3
AudioLeadIn: 0
PreviewTime: 41943
Countdown: 1
SampleSet: Soft
StackLeniency: 0.7
Mode: 0
LetterboxInBreaks: 1
WidescreenStoryboard: 0

[Editor]
DistanceSpacing: 0.5
BeatDivisor: 4
GridSize: 4
TimelineZoom: 1

[Metadata]
Title:Getting Faster and Faster
TitleUnicode:だんだん早くなる
Artist:40mP ft. Hatsune Miku
ArtistUnicode:40mP ft. 初音ミク
Creator:guineaQ
Version:Insane
Source:
Tags:
BeatmapID:652735
BeatmapSetID:289573

[Difficulty]
HPDrainRate:7
CircleSize:4
OverallDifficulty:7
ApproachRate:8.3
SliderMultiplier:1.6
SliderTickRate:1

[Events]
//Background and Video events
0,0,"faster.jpg",0,0
//Break Periods
2,58067,62445
//Storyboard Layer 0 (Background)
//Storyboard Layer 1 (Fail)
//Storyboard Layer 2 (Pass)
//Storyboard Layer 3 (Foreground)
//Storyboard Sound Samples

[TimingPoints]
1172,638.297872340426,4,2,1,100,1,0
3726,612.244897959184,4,2,1,100,1,0
6174,588.235294117647,4,2,1,100,1,0
8526,566.037735849057,4,2,1,100,1,0
10790,545.454545454546,4,2,1,100,1,0
12971,526.315789473684,4,2,1,100,1,0
15076,508.474576271186,4,2,1,100,1,0
17109,491.803278688525,4,2,1,100,1,0
19076,476.190476190476,4,2,1,100,1,0
43842,468.75,4,2,1,100,1,1
45717,461.538461538462,4,2,1,100,1,1
47563,454.545454545455,4,2,1,100,1,1
49381,447.761194029851,4,2,1,100,1,1
51172,441.176470588235,4,2,1,100,1,1
52936,434.782608695652,4,2,1,100,1,1
54675,428.571428571429,4,2,1,100,1,1
56389,422.535211267606,4,2,1,100,1,0
76670,441.176470588235,4,2,1,100,1,0
78434,461.538461538462,4,2,1,100,1,0
80280,483.870967741935,4,2,1,100,1,0
82215,508.474576271186,4,2,1,100,1,0
84248,535.714285714286,4,2,1,100,1,0
86390,566.037735849057,4,2,1,100,1,0
88654,600,4,2,1,100,1,0
91054,638.297872340426,4,2,1,100,1,0
93607,681.818181818182,4,2,1,100,1,0
96342,468.75,4,2,1,100,1,1
98217,468.75,4,2,1,100,1,1
100092,454.545454545455,4,2,1,100,1,1
101910,441.176470588235,4,2,1,100,1,1
103674,428.571428571429,4,2,1,100,1,1
105388,416.666666666667,4,2,1,100,1,1
107054,405.405405405405,4,2,1,100,1,1
108675,394.736842105263,4,2,1,100,1,1
110253,384.615384615385,4,2,1,100,1,1
111791,375,4,2,1,100,1,1
122291,400,4,2,1,100,1,0
122691,428.571428571429,4,2,1,100,1,0
123119,461.538461538462,4,2,1,100,1,0
123580,500,4,2,1,100,1,0
124080,500,4,2,1,100,1,0
126080,526.315789473684,4,2,1,100,1,0
128185,555.555555555556,4,2,1,100,1,0
130407,588.235294117647,4,2,1,100,1,0
131583,612.244897959184,4,2,1,100,1,0
132195,652.173913043478,4,2,1,100,1,0
132521,750,4,2,1,100,1,0

[Colours]
Combo1 : 236,218,57
Combo2 : 167,173,163
Combo3 : 113,132,113
Combo4 : 121,213,128
Combo5 : 84,192,103
Combo6 : 107,169,231
Combo7 : 44,224,198
Combo8 : 249,244,66

[HitObjects]
206,149,1172,6,0,P|205:100|219:54,1,80
323,116,1810,2,0,P|331:155|329:194,1,80
223,281,2448,2,0,L|166:289,1,40
78,202,2767,2,0,L|117:196,1,40
254,211,3086,1,0,0:0:0:0:
357,294,3406,1,0,0:0:0:0:
185,241,3726,6,0,P|179:198|205:150,1,80
377,165,4338,1,0,0:0:0:0:
253,320,4644,2,0,L|198:319,1,40
132,337,4950,2,0,L|45:334,1,80
97,212,5562,2,0,P|144:216|210:205,1,80
276,132,6174,102,0,L|296:32,1,80
114,133,6762,2,0,L|98:211,1,80
220,302,7350,2,0,L|249:249,1,40
113,227,7644,2,0,L|85:267,1,40
206,330,7938,1,0,0:0:0:0:
338,271,8232,1,0,0:0:0:0:
178,139,8526,6,0,L|67:148,1,80
251,205,9092,2,0,L|330:198,1,80
407,159,9516,1,0,0:0:0:0:
460,92,9658,2,0,L|526:86,2,40
308,36,10224,1,0,0:0:0:0:
331,198,10507,1,0,0:0:0:0:
236,91,10790,6,0,P|188:103|155:103,1,80
322,128,11335,2,0,P|320:186|302:225,1,80
169,270,11880,2,0,L|123:277,1,40
41,195,12153,2,0,L|94:188,1,40
228,217,12426,1,0,0:0:0:0:
120,353,12699,1,0,0:0:0:0:
169,144,12971,5,0,0:0:0:0:
308,282,13234,1,0,0:0:0:0:
120,353,13497,2,0,P|97:298|99:250,1,80
103,201,13892,1,0,0:0:0:0:
136,126,14023,2,0,L|118:90,2,40
179,293,14549,2,0,L|285:297,1,80
378,251,15076,102,0,P|414:227|444:165,1,80
285,171,15584,2,0,P|280:125|262:78,1,80
129,41,16092,2,0,L|73:43,1,40
41,162,16347,2,0,L|99:157,1,40
208,147,16601,1,0,0:0:0:0:
89,42,16855,1,0,0:0:0:0:
25,197,17109,5,0,0:0:0:0:
188,276,17354,1,0,0:0:0:0:
177,94,17600,1,0,0:0:0:0:
96,263,17846,2,0,L|74:307,1,40
220,321,18092,2,0,L|241:275,1,40
221,143,18338,2,0,L|178:155,1,40
96,263,18584,1,0,0:0:0:0:
280,295,18830,1,0,0:0:0:0:
356,178,19076,6,0,P|374:138|380:86,1,80
241,24,19552,1,0,0:0:0:0:
233,184,19790,1,0,0:0:0:0:
380,102,20028,1,0,0:0:0:0:
199,96,20266,1,0,0:0:0:0:
335,26,20504,1,0,0:0:0:0:
330,181,20742,1,0,0:0:0:0:
199,96,20980,6,0,P|148:86|118:88,2,80
309,179,21695,1,0,0:0:0:0:
244,298,21933,2,0,P|183:308|197:223,1,160
342,270,22647,1,0,0:0:0:0:
154,318,22885,102,0,L|69:322,2,80
270,211,23599,2,0,P|277:146|264:111,1,80
127,166,24076,1,0,0:0:0:0:
254,306,24314,1,0,0:0:0:0:
192,102,24552,1,0,0:0:0:0:
85,251,24790,6,0,P|76:295|83:335,2,80
192,102,25504,1,0,0:0:0:0:
210,293,25742,1,0,0:0:0:0:
210,293,25861,1,0,0:0:0:0:
210,293,25980,1,0,0:0:0:0:
98,145,26218,1,0,0:0:0:0:
281,125,26456,1,0,0:0:0:0:
281,125,26575,1,0,0:0:0:0:
281,125,26695,70,0,L|388:130,1,80
437,89,27052,1,0,0:0:0:0:
437,89,27171,2,0,P|445:137|430:182,1,80
402,188,27528,1,0,0:0:0:0:
366,210,27647,2,0,P|357:257|380:304,1,80
452,352,28123,1,0,0:0:0:0:
439,246,28361,1,0,0:0:0:0:
362,128,28599,5,0,0:0:0:0:
249,178,28837,2,0,L|200:184,2,40
292,70,29314,2,0,L|180:84,1,80
118,164,29790,1,0,0:0:0:0:
239,202,30028,1,0,0:0:0:0:
129,82,30266,1,0,0:0:0:0:
73,232,30504,102,0,P|64:285|85:337,1,80
140,356,30861,2,0,L|198:352,1,40
323,293,31218,2,0,L|373:289,2,40
147,273,31695,1,0,0:0:0:0:
252,165,31933,2,0,L|359:153,1,80
454,186,32409,6,0,P|449:136|455:92,1,80
480,33,32766,1,0,0:0:0:0:
480,33,32885,2,0,L|383:48,1,80
374,79,33242,1,0,0:0:0:0:
345,111,33361,2,0,L|248:126,1,80
154,87,33837,1,0,0:0:0:0:
224,193,34075,1,0,0:0:0:0:
90,201,34314,101,0,0:0:0:0:
230,116,34552,2,0,P|279:135|299:169,1,80
254,272,35028,2,0,L|239:313,2,40
230,116,35504,1,0,0:0:0:0:
385,169,35742,2,0,L|289:184,1,80
178,205,36218,5,0,0:0:0:0:
124,89,36456,1,0,0:0:0:0:
252,96,36695,1,0,0:0:0:0:
101,168,36933,2,0,L|43:170,2,40
259,177,37409,1,0,0:0:0:0:
196,324,37647,1,0,0:0:0:0:
101,168,37885,1,0,0:0:0:0:
252,96,38123,102,0,L|367:84,1,80
481,166,38599,2,0,L|401:174,1,80
282,223,39075,1,0,0:0:0:0:
460,322,39314,1,0,0:0:0:0:
484,189,39552,1,0,0:0:0:0:
355,266,39790,6,0,P|251:302|199:205,1,240
322,109,40742,1,0,0:0:0:0:
322,109,40861,1,0,0:0:0:0:
322,109,40980,1,0,0:0:0:0:
475,149,41218,1,0,0:0:0:0:
282,222,41456,1,0,0:0:0:0:
317,32,41933,6,0,P|325:98|315:137,1,80
215,184,42409,2,0,L|126:197,1,80
58,62,42885,2,0,L|112:55,1,40
206,141,43123,2,0,L|166:146,1,40
37,207,43361,1,0,0:0:0:0:
141,258,43599,1,0,0:0:0:0:
221,113,43837,6,0,P|234:65|228:23,1,80
49,116,44310,2,0,L|133:139,1,80
188,185,44662,1,0,0:0:0:0:
188,185,44779,2,0,L|197:226,2,40
231,37,45248,2,0,L|315:60,1,80
471,186,45717,6,0,P|424:205|384:198,1,80
308,58,46178,2,0,P|343:40|383:41,1,80
471,186,46640,2,0,L|492:239,1,40
381,315,46870,2,0,L|358:264,1,40
305,155,47101,1,0,0:0:0:0:
224,267,47332,1,0,0:0:0:0:
152,131,47563,5,0,0:0:0:0:
305,155,47790,2,0,L|389:151,1,80
459,43,48244,2,0,L|414:46,1,40
410,182,48472,2,0,L|449:179,1,40
492,60,48699,1,0,0:0:0:0:
347,80,48926,1,0,0:0:0:0:
450,179,49153,1,0,0:0:0:0:
347,79,49381,70,0,P|288:76|256:88,1,80
240,242,49828,2,0,P|279:247|318:239,1,80
411,164,50276,2,0,L|419:110,1,40
263,118,50500,2,0,L|257:157,1,40
283,304,50724,1,0,0:0:0:0:
411,249,50948,1,0,0:0:0:0:
417,125,51172,5,0,0:0:0:0:
308,182,51392,2,0,L|213:186,1,80
119,156,51833,2,0,L|76:158,2,40
269,82,52274,1,0,0:0:0:0:
263,247,52495,1,0,0:0:0:0:
182,86,52716,1,0,0:0:0:0:
263,247,52936,6,0,P|202:262|158:251,1,80
270,82,53370,2,0,P|331:67|375:78,1,80
416,194,53805,2,0,L|440:240,2,40
271,82,54240,1,0,0:0:0:0:
446,96,54457,1,0,0:0:0:0:
343,244,54675,6,0,P|339:298|343:340,1,80
282,185,55103,2,0,L|187:198,1,80
118,180,55425,1,0,0:0:0:0:
92,188,55532,1,0,0:0:0:0:
71,203,55639,1,0,0:0:0:0:
55,225,55746,1,0,0:0:0:0:
169,306,55960,1,0,0:0:0:0:
175,115,56175,1,0,0:0:0:0:
256,192,56389,12,0,57867,0:0:0:0:
233,89,63149,69,0,0:0:0:0:
184,182,63360,2,0,L|141:197,2,40
328,125,63783,1,0,0:0:0:0:
328,125,63889,1,0,0:0:0:0:
328,125,63994,2,0,P|327:177|334:219,1,80
447,253,64417,2,0,P|448:201|441:159,1,80
383,52,64839,6,0,L|300:32,1,80
231,75,65156,1,0,0:0:0:0:
231,75,65262,2,0,L|145:75,1,80
126,102,65579,1,0,0:0:0:0:
104,129,65684,2,0,L|104:224,1,80
171,315,66107,1,0,0:0:0:0:
42,323,66318,1,0,0:0:0:0:
181,232,66529,101,0,0:0:0:0:
331,232,66741,2,0,L|385:243,2,40
207,120,67163,1,0,0:0:0:0:
207,120,67269,1,0,0:0:0:0:
207,120,67374,2,0,P|186:72|189:22,1,80
327,44,67797,2,0,P|323:84|305:120,1,80
256,204,68219,6,0,L|248:301,1,80
219,349,68536,1,0,0:0:0:0:
219,349,68642,2,0,P|270:336|310:343,1,80
331,326,68959,1,0,0:0:0:0:
365,311,69065,2,0,L|372:220,1,80
337,122,69487,1,0,0:0:0:0:
223,224,69698,1,0,0:0:0:0:
412,161,69910,6,0,P|464:175|502:202,1,80
259,209,70332,2,0,L|253:120,1,80
227,102,70649,1,0,0:0:0:0:
201,78,70755,2,0,P|164:54|109:44,1,80
19,160,71177,2,0,P|56:184|111:194,1,80
254,130,71600,6,0,L|348:127,1,80
429,265,72022,2,0,P|374:266|336:244,1,80
328,237,72339,1,0,0:0:0:0:
307,215,72445,2,0,L|208:219,1,80
130,308,72867,1,0,0:0:0:0:
170,152,73079,1,0,0:0:0:0:
19,190,73290,70,0,P|51:257|105:201,1,160
82,57,73924,2,0,P|33:49|-1:50,1,80
129,131,74346,2,0,P|194:123|219:112,1,80
339,69,74769,6,0,P|396:67|475:133,1,160
417,249,75403,2,0,P|360:251|281:185,1,160
259,34,76036,1,0,0:0:0:0:
378,159,76248,1,0,0:0:0:0:
201,122,76670,70,0,P|162:116|109:118,1,80
69,265,77111,2,0,P|108:270|148:270,1,80
275,183,77552,2,0,L|353:183,2,40
135,194,77993,1,0,0:0:0:0:
218,311,78214,1,0,0:0:0:0:
275,183,78434,6,0,P|281:130|274:76,1,80
165,138,78895,2,0,P|121:136|76:125,1,80
205,46,79357,2,0,L|207:5,2,40
276,183,79818,1,0,0:0:0:0:
338,12,80049,1,0,0:0:0:0:
373,162,80280,102,0,P|366:223|348:272,1,80
256,298,80763,2,0,L|155:290,1,80
56,322,81247,1,0,0:0:0:0:
56,322,81368,1,0,0:0:0:0:
56,322,81489,2,0,P|60:245|57:216,1,80
52,132,81973,1,0,0:0:0:0:
15,30,82215,5,0,0:0:0:0:
87,134,82469,2,0,L|181:142,1,80
299,204,82977,1,0,0:0:0:0:
230,81,83231,2,0,L|224:25,2,40
299,204,83740,2,0,L|311:300,1,80
147,299,84248,102,0,L|168:137,1,160
235,49,85051,1,0,0:0:0:0:
235,49,85319,2,0,L|286:35,2,40
123,35,85855,2,0,P|91:48|63:86,1,80
65,197,86390,5,0,0:0:0:0:
168,141,86673,2,0,L|259:136,1,80
370,178,87239,1,0,0:0:0:0:
370,178,87380,1,0,0:0:0:0:
370,178,87522,2,0,P|374:119|383:70,1,80
489,228,88088,2,0,P|485:287|476:336,1,80
309,270,88654,70,0,B|247:286|204:242|152:266,1,160
57,311,89554,1,0,0:0:0:0:
57,311,89854,2,0,L|2:310,2,40
187,337,90454,1,0,0:0:0:0:
277,194,90754,1,0,0:0:0:0:
113,190,91054,5,0,0:0:0:0:
170,297,91373,1,0,0:0:0:0:
230,192,91692,2,0,L|238:103,1,80
263,97,92171,1,0,0:0:0:0:
289,83,92330,2,0,P|338:64|367:62,2,80
207,206,93288,1,0,0:0:0:0:
256,192,93607,12,0,95993,0:0:0:0:
284,123,96342,6,0,P|235:124|181:216,2,160
269,318,97748,2,0,P|258:246|267:174,1,120
360,94,98217,2,0,P|401:92|453:74,1,80
268,44,98685,2,0,L|286:131,1,80
411,311,99154,2,0,L|465:327,2,40
218,261,99623,2,0,P|171:263|103:279,1,80
17,338,100092,5,0,0:0:0:0:
97,191,100319,1,0,0:0:0:0:
17,46,100546,1,0,0:0:0:0:
139,115,100773,2,0,L|200:117,1,40
284,20,101001,2,0,L|227:19,1,40
99,44,101228,1,0,0:0:0:0:
260,98,101455,2,0,P|281:144|288:201,1,80
205,313,101910,6,0,P|184:267|177:210,1,80
296,130,102351,2,0,L|390:115,1,80
423,256,102792,2,0,L|369:251,1,40
461,138,103012,2,0,L|509:143,1,40
459,291,103233,2,0,L|358:277,1,80
213,254,103674,5,0,0:0:0:0:
343,152,103888,1,0,0:0:0:0:
373,316,104102,1,0,0:0:0:0:
213,254,104316,2,0,L|197:182,1,40
344,153,104531,2,0,L|354:197,1,40
320,305,104745,1,0,0:0:0:0:
177,358,104959,1,0,0:0:0:0:
204,215,105174,1,0,0:0:0:0:
388,210,105388,102,0,P|443:216|496:206,1,80
300,111,105804,2,0,P|304:59|294:7,1,80
164,70,106221,2,0,L|105:77,2,40
384,46,106638,1,0,0:0:0:0:
278,192,106846,1,0,0:0:0:0:
165,70,107054,5,0,0:0:0:0:
301,163,107256,2,0,L|400:166,1,80
153,237,107662,1,0,0:0:0:0:
153,237,107763,1,0,0:0:0:0:
153,237,107864,2,0,L|54:240,1,80
165,70,108270,1,0,0:0:0:0:
301,164,108472,1,0,0:0:0:0:
262,348,108675,6,0,P|258:285|265:245,1,80
424,131,109069,2,0,P|428:194|421:234,1,80
260,270,109464,1,0,0:0:0:0:
260,270,109563,1,0,0:0:0:0:
260,270,109661,2,0,L|155:279,1,80
54,347,110056,1,0,0:0:0:0:
122,185,110253,5,0,0:0:0:0:
54,347,110445,1,0,0:0:0:0:
228,318,110637,1,0,0:0:0:0:
284,161,110829,2,0,L|269:120,1,40
263,108,111022,1,0,0:0:0:0:
255,95,111118,1,0,0:0:0:0:
244,83,111214,1,0,0:0:0:0:
104,58,111406,1,0,0:0:0:0:
147,191,111599,1,0,0:0:0:0:
319,253,111791,102,0,P|354:267|423:252,1,80
479,114,112166,1,0,0:0:0:0:
366,184,112353,1,0,0:0:0:0:
486,245,112541,1,0,0:0:0:0:
392,98,112728,1,0,0:0:0:0:
396,266,112916,1,0,0:0:0:0:
479,114,113103,1,0,0:0:0:0:
327,187,113291,6,0,P|299:224|293:275,2,80
479,114,113853,1,0,0:0:0:0:
374,254,114041,2,0,L|190:264,1,160
72,273,114603,1,0,0:0:0:0:
232,188,114791,102,0,P|277:220|288:249,2,80
72,273,115353,2,0,L|51:354,1,80
214,262,115728,1,0,0:0:0:0:
45,203,115916,1,0,0:0:0:0:
174,332,116103,1,0,0:0:0:0:
217,153,116291,6,0,L|236:68,2,80
72,273,116853,1,0,0:0:0:0:
64,113,117041,1,0,0:0:0:0:
183,253,117228,1,0,0:0:0:0:
16,195,117416,1,0,0:0:0:0:
133,43,117791,69,0,0:0:0:0:
151,35,117884,1,0,0:0:0:0:
171,32,117978,1,0,0:0:0:0:
190,32,118072,1,0,0:0:0:0:
210,35,118166,1,0,0:0:0:0:
230,39,118259,1,0,0:0:0:0:
249,44,118353,1,0,0:0:0:0:
269,48,118447,1,0,0:0:0:0:
289,50,118541,1,0,0:0:0:0:
309,51,118634,1,0,0:0:0:0:
329,50,118728,1,0,0:0:0:0:
348,44,118822,1,0,0:0:0:0:
366,35,118916,1,0,0:0:0:0:
414,107,119291,5,0,0:0:0:0:
403,123,119384,1,0,0:0:0:0:
393,141,119478,1,0,0:0:0:0:
385,159,119572,1,0,0:0:0:0:
378,178,119666,1,0,0:0:0:0:
374,197,119759,1,0,0:0:0:0:
370,217,119853,1,0,0:0:0:0:
369,237,119947,1,0,0:0:0:0:
368,257,120041,1,0,0:0:0:0:
370,277,120134,1,0,0:0:0:0:
373,297,120228,1,0,0:0:0:0:
378,316,120322,1,0,0:0:0:0:
384,335,120416,1,0,0:0:0:0:
286,221,120791,101,0,0:0:0:0:
266,222,120884,1,0,0:0:0:0:
246,223,120978,1,0,0:0:0:0:
226,225,121072,1,0,0:0:0:0:
206,226,121166,1,0,0:0:0:0:
186,227,121259,1,0,0:0:0:0:
166,229,121353,1,0,0:0:0:0:
146,230,121447,1,0,0:0:0:0:
126,231,121541,1,0,0:0:0:0:
106,233,121634,1,0,0:0:0:0:
86,234,121728,1,0,0:0:0:0:
66,235,121822,1,0,0:0:0:0:
46,237,121916,1,0,0:0:0:0:
72,100,122291,6,0,L|137:95,1,40
210,178,122491,2,0,L|168:181,1,40
241,42,122691,2,0,L|292:73,1,40
270,222,122905,2,0,L|225:191,1,40
141,97,123119,69,0,0:0:0:0:
141,97,123234,1,0,0:0:0:0:
141,97,123349,1,0,0:0:0:0:
309,83,123580,5,0,0:0:0:0:
238,232,123830,1,0,0:0:0:0:
238,232,123955,1,0,0:0:0:0:
238,232,124080,102,0,P|189:249|145:243,1,80
318,174,124580,2,0,P|330:223|329:274,1,80
213,326,125080,2,0,L|165:335,2,40
331,251,125580,1,0,0:0:0:0:
206,187,125830,1,0,0:0:0:0:
302,328,126080,5,0,0:0:0:0:
411,290,126343,2,0,P|413:240|408:196,1,80
341,145,126869,1,0,0:0:0:0:
341,145,127001,1,0,0:0:0:0:
341,145,127132,2,0,L|350:50,1,80
220,17,127658,1,0,0:0:0:0:
238,153,127922,1,0,0:0:0:0:
420,195,128185,70,0,L|429:100,1,80
360,48,128740,2,0,P|316:70|273:73,1,80
140,80,129296,2,0,L|125:34,1,40
243,88,129573,2,0,L|262:136,1,40
300,246,129851,2,0,P|294:296|297:332,1,80
412,293,130407,5,0,0:0:0:0:
395,178,130701,2,0,P|360:148|316:126,1,80
226,166,131289,1,0,0:0:0:0:
226,166,131436,1,0,0:0:0:0:
226,166,131583,2,0,L|112:177,1,80
53,277,132195,101,0,0:0:0:0:
188,312,132521,1,0,0:0:0:0:
256,192,132896,12,0,135521,0:0:0:0:
