osu file format v12

[General]
AudioFilename: GUMI - HeartPalette (N. Bambukov).mp3
AudioLeadIn: 500
PreviewTime: 67045
Countdown: 0
SampleSet: Soft
StackLeniency: 0.7
Mode: 0
LetterboxInBreaks: 0
WidescreenStoryboard: 0

[Editor]
DistanceSpacing: 0.8
BeatDivisor: 4
GridSize: 4
TimelineZoom: 1.2

[Metadata]
Title:Cocoro Palette
TitleUnicode:ココロ*パレット
Artist:40mP
ArtistUnicode:40㍍P
Creator:luxoDeh
Version:Insane
Source:この美術部には問題がある!
Tags:GUMI Vocaloid meter [TEST] Dios/シグナルP いみぎむる マクー Kono bijutsu-bu ni wa mondai ga aru!
BeatmapID:336821
BeatmapSetID:134079

[Difficulty]
HPDrainRate:7
CircleSize:4
OverallDifficulty:7
ApproachRate:8
SliderMultiplier:2
SliderTickRate:2

[Events]
//Background and Video events
0,0,"Shirai.Kon.full.625700.jpg",0,0
Video,0,"Movie.avi.avi"
//Break Periods
2,101428,113145
2,167082,172366
//Storyboard Layer 0 (Background)
//Storyboard Layer 1 (Fail)
//Storyboard Layer 2 (Pass)
//Storyboard Layer 3 (Foreground)
//Storyboard Sound Samples
//Background Colour Transformations
3,100,163,162,255

[TimingPoints]
1688,389.61038961039,4,2,1,70,1,0
2856,-100,4,3,1,70,0,0
3051,-100,4,2,1,70,0,0
3636,-100,4,3,1,70,0,0
4804,-100,4,2,1,70,0,0
6558,-100,4,3,1,70,0,0
7921,-100,4,2,1,70,0,0
13376,-100,4,3,1,70,0,0
14155,-100,4,2,1,70,0,0
51558,-100,4,3,1,70,0,0
57791,-100,4,2,1,70,0,0
58181,-100,4,3,1,70,0,0
66558,-100,4,2,1,70,0,0
67142,-100,4,2,1,70,0,1
77272,-100,4,3,1,70,0,1
77856,-100,4,2,1,70,0,1
79415,-100,4,3,1,70,0,1
79610,-100,4,1,1,70,0,1
79707,-100,4,2,1,70,0,1
89739,-100,4,3,1,70,0,1
90324,-100,4,2,1,70,0,1
92077,-100,4,2,1,70,0,0
94220,-100,4,3,1,70,0,0
94610,-100,4,2,1,70,0,0
137467,-100,4,3,1,70,0,0
137856,-100,4,2,1,70,0,0
177012,-100,4,3,1,70,0,0
177402,-100,4,2,1,70,0,0
180908,-100,4,2,1,70,0,1
191233,-100,4,3,1,70,0,1
191623,-100,4,2,1,70,0,1
193181,-100,4,3,1,70,0,1
193376,-100,4,1,1,70,0,1
193473,-100,4,2,1,70,0,1
203700,-100,4,3,1,70,0,1
204090,-100,4,2,1,70,0,1
205843,-100,4,2,1,70,0,0
214804,-100,4,3,1,70,0,0
215194,-100,4,2,1,70,0,0

[Colours]
Combo1 : 128,128,128
Combo2 : 255,0,0
Combo3 : 0,128,255
Combo4 : 255,255,0
Combo5 : 0,255,0
Combo6 : 255,128,0
Combo7 : 128,0,255
Combo8 : 192,192,192

[HitObjects]
256,328,1688,5,4,0:0:0:0:
416,72,2467,2,0,P|364:100|312:96,1,100,0|8,0:0|0:0,0:0:0:0:
256,56,2856,1,8,0:0:0:0:
210,180,3051,6,0,P|222:108|124:44,1,200,4|0,0:0|0:0,0:0:0:0:
60,84,3636,1,8,0:0:0:0:
20,208,3830,1,8,0:0:0:0:
120,136,4025,1,8,0:0:0:0:
0,132,4220,1,8,0:0:0:0:
96,208,4415,1,12,0:0:0:0:
216,312,4804,6,0,P|268:344|384:256,1,200,4|0,0:0|0:0,0:0:0:0:
352,208,5389,2,0,P|384:264|428:276,1,100
432,196,5778,1,8,0:0:0:0:
432,44,5973,1,8,0:0:0:0:
336,116,6168,2,0,P|280:128|216:104,1,100,4|0,0:0|0:0,0:0:0:0:
172,80,6558,6,0,L|112:176,1,100,8|8,0:0|0:0,0:0:0:0:
40,160,6947,2,0,L|64:272,1,100,8|0,0:0|0:0,0:0:0:0:
120,312,7337,1,8,0:0:0:0:
256,336,7532,1,8,0:0:0:0:
268,200,7726,1,8,0:0:0:0:
120,172,7921,69,4,0:0:0:0:
140,92,8116,2,0,L|152:32,2,50,0|0|8,0:0|0:0|0:0,0:0:0:0:
248,112,8506,2,0,L|308:84,2,50
312,204,8895,2,0,L|360:224,2,50,0|0|8,0:0|0:0|0:0,0:0:0:0:
232,220,9285,1,0,0:0:0:0:
65,273,9480,6,0,P|161:286|232:220,1,200,0|8,0:0|0:0,0:0:0:0:
216,140,10064,1,0,0:0:0:0:
216,140,10162,1,0,0:0:0:0:
216,140,10259,1,0,0:0:0:0:
252,68,10454,2,0,P|288:104|292:152,1,100,0|8,0:0|0:0,0:0:0:0:
364,188,10843,1,0,0:0:0:0:
448,312,11038,6,0,P|404:248|416:120,1,200,0|8,0:0|0:0,0:0:0:0:
460,64,11623,1,0,0:0:0:0:
356,160,11817,1,0,0:0:0:0:
500,164,12012,1,0,0:0:0:0:
360,282,12207,1,8,0:0:0:0:
172,284,12402,2,0,P|252:312|368:276,1,200,4|8,0:0|0:0,0:0:0:0:
264,136,12986,5,8,0:0:0:0:
176,240,13181,2,0,P|256:268|372:232,1,200,4|0,0:0|0:0,0:0:0:0:
424,184,13765,2,0,P|368:188|320:148,1,100,8|0,0:0|0:0,0:0:0:0:
300,144,14058,1,0,0:0:0:0:
264,164,14155,70,0,P|184:152|216:56,1,200,4|8,0:0|0:0,0:0:0:0:
424,32,14739,1,0,0:0:0:0:
424,32,14837,1,0,0:0:0:0:
424,32,14934,2,0,L|388:128,1,100
460,168,15324,1,8,0:0:0:0:
262,201,15519,6,0,L|460:168,1,200
444,248,16103,1,8,0:0:0:0:
248,280,16298,2,0,L|364:260,1,100,0|8,0:0|0:0,0:0:0:0:
346,263,16590,1,0,0:0:0:0:
346,263,16688,1,0,0:0:0:0:
296,348,16882,1,8,0:0:0:0:
176,332,17077,1,0,0:0:0:0:
176,332,17175,1,0,0:0:0:0:
176,332,17272,6,0,P|124:280|176:160,1,200,0|4,0:0|0:0,0:0:0:0:
236,152,17856,1,0,0:0:0:0:
236,152,18051,2,0,P|176:152|144:112,1,100
115,51,18441,1,8,0:0:0:0:
15,224,18636,6,0,L|111:58,1,200,4|0,0:0|0:0,0:0:0:0:
153,128,19220,1,8,0:0:0:0:
61,282,19415,2,0,L|114:197,1,100
113,198,19707,1,8,0:0:0:0:
113,198,19804,1,0,0:0:0:0:
244,212,19999,1,8,0:0:0:0:
248,80,20194,1,0,0:0:0:0:
248,80,20291,1,8,0:0:0:0:
248,80,20389,70,0,P|288:140|336:148,1,100
460,60,20778,2,0,P|400:76|344:204,1,200,8|0,0:0|0:0,0:0:0:0:
356,272,21363,1,0,0:0:0:0:
256,360,21558,1,8,0:0:0:0:
364,352,21752,2,0,P|328:292|272:284,1,100
148,352,22142,6,0,P|184:292|240:284,1,100,0|8,0:0|0:0,0:0:0:0:
148,128,22532,2,0,P|184:188|240:196,1,100
248,200,22824,1,8,0:0:0:0:
284,184,22921,1,0,0:0:0:0:
336,64,23116,2,0,P|300:120|324:188,1,100,8|0,0:0|0:0,0:0:0:0:
324,184,23408,1,8,0:0:0:0:
348,216,23506,6,0,B|400:264|456:240|456:240|440:308|476:336,1,200,0|8,0:0|0:0,0:0:0:0:
392,356,24090,2,0,B|384:344|376:320|376:320|348:316|320:296,1,100
212,340,24480,1,0,0:0:0:0:
176,232,24675,1,8,0:0:0:0:
124,38,24869,6,0,L|176:232,1,200,4|0,0:0|0:0,0:0:0:0:
96,232,25454,1,8,0:0:0:0:
44,40,25649,2,0,L|95:233,1,200,4|8,0:0|0:0,0:0:0:0:
120,308,26233,1,8,0:0:0:0:
240,352,26428,1,0,0:0:0:0:
372,308,26623,69,4,0:0:0:0:
412,152,27012,2,0,P|392:216|336:232,1,100,8|0,0:0|0:0,0:0:0:0:
332,156,27402,2,0,P|304:112|228:104,1,100
256,176,27791,2,0,P|196:204|144:192,1,100,8|0,0:0|0:0,0:0:0:0:
76,68,28181,2,0,P|120:128|80:248,1,200,0|8,0:0|0:0,0:0:0:0:
12,220,28765,2,0,P|64:252|72:312,1,100
0,300,29155,1,0,0:0:0:0:
76,372,29350,1,8,0:0:0:0:
160,300,29545,1,0,0:0:0:0:
160,300,29642,1,0,0:0:0:0:
160,300,29739,5,4,0:0:0:0:
272,348,29934,1,0,0:0:0:0:
388,224,30129,2,0,P|372:296|260:292,1,200,8|0,0:0|0:0,0:0:0:0:
252,216,30713,2,0,P|228:264|176:276,1,100,0|8,0:0|0:0,0:0:0:0:
176,196,31103,1,0,0:0:0:0:
4,93,31298,2,0,L|176:196,1,200,0|8,0:0|0:0,0:0:0:0:
76,40,31882,2,0,L|247:142,1,200
320,112,32467,2,0,P|280:148|348:272,1,200,8|4,0:0|0:0,0:0:0:0:
400,240,33051,1,0,0:0:0:0:
400,240,33149,1,0,0:0:0:0:
400,240,33246,6,0,P|336:284|328:320,1,100,8|0,0:0|0:0,0:0:0:0:
268,352,33636,2,0,P|204:364|152:328,1,100
120,292,34025,2,0,P|112:224|72:188,1,100,8|0,0:0|0:0,0:0:0:0:
202,84,34415,6,0,P|140:164|52:128,1,200,0|8,0:0|0:0,0:0:0:0:
120,84,34999,1,0,0:0:0:0:
201,266,35194,2,0,L|120:84,1,200,0|8,0:0|0:0,0:0:0:0:
56,36,35778,1,0,0:0:0:0:
56,36,35973,70,0,P|152:80|248:36,1,200,0|8,0:0|0:0,0:0:0:0:
316,36,36558,1,0,0:0:0:0:
316,36,36655,1,0,0:0:0:0:
316,36,36752,2,0,L|360:140,1,100
416,76,37142,1,8,0:0:0:0:
336,206,37337,6,0,P|423:169|416:76,1,200
356,128,37921,1,8,0:0:0:0:
416,76,38116,2,0,P|336:52|296:76,1,100
292,76,38408,1,8,0:0:0:0:
260,104,38506,2,0,P|216:128|160:112,1,100,0|8,0:0|0:0,0:0:0:0:
44,192,38895,1,0,0:0:0:0:
44,192,38993,1,8,0:0:0:0:
44,192,39090,6,0,P|64:256|104:272,1,100,4|0,0:0|0:0,0:0:0:0:
262,248,39480,2,0,P|216:236|168:256,1,100,8|0,0:0|0:0,0:0:0:0:
220,316,39869,1,0,0:0:0:0:
300,316,40064,2,0,P|340:268|332:216,1,100,0|8,0:0|0:0,0:0:0:0:
312,156,40454,1,0,0:0:0:0:
484,179,40649,2,0,P|392:209|312:156,1,200,0|8,0:0|0:0,0:0:0:0:
296,76,41233,2,0,P|268:148|236:164,1,100
220,84,41623,1,0,0:0:0:0:
108,128,41817,1,8,0:0:0:0:
128,248,42012,1,0,0:0:0:0:
108,128,42207,6,0,P|96:220|0:232,1,200,4|8,0:0|0:0,0:0:0:0:
36,160,42791,1,0,0:0:0:0:
36,160,42889,1,0,0:0:0:0:
36,160,42986,2,0,L|108:252,1,100
156,296,43376,2,0,P|228:328|272:316,1,100,8|0,0:0|0:0,0:0:0:0:
328,184,43765,2,0,P|272:240|360:344,1,200,0|8,0:0|0:0,0:0:0:0:
348,264,44350,2,0,P|400:224|408:172,1,100
372,40,44739,1,0,0:0:0:0:
372,40,44837,1,0,0:0:0:0:
372,40,44934,2,0,L|272:72,1,100,8|0,0:0|0:0,0:0:0:0:
236,80,45226,1,0,0:0:0:0:
208,112,45324,70,0,L|108:296,1,200,4|8,0:0|0:0,0:0:0:0:
111,128,45908,2,0,L|64:216,1,100
28,288,46298,1,0,0:0:0:0:
112,368,46493,1,8,0:0:0:0:
224,320,46688,1,0,0:0:0:0:
392,216,46882,6,0,P|372:288|236:260,1,200,0|8,0:0|0:0,0:0:0:0:
312,232,47467,2,0,L|332:124,1,100
288,64,47856,2,0,L|388:32,1,100,0|8,0:0|0:0,0:0:0:0:
464,100,48246,1,0,0:0:0:0:
464,100,48441,6,0,P|432:160|392:172,1,100
184,200,48830,2,0,P|240:168|384:204,1,200,8|0,0:0|0:0,0:0:0:0:
420,252,49415,2,0,L|496:340,1,100,0|8,0:0|0:0,0:0:0:0:
179,161,49804,6,0,P|270:123|364:152,1,200,4|8,0:0|0:0,0:0:0:0:
328,252,50389,2,0,L|252:340,1,100,8|0,0:0|0:0,0:0:0:0:
188,352,50778,1,0,0:0:0:0:
188,352,50876,1,0,0:0:0:0:
188,352,50973,1,0,0:0:0:0:
84,272,51168,1,8,0:0:0:0:
72,232,51265,1,0,0:0:0:0:
76,192,51363,1,0,0:0:0:0:
96,160,51460,1,0,0:0:0:0:
132,140,51558,70,0,P|192:148|236:36,1,200,4|8,0:0|0:0,0:0:0:0:
164,68,52142,1,0,0:0:0:0:
192,96,52239,1,0,0:0:0:0:
220,128,52337,1,0,0:0:0:0:
248,156,52434,1,8,0:0:0:0:
276,184,52532,1,0,0:0:0:0:
336,240,52726,1,8,0:0:0:0:
447,123,52921,6,0,P|427:216|336:240,1,200
260,264,53506,2,0,P|184:272|152:304,1,100,8|0,0:0|0:0,0:0:0:0:
136,312,53798,1,0,0:0:0:0:
100,332,53895,1,0,0:0:0:0:
60,332,53993,1,8,0:0:0:0:
28,308,54090,1,0,0:0:0:0:
36,176,54285,2,0,P|84:164|140:180,1,100,8|0,0:0|0:0,0:0:0:0:
164,200,54577,1,0,0:0:0:0:
196,224,54675,6,0,P|260:216|276:76,1,200,4|8,0:0|0:0,0:0:0:0:
228,52,55259,1,0,0:0:0:0:
264,32,55356,1,0,0:0:0:0:
304,24,55454,1,0,0:0:0:0:
344,32,55551,1,8,0:0:0:0:
380,48,55649,1,0,0:0:0:0:
456,20,55843,2,0,P|408:72|408:124,1,100,8|0,0:0|0:0,0:0:0:0:
408,140,56136,1,0,0:0:0:0:
408,180,56233,6,0,P|388:236|248:220,1,200,0|8,0:0|0:0,0:0:0:0:
152,116,56817,1,0,0:0:0:0:
120,44,57012,1,0,0:0:0:0:
88,68,57110,1,8,0:0:0:0:
72,104,57207,1,0,0:0:0:0:
76,144,57304,1,0,0:0:0:0:
104,176,57402,2,0,P|132:248|104:304,1,100,8|0,0:0|0:0,0:0:0:0:
72,324,57791,70,0,P|140:300|220:384,1,200,4|8,0:0|0:0,0:0:0:0:
328,328,58376,2,0,L|400:228,1,100
464,236,58765,2,0,L|424:128,1,100,0|8,0:0|0:0,0:0:0:0:
480,80,59155,1,0,0:0:0:0:
355,110,59350,6,0,P|409:63|480:80,1,150
492,116,59739,2,0,P|472:180|436:196,1,100,8|0,0:0|0:0,0:0:0:0:
368,204,60129,1,0,0:0:0:0:
272,276,60324,1,0,0:0:0:0:
304,160,60519,1,8,0:0:0:0:
344,276,60713,1,0,0:0:0:0:
240,204,60908,6,0,P|196:252|244:352,1,150
240,356,61298,2,0,P|176:332|40:364,1,200,8|0,0:0|0:0,0:0:0:0:
12,288,61882,1,0,0:0:0:0:
16,160,62077,1,8,0:0:0:0:
203,90,62272,6,0,L|16:160,1,200
168,184,62856,2,0,L|272:144,1,100,8|0,0:0|0:0,0:0:0:0:
324,204,63246,2,0,P|291:167|291:118,1,100
396,236,63636,2,0,P|436:284|432:336,1,100,8|0,0:0|0:0,0:0:0:0:
360,308,64025,70,0,L|266:343,1,100,4|0,0:0|0:0,0:0:0:0:
176,296,64415,2,0,L|116:192,1,100,8|0,0:0|0:0,0:0:0:0:
168,104,64804,2,0,L|261:68,1,100,8|0,0:0|0:0,0:0:0:0:
348,120,65194,2,0,L|397:206,1,100,8|0,0:0|0:0,0:0:0:0:
256,192,65584,12,4,66558,0:0:0:0:
256,88,67142,6,0,P|280:148|416:152,1,200,4|8,0:0|0:0,0:0:0:0:
420,84,67726,2,0,P|436:144|496:160,1,100
492,236,68116,1,0,0:0:0:0:
384,344,68311,1,8,0:0:0:0:
256,264,68506,2,0,P|200:268|156:312,1,100
232,340,68895,6,0,P|184:372|132:368,1,100,0|8,0:0|0:0,0:0:0:0:
84,320,69285,1,0,0:0:0:0:
52,156,69480,1,0,0:0:0:0:
52,156,69577,1,8,0:0:0:0:
52,156,69675,1,0,0:0:0:0:
224,112,69869,2,0,P|156:124|112:92,1,100,8|0,0:0|0:0,0:0:0:0:
104,80,70162,1,8,0:0:0:0:
92,40,70259,5,0,0:0:0:0:
224,112,70454,1,0,0:0:0:0:
356,240,70649,2,0,P|284:184|288:56,1,200,4|0,0:0|0:0,0:0:0:0:
356,72,71233,2,0,L|464:44,1,100,0|8,0:0|0:0,0:0:0:0:
444,128,71623,2,0,L|520:192,1,100
460,244,72012,70,0,L|492:340,1,100,0|8,0:0|0:0,0:0:0:0:
412,352,72402,1,0,0:0:0:0:
288,264,72597,2,0,L|324:200,2,50,0|8|0,0:0|0:0|0:0,0:0:0:0:
248,332,72986,1,8,0:0:0:0:
144,224,73181,1,0,0:0:0:0:
144,224,73278,1,8,0:0:0:0:
144,224,73376,5,0,0:0:0:0:
68,196,73571,1,0,0:0:0:0:
163,68,73765,2,0,P|156:163|68:196,1,200,4|0,0:0|0:0,0:0:0:0:
24,128,74350,2,0,P|40:196|20:248,1,100,0|8,0:0|0:0,0:0:0:0:
8,300,74739,2,0,P|40:360|88:372,1,100
88,292,75129,5,0,0:0:0:0:
216,248,75324,1,8,0:0:0:0:
336,292,75519,1,0,0:0:0:0:
216,248,75713,2,0,L|216:180,2,50,0|8|0,0:0|0:0|0:0,0:0:0:0:
276,300,76103,2,0,P|344:264|360:224,1,100,8|0,0:0|0:0,0:0:0:0:
356,208,76395,1,8,0:0:0:0:
356,168,76493,5,0,0:0:0:0:
300,112,76688,2,0,P|352:136|404:120,2,100,0|8|0,0:0|0:0|0:0,0:0:0:0:
356,56,77272,1,8,0:0:0:0:
496,40,77467,1,8,0:0:0:0:
488,184,77662,1,8,0:0:0:0:
328,304,77856,70,0,L|488:184,1,200,4|0,0:0|0:0,0:0:0:0:
415,143,78441,1,8,0:0:0:0:
256,264,78636,2,0,L|415:143,1,200,4|0,0:0|0:0,0:0:0:0:
316,48,79220,1,8,0:0:0:0:
300,84,79317,1,0,0:0:0:0:
264,104,79415,1,8,0:0:0:0:
224,104,79512,1,0,0:0:0:0:
192,80,79610,6,0,P|192:140|164:176,1,100,4|0,0:0|0:0,0:0:0:0:
116,328,79999,2,0,P|108:272|144:220,1,100,4|0,0:0|0:0,0:0:0:0:
188,288,80389,1,0,0:0:0:0:
312,356,80584,1,0,0:0:0:0:
440,292,80778,1,8,0:0:0:0:
460,216,80973,2,0,P|412:264|364:268,1,100
384,188,81363,6,0,P|380:120|408:84,1,100,0|8,0:0|0:0,0:0:0:0:
464,56,81752,2,0,P|400:72|344:52,1,100
332,48,82045,1,8,0:0:0:0:
296,28,82142,1,0,0:0:0:0:
140,48,82337,1,8,0:0:0:0:
168,204,82532,1,0,0:0:0:0:
168,204,82629,1,8,0:0:0:0:
168,204,82726,6,0,P|88:232|104:360,1,200,0|4,0:0|0:0,0:0:0:0:
152,288,83311,2,0,L|248:324,1,100
264,244,83700,2,0,L|380:212,1,100,0|8,0:0|0:0,0:0:0:0:
320,148,84090,2,0,L|376:64,1,100
312,16,84480,69,0,0:0:0:0:
440,120,84675,1,8,0:0:0:0:
436,288,84869,1,0,0:0:0:0:
368,244,85064,2,0,L|304:200,2,50,0|8|0,0:0|0:0|0:0,0:0:0:0:
300,288,85454,2,0,L|200:220,1,100,8|0,0:0|0:0,0:0:0:0:
184,208,85746,1,8,0:0:0:0:
152,188,85843,5,0,0:0:0:0:
72,184,86038,1,0,0:0:0:0:
126,37,86233,2,0,P|148:129|72:184,1,200,4|0,0:0|0:0,0:0:0:0:
72,100,86817,2,0,L|-20:140,1,100,0|8,0:0|0:0,0:0:0:0:
72,184,87207,2,0,L|32:288,1,100
144,228,87597,6,0,L|168:332,1,100,0|8,0:0|0:0,0:0:0:0:
228,232,87986,1,0,0:0:0:0:
364,288,88181,1,0,0:0:0:0:
364,288,88278,1,8,0:0:0:0:
364,288,88376,1,0,0:0:0:0:
480,192,88571,2,0,P|420:152|408:104,1,100,8|0,0:0|0:0,0:0:0:0:
408,88,88863,1,8,0:0:0:0:
416,48,88960,5,0,0:0:0:0:
336,44,89155,1,0,0:0:0:0:
256,160,89350,1,8,0:0:0:0:
168,40,89545,1,0,0:0:0:0:
112,204,89739,1,8,0:0:0:0:
256,292,89934,1,8,0:0:0:0:
400,204,90129,1,8,0:0:0:0:
242,80,90324,70,0,L|400:204,1,200,4|8,0:0|0:0,0:0:0:0:
330,240,90908,1,8,0:0:0:0:
172,116,91103,2,0,L|329:239,1,200,4|8,0:0|0:0,0:0:0:0:
396,288,91688,1,8,0:0:0:0:
256,352,91882,1,0,0:0:0:0:
256,352,91980,1,8,0:0:0:0:
256,352,92077,1,4,0:0:0:0:
120,288,92467,6,0,P|80:232|140:120,1,200,8|0,0:0|0:0,0:0:0:0:
208,144,93051,2,0,P|156:116|140:52,1,100,4|8,0:0|0:0,0:0:0:0:
420,68,93441,6,0,L|220:68,1,200,0|8,0:0|0:0,0:0:0:0:
208,144,94025,1,8,0:0:0:0:
360,208,94220,1,8,0:0:0:0:
232,308,94415,1,8,0:0:0:0:
360,208,94610,2,0,L|464:208,1,100,4|8,0:0|0:0,0:0:0:0:
232,308,94999,6,0,L|32:308,1,200,4|0,0:0|0:0,0:0:0:0:
44,228,95584,2,0,P|136:188|132:88,1,200,8|0,0:0|0:0,0:0:0:0:
60,140,96168,1,0,0:0:0:0:
216,56,96363,1,8,0:0:0:0:
312,136,96558,2,0,P|264:88|272:36,1,100
344,64,96947,69,0,0:0:0:0:
448,192,97142,1,8,0:0:0:0:
388,296,97337,2,0,P|432:248|492:244,1,100
464,320,97726,1,0,0:0:0:0:
296,240,97921,1,8,0:0:0:0:
148,316,98116,1,0,0:0:0:0:
148,316,98213,1,0,0:0:0:0:
148,316,98311,1,4,0:0:0:0:
256,192,98408,12,4,100843,0:0:0:0:
128,60,113895,54,0,P|148:148|276:180,1,200,4|8,0:0|0:0,0:0:0:0:
308,144,114480,1,0,0:0:0:0:
264,272,114675,1,0,0:0:0:0:
288,60,114869,1,0,0:0:0:0:
392,164,115064,1,8,0:0:0:0:
288,60,115259,1,0,0:0:0:0:
96,104,115454,2,0,P|152:128|260:44,1,200,0|8,0:0|0:0,0:0:0:0:
164,32,116038,2,0,L|196:144,1,100
195,300,116428,2,0,L|168:204,1,100,0|8,0:0|0:0,0:0:0:0:
144,360,116817,1,0,0:0:0:0:
144,360,116915,1,0,0:0:0:0:
144,360,117012,6,0,P|204:328|260:332,1,100
348,368,117402,2,0,P|288:336|272:288,1,100,4|0,0:0|0:0,0:0:0:0:
280,228,117791,1,0,0:0:0:0:
376,140,117986,1,0,0:0:0:0:
248,152,118181,1,8,0:0:0:0:
360,220,118376,1,0,0:0:0:0:
308,92,118571,2,0,P|360:116|456:28,1,200,0|8,0:0|0:0,0:0:0:0:
236,48,119155,2,0,P|184:24|88:112,1,200
176,112,119739,1,8,0:0:0:0:
60,184,119934,1,0,0:0:0:0:
172,268,120129,37,0,0:0:0:0:
60,344,120324,1,0,0:0:0:0:
60,344,120421,1,0,0:0:0:0:
60,344,120519,2,0,P|148:304|168:304,1,100,8|0,0:0|0:0,0:0:0:0:
248,352,120908,2,0,P|204:312|196:264,1,100
276,276,121298,1,8,0:0:0:0:
396,176,121493,1,0,0:0:0:0:
276,80,121688,6,0,P|344:136|444:104,1,200,0|8,0:0|0:0,0:0:0:0:
364,48,122272,2,0,L|457:12,1,100
510,178,122662,2,0,L|440:104,1,100,0|8,0:0|0:0,0:0:0:0:
432,220,123051,1,0,0:0:0:0:
432,220,123149,1,0,0:0:0:0:
432,220,123246,5,0,0:0:0:0:
456,356,123441,1,8,0:0:0:0:
308,216,123636,1,8,0:0:0:0:
264,328,123830,1,0,0:0:0:0:
264,328,123928,1,0,0:0:0:0:
264,328,124025,2,0,P|268:264|156:196,1,200,4|8,0:0|0:0,0:0:0:0:
104,248,124610,1,0,0:0:0:0:
104,248,124707,1,0,0:0:0:0:
104,248,124804,6,0,L|140:124,2,100,4|0|8,0:0|0:0|0:0,0:0:0:0:
120,328,125389,1,0,0:0:0:0:
44,304,125584,1,0,0:0:0:0:
24,268,125681,1,0,0:0:0:0:
20,228,125778,1,8,0:0:0:0:
32,188,125876,1,8,0:0:0:0:
56,156,125973,1,8,0:0:0:0:
92,136,126071,1,0,0:0:0:0:
132,136,126168,1,8,0:0:0:0:
172,144,126265,1,8,0:0:0:0:
232,220,126363,70,0,P|184:176|168:124,1,100,4|0,0:0|0:0,0:0:0:0:
180,104,126655,1,0,0:0:0:0:
200,68,126752,2,0,P|260:20|304:16,1,100,8|0,0:0|0:0,0:0:0:0:
320,24,127045,1,0,0:0:0:0:
344,56,127142,2,0,P|372:108|436:120,2,100,0|0|8,0:0|0:0|0:0,0:0:0:0:
424,44,127726,2,0,P|472:72|488:124,1,100
484,192,128116,6,0,L|508:252,2,50,0|0|8,0:0|0:0|0:0,0:0:0:0:
400,252,128506,2,0,L|404:308,2,50
296,268,128895,2,0,L|264:308,2,50,0|0|8,0:0|0:0|0:0,0:0:0:0:
240,172,129285,1,0,0:0:0:0:
240,172,129382,1,0,0:0:0:0:
240,172,129480,6,0,P|188:228|80:184,1,200,0|8,0:0|0:0,0:0:0:0:
108,112,130064,2,0,L|44:204,1,100
44,276,130454,2,0,L|104:356,1,100,0|8,0:0|0:0,0:0:0:0:
288,256,130843,6,0,P|220:224|240:112,1,200,0|0,0:0|0:0,0:0:0:0:
288,176,131428,1,8,0:0:0:0:
148,28,131623,2,0,L|260:80,1,100
276,88,131915,1,8,0:0:0:0:
312,104,132012,1,0,0:0:0:0:
456,72,132207,2,0,P|456:132|420:176,1,100,8|0,0:0|0:0,0:0:0:0:
408,192,132499,1,0,0:0:0:0:
376,216,132597,70,0,P|308:236|304:364,1,200,4|8,0:0|0:0,0:0:0:0:
368,300,133181,1,0,0:0:0:0:
368,300,133278,1,0,0:0:0:0:
368,300,133376,2,0,L|248:244,1,100
200,280,133765,1,8,0:0:0:0:
155,85,133960,6,0,L|200:280,1,200
120,268,134545,1,8,0:0:0:0:
98,170,134739,2,0,L|120:268,1,100
128,308,135032,1,8,0:0:0:0:
152,340,135129,1,0,0:0:0:0:
280,344,135324,2,0,P|312:296|360:280,1,100,8|0,0:0|0:0,0:0:0:0:
388,284,135616,1,0,0:0:0:0:
424,304,135713,6,0,L|424:192,1,100
496,172,136103,2,0,L|424:88,1,100,8|0,0:0|0:0,0:0:0:0:
412,16,136493,2,0,L|316:60,1,100
248,92,136882,1,8,0:0:0:0:
78,91,137077,6,0,P|162:136|248:92,1,200,4|0,0:0|0:0,0:0:0:0:
291,206,137662,1,8,0:0:0:0:
460,208,137856,2,0,P|375:162|290:207,1,200,4|0,0:0|0:0,0:0:0:0:
376,256,138441,1,8,0:0:0:0:
324,316,138636,1,0,0:0:0:0:
324,316,138733,1,0,0:0:0:0:
324,316,138830,69,4,0:0:0:0:
244,300,139025,2,0,L|156:224,1,100,0|8,0:0|0:0,0:0:0:0:
92,256,139415,2,0,L|76:144,1,100
4,124,139804,2,0,L|68:32,1,100,0|8,0:0|0:0,0:0:0:0:
316,65,140194,6,0,P|226:103|136:68,1,200,4|0,0:0|0:0,0:0:0:0:
72,116,140778,2,0,L|58:215,1,100,8|0,0:0|0:0,0:0:0:0:
138,211,141168,2,0,L|195:292,1,100
254,238,141558,2,0,L|351:261,1,100,8|0,0:0|0:0,0:0:0:0:
392,272,141850,1,8,0:0:0:0:
432,280,141947,6,0,P|412:212|480:88,1,200,0|8,0:0|0:0,0:0:0:0:
488,24,142532,2,0,P|424:60|368:56,1,100
320,60,142921,1,0,0:0:0:0:
224,196,143116,1,8,0:0:0:0:
120,60,143311,6,0,L|320:60,1,200,4|0,0:0|0:0,0:0:0:0:
224,196,143895,1,8,0:0:0:0:
120,324,144090,2,0,L|320:324,1,200,4|0,0:0|0:0,0:0:0:0:
336,244,144675,2,0,P|348:312|396:336,1,100,8|0,0:0|0:0,0:0:0:0:
408,344,144967,1,0,0:0:0:0:
448,344,145064,69,0,0:0:0:0:
428,256,145259,1,0,0:0:0:0:
348,84,145454,1,8,0:0:0:0:
416,40,145649,2,0,L|468:8,2,50
272,128,146038,2,0,L|220:160,2,50,0|0|8,0:0|0:0|0:0,0:0:0:0:
112,84,146428,2,0,L|60:40,2,50
192,100,146817,6,0,P|132:120|96:172,1,100,0|8,0:0|0:0,0:0:0:0:
64,216,147207,1,0,0:0:0:0:
176,320,147402,1,0,0:0:0:0:
176,320,147499,1,8,0:0:0:0:
176,320,147597,1,0,0:0:0:0:
244,360,147791,2,0,P|208:300|224:248,1,100,8|0,0:0|0:0,0:0:0:0:
224,236,148084,1,0,0:0:0:0:
248,204,148181,5,0,0:0:0:0:
324,180,148376,2,0,P|260:172|232:136,1,100,0|8,0:0|0:0,0:0:0:0:
208,76,148765,1,0,0:0:0:0:
344,36,148960,1,0,0:0:0:0:
416,152,149155,1,0,0:0:0:0:
380,284,149350,1,8,0:0:0:0:
201,193,149545,6,0,L|380:284,1,200,4|0,0:0|0:0,0:0:0:0:
320,340,150129,1,8,0:0:0:0:
141,250,150324,2,0,L|319:340,1,200,4|8,0:0|0:0,0:0:0:0:
144,48,150908,2,0,P|132:144|40:184,1,200,8|4,0:0|0:0,0:0:0:0:
256,192,151395,12,2,154025,0:0:0:0:
156,224,154415,37,0,0:0:0:0:
156,224,154512,1,0,0:0:0:0:
156,224,154610,1,0,0:0:0:0:
76,212,154804,2,0,P|104:164|232:188,1,200,8|0,0:0|0:0,0:0:0:0:
284,244,155389,1,0,0:0:0:0:
424,344,155584,2,0,L|376:244,1,100,8|0,0:0|0:0,0:0:0:0:
440,200,155973,5,0,0:0:0:0:
397,110,156168,2,0,L|440:200,1,100,0|8,0:0|0:0,0:0:0:0:
256,36,156558,1,0,0:0:0:0:
256,36,156655,1,0,0:0:0:0:
256,36,156752,1,0,0:0:0:0:
115,110,156947,2,0,L|71:200,1,100,0|8,0:0|0:0,0:0:0:0:
256,236,157337,1,0,0:0:0:0:
256,36,157532,102,0,L|256:248,1,200,4|8,0:0|0:0,0:0:0:0:
332,256,158116,2,0,P|272:268|240:316,1,100
196,360,158506,2,0,P|132:364|96:332,1,100,0|8,0:0|0:0,0:0:0:0:
72,272,158895,1,0,0:0:0:0:
205,122,159090,6,0,L|72:272,1,200,0|8,0:0|0:0,0:0:0:0:
32,204,159675,2,0,L|104:124,1,100
92,48,160064,2,0,P|120:112|180:124,1,100,0|8,0:0|0:0,0:0:0:0:
224,120,160454,1,0,0:0:0:0:
408,232,160649,102,0,P|340:160|224:176,1,200,4|8,0:0|0:0,0:0:0:0:
184,212,161233,2,0,L|104:284,1,100
248,264,161623,2,0,L|322:197,1,100,0|8,0:0|0:0,0:0:0:0:
488,136,162012,6,0,P|412:164|292:120,1,200
304,48,162597,2,0,P|280:100|216:116,1,100,8|0,0:0|0:0,0:0:0:0:
164,112,162986,1,0,0:0:0:0:
72,208,163181,1,0,0:0:0:0:
200,184,163376,1,8,0:0:0:0:
84,128,163571,1,0,0:0:0:0:
144,248,163765,102,0,L|228:312,1,100,8|0,0:0|0:0,0:0:0:0:
272,244,164155,2,0,L|392:248,1,100,8|0,0:0|0:0,0:0:0:0:
356,168,164545,2,0,L|448:104,1,100,8|0,0:0|0:0,0:0:0:0:
388,48,164934,1,8,0:0:0:0:
192,88,165129,1,0,0:0:0:0:
192,88,165226,1,0,0:0:0:0:
192,88,165324,6,0,L|112:168,1,100,8|0,0:0|0:0,0:0:0:0:
156,328,165713,1,8,0:0:0:0:
122,159,165908,2,0,P|126:239|246:291,1,200,4|4,0:0|0:0,0:0:0:0:
440,60,166688,1,0,0:0:0:0:
440,60,166785,1,0,0:0:0:0:
440,60,166882,1,2,0:0:0:0:
256,192,173116,101,4,0:0:0:0:
448,48,174480,5,4,0:0:0:0:
44,344,176233,101,4,0:0:0:0:
196,136,177012,5,8,0:0:0:0:
316,248,177207,1,0,0:0:0:0:
172,280,177402,1,8,0:0:0:0:
340,104,177597,102,0,P|392:144|512:92,1,200,4|8,0:0|0:0,0:0:0:0:
256,192,178181,1,8,0:0:0:0:
171,104,178376,2,0,P|87:148|4:100,1,200,4|8,0:0|0:0,0:0:0:0:
24,240,178960,1,8,0:0:0:0:
64,240,179058,1,0,0:0:0:0:
100,256,179155,1,0,0:0:0:0:
120,288,179252,1,0,0:0:0:0:
128,328,179350,6,0,P|176:288|312:320,1,200,4|8,0:0|0:0,0:0:0:0:
425,153,179934,2,0,L|302:311,1,200,4|0,0:0|0:0,0:0:0:0:
252,372,180519,1,8,0:0:0:0:
256,212,180908,5,4,0:0:0:0:
172,72,181103,1,0,0:0:0:0:
172,72,181200,1,0,0:0:0:0:
172,72,181298,2,0,P|140:120|76:140,1,100,8|0,0:0|0:0,0:0:0:0:
44,84,181688,2,0,P|72:136|68:192,1,100
64,256,182077,1,8,0:0:0:0:
252,188,182272,6,0,L|64:256,1,200
188,296,182856,2,0,L|288:260,1,100,8|0,0:0|0:0,0:0:0:0:
452,320,183246,1,0,0:0:0:0:
452,320,183343,1,8,0:0:0:0:
452,320,183441,1,0,0:0:0:0:
456,104,183636,1,8,0:0:0:0:
392,208,183830,1,0,0:0:0:0:
392,208,183928,1,8,0:0:0:0:
392,208,184025,6,0,P|340:156|332:112,1,100
136,80,184415,2,0,L|344:80,1,200,4|0,0:0|0:0,0:0:0:0:
232,156,184999,2,0,L|128:156,1,100,0|8,0:0|0:0,0:0:0:0:
60,120,185389,2,0,P|100:172|96:216,1,100
80,280,185778,6,0,P|100:340|140:360,1,100,0|8,0:0|0:0,0:0:0:0:
160,284,186168,1,0,0:0:0:0:
296,232,186363,1,0,0:0:0:0:
296,232,186460,1,8,0:0:0:0:
296,232,186558,1,0,0:0:0:0:
384,340,186752,2,0,P|428:296|432:244,1,100,8|0,0:0|0:0,0:0:0:0:
432,220,187045,1,8,0:0:0:0:
416,184,187142,5,0,0:0:0:0:
448,64,187337,1,0,0:0:0:0:
290,141,187532,2,0,P|387:139|448:64,1,200,4|0,0:0|0:0,0:0:0:0:
348,60,188116,2,0,L|240:40,1,100,0|8,0:0|0:0,0:0:0:0:
212,112,188506,2,0,L|112:168,1,100
172,224,188895,6,0,L|136:320,1,100,0|8,0:0|0:0,0:0:0:0:
208,356,189285,1,0,0:0:0:0:
320,276,189480,1,0,0:0:0:0:
320,276,189577,1,8,0:0:0:0:
320,276,189675,1,0,0:0:0:0:
436,352,189869,2,0,P|416:288|432:244,1,100,8|0,0:0|0:0,0:0:0:0:
444,224,190162,1,8,0:0:0:0:
468,192,190259,37,0,0:0:0:0:
364,108,190454,1,0,0:0:0:0:
216,108,190649,1,8,0:0:0:0:
64,44,190843,2,0,P|112:100|120:148,1,100
172,304,191233,2,0,P|128:260|120:208,1,100,0|8,0:0|0:0,0:0:0:0:
408,228,191623,6,0,L|208:228,1,200,4|8,0:0|0:0,0:0:0:0:
172,156,192207,1,8,0:0:0:0:
372,156,192402,2,0,L|172:156,1,200,4|8,0:0|0:0,0:0:0:0:
136,84,192986,1,8,0:0:0:0:
104,108,193084,1,0,0:0:0:0:
88,144,193181,1,8,0:0:0:0:
92,184,193278,1,0,0:0:0:0:
112,220,193376,6,0,P|124:268|96:320,1,100,4|0,0:0|0:0,0:0:0:0:
64,384,193765,2,0,P|144:360|180:368,1,100,4|0,0:0|0:0,0:0:0:0:
244,368,194155,1,0,0:0:0:0:
352,300,194350,1,0,0:0:0:0:
224,288,194545,1,8,0:0:0:0:
324,376,194739,1,0,0:0:0:0:
296,240,194934,6,0,P|356:216|408:236,1,100
452,272,195324,2,0,P|428:220|444:164,1,100,8|0,0:0|0:0,0:0:0:0:
496,68,195713,1,0,0:0:0:0:
496,68,195811,1,8,0:0:0:0:
496,68,195908,1,0,0:0:0:0:
360,28,196103,1,8,0:0:0:0:
292,152,196298,1,0,0:0:0:0:
292,152,196395,1,8,0:0:0:0:
292,152,196493,6,0,P|244:188|180:184,1,100
96,104,196882,2,0,P|132:124|160:184,1,100,4|0,0:0|0:0,0:0:0:0:
72,192,197272,1,0,0:0:0:0:
128,324,197467,1,0,0:0:0:0:
288,288,197662,1,8,0:0:0:0:
436,360,197856,2,0,P|420:300|440:252,1,100
448,76,198246,6,0,P|464:136|444:184,1,100,0|8,0:0|0:0,0:0:0:0:
384,128,198636,1,0,0:0:0:0:
288,208,198830,1,0,0:0:0:0:
288,208,198928,1,8,0:0:0:0:
288,208,199025,1,0,0:0:0:0:
164,136,199220,2,0,P|136:184|144:232,1,100,8|0,0:0|0:0,0:0:0:0:
156,264,199512,1,8,0:0:0:0:
176,300,199610,37,0,0:0:0:0:
276,364,199804,1,0,0:0:0:0:
156,264,199999,2,0,P|92:244|48:112,1,200,4|0,0:0|0:0,0:0:0:0:
32,48,200584,2,0,P|64:96|120:96,1,100,0|8,0:0|0:0,0:0:0:0:
256,152,200973,2,0,P|224:104|168:104,1,100
180,180,201363,6,0,P|216:228|268:228,1,100,0|8,0:0|0:0,0:0:0:0:
408,280,201752,2,0,P|372:232|320:232,1,100
296,240,202045,1,8,0:0:0:0:
272,272,202142,1,0,0:0:0:0:
172,352,202337,1,8,0:0:0:0:
68,276,202532,1,0,0:0:0:0:
68,276,202629,1,0,0:0:0:0:
68,276,202726,5,0,0:0:0:0:
56,116,202921,2,0,P|104:156|152:152,1,100,0|8,0:0|0:0,0:0:0:0:
216,136,203311,1,0,0:0:0:0:
340,96,203506,1,0,0:0:0:0:
216,56,203700,1,8,0:0:0:0:
292,160,203895,1,8,0:0:0:0:
420,113,204090,6,0,P|385:26|292:32,1,200,4|8,0:0|0:0,0:0:0:0:
232,216,204675,1,8,0:0:0:0:
219,352,204869,2,0,P|126:357|91:270,1,200,4|8,0:0|0:0,0:0:0:0:
120,196,205454,1,8,0:0:0:0:
224,88,205649,1,0,0:0:0:0:
224,88,205746,1,8,0:0:0:0:
224,88,205843,1,4,0:0:0:0:
256,192,205941,12,4,208960,0:0:0:0:
352,112,209350,5,0,0:0:0:0:
308,240,209545,1,0,0:0:0:0:
256,108,209739,1,8,0:0:0:0:
204,240,209934,1,0,0:0:0:0:
160,112,210129,1,0,0:0:0:0:
8,48,210324,6,0,P|48:112|148:56,1,200,4|0,0:0|0:0,0:0:0:0:
220,40,210908,2,0,P|248:92|308:100,1,100,0|0,0:0|0:0,0:0:0:0:
364,108,211298,2,0,P|420:128|444:172,1,100,8|0,0:0|0:0,0:0:0:0:
368,192,211688,1,8,0:0:0:0:
280,320,211882,1,0,0:0:0:0:
464,340,212077,38,0,P|400:300|316:384,1,200,4|0,0:0|0:0,0:0:0:0:
236,380,212662,2,0,P|184:376|144:336,1,100,0|8,0:0|0:0,0:0:0:0:
136,268,213051,2,0,P|100:192|68:184,1,100,0|0,0:0|0:0,0:0:0:0:
60,260,213441,1,8,0:0:0:0:
236,164,213636,6,0,L|60:260,1,200,0|8,0:0|0:0,0:0:0:0:
44,180,214220,2,0,L|140:128,1,100,0|8,0:0|0:0,0:0:0:0:
191,48,214610,2,0,L|92:60,1,100,0|0,0:0|0:0,0:0:0:0:
272,40,214999,1,0,0:0:0:0:
456,140,215194,6,0,P|448:208|324:224,1,200,4|8,0:0|0:0,0:0:0:0:
316,156,215778,1,0,0:0:0:0:
296,304,215973,1,8,0:0:0:0:
240,192,216168,1,0,0:0:0:0:
140,288,216363,1,8,0:0:0:0:
256,192,216558,12,4,218311,0:0:0:0:
