osu file format v13

[General]
AudioFilename: Gumi - A Town Nearing Spring ().mp3
AudioLeadIn: 0
PreviewTime: 57263
Countdown: 0
SampleSet: None
StackLeniency: 0.7
Mode: 0
LetterboxInBreaks: 0
WidescreenStoryboard: 1

[Editor]
DistanceSpacing: 0.5
BeatDivisor: 8
GridSize: 4
TimelineZoom: 2.1

[Metadata]
Title:A Town Nearing Spring
TitleUnicode:A Town Nearing Spring
Artist:40mP
ArtistUnicode:40mP
Creator:Xivaxi
Version:Insane
Source:
Tags:
BeatmapID:467205
BeatmapSetID:162324

[Difficulty]
HPDrainRate:6
CircleSize:4
OverallDifficulty:6
ApproachRate:8
SliderMultiplier:1.8
SliderTickRate:2

[Events]
//Background and Video events
0,0,"spring_bg6.png",0,0
//Break Periods
2,21177,29370
2,101177,107084
//Storyboard Layer 0 (Background)
//Storyboard Layer 1 (Fail)
//Storyboard Layer 2 (Pass)
//Storyboard Layer 3 (Foreground)
//Storyboard Sound Samples
//Background Colour Transformations
3,100,255,255,255

[TimingPoints]
11835,571.428571428571,4,2,1,40,1,0
18692,-100,4,2,1,60,0,0
20692,-66.6666666666667,4,2,1,40,0,0
20977,-66.6666666666667,4,2,1,80,0,0
30120,-100,4,2,1,60,0,0
39834,-100,4,2,1,40,0,0
57263,-100,4,2,1,50,0,0
66406,-100,4,2,1,60,0,0
73549,-66.6666666666667,4,2,1,70,0,0
75834,-66.6666666666667,4,2,1,70,0,1
98406,-66.6666666666667,4,2,1,90,0,1
98692,-66.6666666666667,4,2,1,60,0,0
115834,-66.6666666666667,4,2,1,70,0,0
116977,-66.6666666666667,4,2,1,80,0,0
117549,-100,4,2,1,50,0,0
151263,-100,4,2,1,70,0,0
162977,-100,4,2,1,50,0,0
220977,-66.6666666666667,4,2,1,60,0,0
222120,-50,4,2,1,80,0,1
244977,-100,4,2,1,90,0,0
249263,-50,4,2,1,90,0,0

[Colours]
Combo1 : 128,255,255
Combo2 : 128,255,128
Combo3 : 255,255,128

[HitObjects]
50,246,11835,6,0,P|138:238|209:182,1,180,0|0,0:0|0:0,0:0:0:0:
248,104,12549,1,0,0:0:0:0:
306,165,12692,2,0,P|360:122|434:113,1,135,0|0,0:0|0:0,0:0:0:0:
473,200,13263,2,0,L|423:224,1,45,0|0,0:0|0:0,0:0:0:0:
396,332,13549,2,0,L|452:303,1,45,0|0,0:0|0:0,0:0:0:0:
307,276,13835,1,0,0:0:0:0:
195,234,14120,6,0,B|222:204|222:204|195:146|221:64,1,180,0|0,0:0|0:0,0:0:0:0:
304,40,14835,1,0,0:0:0:0:
400,72,14977,2,0,P|365:118|364:199,1,135,0|0,0:0|0:0,0:0:0:0:
177,290,15549,2,0,L|217:322,1,45,0|0,0:0|0:0,0:0:0:0:
329,339,15835,2,0,L|289:307,1,45,0|0,0:0|0:0,0:0:0:0:
282,207,16120,2,0,L|297:220,6,11.25,0|0|0|0|0|0|0,0:0|0:0|0:0|0:0|0:0|0:0|0:0,0:0:0:0:
256,184,16406,6,0,P|276:58|297:185,2,360,0|0|2,0:0|0:0|0:0,0:0:0:0:
279,124,19263,1,2,0:0:0:0:
135,131,19692,5,4,0:3:0:0:
130,143,19763,1,4,0:3:0:0:
126,156,19835,2,0,L|186:139,1,45,8|8,1:3|0:3,0:0:0:0:
254,207,20120,1,8,0:3:0:0:
263,217,20263,1,4,0:3:0:0:
135,249,20406,2,0,L|87:264,1,45,0|8,1:0|0:3,0:0:0:0:
93,122,20692,2,0,B|105:89|105:89|150:117|222:117,1,135.000005149841,12|4,1:3|1:0,0:0:0:0:
80,224,30120,6,0,P|112:188|154:176,1,90,4|0,0:1|0:0,0:0:0:0:
222,236,30549,1,0,0:0:0:0:
351,216,30692,2,0,L|307:249,1,45,0|0,1:0|0:0,0:0:0:0:
223,138,30977,2,0,P|284:75|371:60,1,180,4|4,0:0|0:0,0:0:0:0:
199,221,31834,1,0,1:0:0:0:
132,302,31977,1,0,0:0:0:0:
231,322,32120,1,0,0:0:0:0:
423,217,32406,6,0,P|387:251|345:262,1,90,4|0,0:0|0:0,0:0:0:0:
374,153,32834,1,0,0:0:0:0:
400,36,32977,2,0,L|360:64,1,45,0|0,1:0|0:0,0:0:0:0:
164,216,33263,2,0,P|250:190|293:105,1,180,4|4,0:0|0:0,0:0:0:0:
40,168,34120,5,0,1:0:0:0:
58,90,34263,1,0,0:0:0:0:
122,144,34406,1,0,0:0:0:0:
155,76,34549,1,0,0:0:0:0:
200,176,34692,2,0,P|239:153|251:95,1,90,4|0,0:1|0:0,0:0:0:0:
224,40,35120,1,0,0:0:0:0:
328,80,35263,1,0,0:0:0:0:
122,329,35549,2,0,P|157:287|166:243,1,90,4|2,0:0|0:0,0:0:0:0:
428,68,36120,5,4,0:0:0:0:
320,226,36406,1,2,0:0:0:0:
414,180,36549,2,0,P|437:218|444:273,1,90,0|0,0:0|0:0,0:0:0:0:
469,212,36977,2,0,P|469:165|480:124,2,90,0|0|0,0:0|1:0|1:0,0:0:0:0:
391,253,37692,1,4,0:0:0:0:
391,341,37834,1,0,0:0:0:0:
128,184,38120,6,0,L|180:168,1,45,0|0,1:0|1:0,0:0:0:0:
256,112,38406,1,4,0:0:0:0:
256,224,38549,1,4,0:0:0:0:
384,184,38692,2,0,L|330:167,1,45,0|0,1:0|1:0,0:0:0:0:
256,104,38977,1,4,0:0:0:0:
256,232,39120,1,0,1:0:0:0:
256,168,39263,1,4,0:1:0:0:
369,106,39834,6,0,L|418:95,1,45,0|0,0:0|0:0,0:0:0:0:
393,206,40263,2,0,P|354:236|309:240,1,90,0|0,0:0|0:0,0:0:0:0:
186,169,40692,2,0,P|216:147|275:140,1,90,0|0,0:0|0:0,0:0:0:0:
257,282,41263,1,0,0:0:0:0:
251,291,41406,1,0,0:0:0:0:
246,300,41549,2,0,B|230:326|230:326|214:298|172:282,1,90,0|0,0:0|0:0,0:0:0:0:
337,215,41977,2,0,B|354:193|354:193|385:228|459:236,1,135,0|0,0:0|0:0,0:0:0:0:
438,130,42549,2,0,P|408:61|347:43,1,135,0|0,0:0|0:0,0:0:0:0:
234,237,43263,1,0,0:0:0:0:
319,156,43549,2,0,L|365:115,2,45,0|0|0,0:0|0:0|0:0,0:0:0:0:
96,64,44406,6,0,L|140:16,1,45,0|0,0:0|0:0,0:0:0:0:
242,72,44834,2,0,P|240:121|211:166,1,90,0|0,0:0|0:0,0:0:0:0:
128,208,45263,2,0,P|130:159|159:114,1,90,0|0,0:0|0:0,0:0:0:0:
312,192,45834,1,0,0:0:0:0:
320,184,45977,1,0,0:0:0:0:
328,176,46120,2,0,P|368:168|408:128,1,90,0|0,0:0|0:0,0:0:0:0:
416,32,46549,2,0,P|367:52|343:84,1,90,0|0,0:0|0:0,0:0:0:0:
272,112,46977,2,0,P|96:128|240:232,1,450,0|0,0:0|0:0,0:0:0:0:
188,156,48977,6,0,L|230:121,1,45,0|0,0:0|0:0,0:0:0:0:
380,176,49406,2,0,P|362:219|324:256,1,90,0|0,0:0|0:0,0:0:0:0:
420,277,49834,2,0,P|402:320|364:357,1,90,0|0,0:0|0:0,0:0:0:0:
244,330,50406,1,0,0:0:0:0:
223,256,50549,1,0,0:0:0:0:
145,263,50692,2,0,P|105:249|72:211,1,90,0|0,0:0|0:0,0:0:0:0:
164,170,51120,2,0,P|135:131|91:109,1,90,0|0,0:0|0:0,0:0:0:0:
27,82,51549,1,0,0:0:0:0:
146,50,51692,2,0,P|205:16|276:25,1,135,0|0,0:0|0:0,0:0:0:0:
328,184,52406,1,0,0:0:0:0:
294,332,52692,1,0,0:0:0:0:
317,309,52834,1,0,0:0:0:0:
341,288,52977,1,0,0:0:0:0:
253,100,53549,6,0,L|216:126,1,45,0|0,0:0|0:0,0:0:0:0:
109,144,53977,2,0,P|129:100|166:71,1,90,0|0,0:0|0:0,0:0:0:0:
171,220,54406,2,0,P|217:211|262:182,1,90,0|0,0:0|0:0,0:0:0:0:
87,229,54977,1,0,0:0:0:0:
76,237,55120,1,0,0:0:0:0:
65,245,55263,2,0,P|37:205|34:159,1,90,0|0,0:0|0:0,0:0:0:0:
234,120,55692,2,0,P|260:161|266:212,1,90,0|0,0:0|0:0,0:0:0:0:
149,176,56120,1,0,0:0:0:0:
266,294,56263,5,2,0:0:0:0:
269,299,56334,1,2,0:0:0:0:
272,305,56406,2,0,L|334:286,1,45,2|0,0:0|0:0,0:0:0:0:
414,224,56692,1,0,0:0:0:0:
434,304,56834,1,0,0:0:0:0:
326,204,56977,2,0,L|267:224,1,45,2|0,0:0|0:0,0:0:0:0:
170,224,57263,2,0,P|188:188|222:163,1,67.5,2|0,0:0|0:0,0:0:0:0:
320,120,57549,6,0,L|272:112,1,45,4|0,0:0|0:0,0:0:0:0:
236,33,57834,1,2,0:0:0:0:
307,45,57977,1,0,0:0:0:0:
256,109,58120,2,0,L|209:102,1,45,4|0,0:0|0:0,0:0:0:0:
150,166,58406,1,2,0:0:0:0:
221,177,58549,1,0,0:0:0:0:
193,99,58692,2,0,L|146:92,1,45,4|0,0:0|0:0,0:0:0:0:
110,13,58977,1,2,0:0:0:0:
181,25,59120,1,0,0:0:0:0:
130,89,59263,2,0,L|82:82,1,45,4|0,0:0|0:0,0:0:0:0:
64,190,59549,5,2,0:0:0:0:
131,259,59692,1,0,0:0:0:0:
224,282,59834,6,0,L|272:274,1,45,4|0,0:0|0:0,0:0:0:0:
308,195,60119,1,2,0:0:0:0:
237,207,60262,1,0,0:0:0:0:
288,272,60405,2,0,L|335:264,1,45,4|0,0:0|0:0,0:0:0:0:
394,328,60691,1,2,0:0:0:0:
322,339,60834,1,0,0:0:0:0:
351,261,60977,2,0,L|452:244,1,90,4|2,0:0|0:0,0:0:0:0:
465,173,61405,1,0,0:0:0:0:
397,181,61549,1,4,0:0:0:0:
168,232,61834,5,2,0:0:0:0:
200,304,61977,1,0,0:0:0:0:
256,248,62120,2,0,L|256:184,1,45,4|0,0:0|0:0,0:0:0:0:
360,144,62406,1,2,0:0:0:0:
328,216,62549,1,0,0:0:0:0:
256,184,62692,2,0,L|256:128,1,45,4|0,0:0|0:0,0:0:0:0:
152,80,62977,1,2,0:0:0:0:
184,152,63120,1,0,0:0:0:0:
256,120,63263,2,0,L|256:24,1,90,4|2,0:0|0:0,0:0:0:0:
328,72,63692,1,0,0:0:0:0:
400,32,63834,1,4,0:0:0:0:
480,192,64120,5,2,0:0:0:0:
424,112,64263,1,0,0:0:0:0:
397,191,64406,2,0,P|376:232|340:260,1,90,4|2,0:0|0:0,0:0:0:0:
332,351,64834,1,0,0:0:0:0:
246,248,64977,2,0,P|266:205|303:173,1,90,4|2,0:0|0:0,0:0:0:0:
137,41,65549,2,0,P|148:90|184:131,1,90,4|2,0:0|0:0,0:0:0:0:
265,124,65977,1,0,0:0:0:0:
275,242,66120,2,0,L|233:197,1,45,4|0,0:0|0:0,0:0:0:0:
95,154,66406,2,0,L|147:205,1,67.5,2|0,0:0|0:0,0:0:0:0:
155,285,66692,6,0,L|202:247,1,45,4|0,0:3|0:3,0:0:0:0:
313,265,66977,1,2,0:0:0:0:
249,318,67120,1,0,0:0:0:0:
210,244,67263,2,0,L|257:206,1,45,4|0,0:3|0:0,0:0:0:0:
379,215,67549,1,2,0:0:0:0:
268,201,67692,1,0,1:0:0:0:
277,194,67763,1,0,0:0:0:0:
286,188,67834,2,0,L|333:150,1,45,4|0,0:3|1:0,0:0:0:0:
331,47,68120,1,2,0:0:0:0:
265,96,68263,1,0,0:0:0:0:
336,153,68406,2,0,L|383:115,1,45,4|0,0:3|0:0,0:0:0:0:
459,199,68692,5,2,0:0:0:0:
419,303,68834,1,0,1:0:0:0:
313,309,68977,2,0,L|264:288,1,45,4|0,0:3|0:0,0:0:0:0:
247,204,69263,1,2,0:0:0:0:
316,231,69406,1,0,0:0:0:0:
245,282,69549,2,0,L|197:262,1,45,4|0,0:3|0:0,0:0:0:0:
140,329,69834,1,2,0:0:0:0:
180,256,69977,1,0,1:0:0:0:
169,251,70049,1,0,0:0:0:0:
159,247,70120,2,0,L|112:226,1,45,4|0,0:3|1:0,0:0:0:0:
103,140,70406,1,2,0:0:0:0:
171,171,70549,1,0,0:0:0:0:
101,222,70692,2,0,L|58:201,1,45,4|0,0:3|0:0,0:0:0:0:
49,73,70977,5,2,0:0:0:0:
170,47,71120,1,0,1:0:0:0:
296,80,71263,2,0,L|349:95,1,45,4|0,0:3|1:0,0:0:0:0:
368,176,71549,1,2,0:0:0:0:
296,152,71692,1,0,0:0:0:0:
216,152,71834,2,0,L|171:170,1,45,4|0,0:3|0:0,0:0:0:0:
144,256,72120,1,2,0:0:0:0:
216,232,72263,1,0,1:0:0:0:
296,232,72406,2,0,L|341:248,1,45,4|0,0:3|1:0,0:0:0:0:
368,336,72692,1,2,0:0:0:0:
296,312,72834,1,0,0:0:0:0:
216,312,72977,2,0,L|168:328,1,45,4|0,0:3|0:0,0:0:0:0:
64,280,73263,1,2,0:0:0:0:
144,216,73406,5,0,0:0:0:0:
152,224,73477,1,0,0:0:0:0:
160,232,73549,2,0,P|227:227|281:176,2,135.000005149842,4|0|0,0:1|1:0|1:0,0:0:0:0:
188,136,74263,1,4,0:3:0:0:
316,102,74549,2,0,L|392:60,1,67.5000025749208,0|0,1:0|0:0,0:0:0:0:
498,94,74834,2,0,L|439:128,1,67.5000025749208,0|8,1:0|0:3,0:0:0:0:
362,166,75120,1,4,0:3:0:0:
357,253,75263,2,0,L|415:219,1,67.5000025749208,0|0,1:0|1:0,0:0:0:0:
493,186,75549,2,0,L|492:163,6,16.8750006437302,0|0|0|0|0|0|0,0:0|0:0|0:0|0:0|0:0|0:0|0:0,0:0:0:0:
494,200,75834,6,0,P|486:261|425:298,1,135.000005149842,4|2,1:0|0:0,0:0:0:0:
288,304,76263,2,0,L|360:264,1,67.5000025749208,0|0,0:0|1:3,0:0:0:0:
368,192,76549,1,0,0:0:0:0:
425,108,76692,2,0,P|362:95|282:138,1,135.000005149842,4|2,0:3|0:0,0:0:0:0:
131,89,77263,1,8,0:3:0:0:
146,111,77549,1,0,1:0:0:0:
161,133,77834,1,2,0:0:0:0:
225,244,78120,6,0,P|154:243|95:209,1,135.000005149842,4|0,0:3|0:0,0:0:0:0:
21,253,78549,1,0,0:0:0:0:
49,358,78692,2,0,P|101:335|142:254,1,135.000005149842,0|0,1:0|0:0,0:0:0:0:
223,347,79120,1,4,0:3:0:0:
228,263,79263,2,0,L|292:223,1,67.5000025749208,2|0,0:0|1:0,0:0:0:0:
282,152,79549,1,8,0:3:0:0:
389,222,79692,1,0,0:0:0:0:
446,109,79834,2,0,L|384:143,1,67.5000025749208,0|0,1:0|0:0,0:0:0:0:
336,288,80120,1,4,0:3:0:0:
224,256,80263,5,0,0:3:0:0:
232,264,80334,1,0,0:0:0:0:
240,272,80406,2,0,P|192:296|104:296,1,135.000005149842,4|2,1:0|0:0,0:0:0:0:
152,216,80834,1,2,0:3:0:0:
63,154,80977,2,0,P|90:129|120:119,1,67.5000025749208,0|0,1:0|0:3,0:0:0:0:
207,152,81263,2,0,P|269:177|348:139,1,135.000005149842,4|0,0:3|0:0,0:0:0:0:
274,29,81834,1,4,0:3:0:0:
274,56,82120,1,0,1:0:0:0:
274,83,82406,1,0,0:0:0:0:
224,256,82692,6,0,P|152:248|104:200,1,135.000005149842,8|2,0:3|0:0,0:0:0:0:
16,216,83120,1,0,0:0:0:0:
48,136,83263,2,0,P|72:112|87:73,1,67.5000025749208,0|0,1:0|0:0,0:0:0:0:
204,136,83549,2,0,B|236:128|256:128|256:128|296:128|328:80|296:32|256:32|256:32|216:32|184:80|216:128|256:128|256:128|276:128|312:136,1,405.000015449525,6|0,0:3|1:0,0:0:0:0:
396,160,84549,1,0,1:0:0:0:
280,208,84692,1,2,0:0:0:0:
48,116,84977,6,0,L|195:77,1,135.000005149842,4|2,1:0|0:3,0:0:0:0:
68,180,85406,1,0,0:0:0:0:
220,120,85549,2,0,L|144:142,1,67.5000025749208,0|0,1:0|0:0,0:0:0:0:
68,204,85834,2,0,L|208:155,1,135.000005149842,4|0,0:3|0:0,0:0:0:0:
340,189,86406,1,8,0:3:0:0:
366,198,86692,1,0,1:0:0:0:
393,220,86977,1,4,0:3:0:0:
352,304,87263,2,0,L|224:240,1,135.000005149842,0|0,1:0|0:3,0:0:0:0:
176,192,87692,1,0,0:0:0:0:
112,152,87834,2,0,L|248:128,1,135.000005149842,0|8,1:0|0:3,0:0:0:0:
320,176,88263,1,4,0:3:0:0:
416,168,88406,2,0,L|336:224,1,67.5000025749208,2|0,0:0|1:0,0:0:0:0:
256,256,88692,1,8,0:3:0:0:
296,232,88834,1,0,0:0:0:0:
136,304,88977,2,0,L|200:240,1,67.5000025749208,0|0,1:0|0:0,0:0:0:0:
120,112,89263,1,4,0:3:0:0:
224,128,89406,1,0,0:0:0:0:
232,136,89549,2,0,L|376:112,1,135.000005149842,4|0,1:0|0:0,0:0:0:0:
176,160,89977,1,0,0:0:0:0:
112,224,90120,2,0,L|256:200,1,135.000005149842,0|4,1:0|0:3,0:0:0:0:
128,176,90549,1,0,0:0:0:0:
168,256,90692,2,0,L|320:208,1,135.000005149842,0|4,0:0|0:3,0:0:0:0:
200,184,91120,1,0,0:0:0:0:
104,256,91263,2,0,L|248:216,1,135.000005149842,0|8,1:0|0:3,0:0:0:0:
96,176,91692,1,0,0:3:0:0:
64,208,91834,2,0,L|328:120,1,270.000010299683,4|0,1:0|1:0,0:0:0:0:
241,262,92692,1,0,0:0:0:0:
302,217,92834,1,0,0:0:0:0:
336,262,92977,2,0,L|415:204,1,67.5000025749208
386,139,93263,1,0,0:0:0:0:
270,110,93406,1,0,0:0:0:0:
408,67,93549,1,0,0:0:0:0:
66,210,93834,1,0,0:0:0:0:
113,137,93977,1,0,0:0:0:0:
111,195,94120,2,0,L|241:133,1,135.000005149842
104,249,94549,1,0,0:0:0:0:
130,254,94692,2,0,L|266:198,1,135.000005149842
163,277,95120,1,0,0:0:0:0:
159,284,95263,2,0,L|293:226,1,135.000005149842
211,216,95692,1,0,0:0:0:0:
152,225,95834,2,0,L|299:168,1,135.000005149842
430,65,96406,2,0,L|177:190,1,270.000010299683
85,243,97263,1,0,0:0:0:0:
85,243,97406,1,0,0:0:0:0:
104,216,97549,2,0,L|163:159,2,67.5000025749208,0|0|0,0:0|0:0|0:0,0:0:0:0:
165,199,97977,1,0,0:0:0:0:
304,198,98120,2,0,L|224:226,1,67.5000025749208
314,254,98406,2,0,L|288:265,7,16.8750006437302,0|0|0|0|0|0|0|0,0:0|0:0|0:0|0:0|0:0|0:0|0:0|0:0,0:0:0:0:
256,192,98692,12,0,100977,0:0:0:0:
135,238,107834,6,0,L|258:148,1,135.000005149842
421,259,108263,2,0,L|345:148,1,135.000005149842
349,317,108692,2,0,L|123:155,1,270.000010299683
116,175,109549,1,0,0:0:0:0:
194,117,109692,1,0,0:0:0:0:
252,170,109834,1,0,0:0:0:0:
457,297,110120,2,0,L|372:168,1,135.000005149842
384,289,110549,2,0,L|281:167,1,135.000005149842
179,322,110977,2,0,L|392:115,1,270.000010299683
133,144,111834,1,0,0:0:0:0:
131,163,111977,1,0,0:0:0:0:
146,156,112120,1,0,0:0:0:0:
150,135,112263,1,0,0:0:0:0:
67,269,112406,2,0,L|339:197,1,270.000010299683
479,232,113263,2,0,L|205:269,1,270.000010299683
146,213,114120,1,0,0:0:0:0:
177,251,114263,2,0,L|319:186,1,135.000005149842
374,193,114692,2,0,L|238:127,2,135.000005149842,0|0|0,0:0|0:0|0:0,0:0:0:0:
186,155,115406,1,0,0:0:0:0:
136,124,115549,1,0,0:0:0:0:
90,234,115834,2,0,L|178:217,1,67.5000025749208
179,275,116120,1,0,0:0:0:0:
179,275,116263,1,0,0:0:0:0:
340,191,116406,2,0,L|257:202,1,67.5000025749208
284,289,116692,1,0,0:0:0:0:
346,259,116834,1,0,0:0:0:0:
280,173,116977,1,0,0:0:0:0:
