osu file format v5

[General]
AudioFilename: 4-investigation cross examining.mp3
AudioLeadIn: 0
PreviewTime: -1
Countdown: 1
SampleSet: None
StackLeniency: 0.7
Mode: 0

[Metadata]
Title:Investigation ~ Cross Examinating MR
Artist:
Creator:S-M-DBZ
Version:Hard

[Difficulty]
HPDrainRate:5
CircleSize:0
OverallDifficulty:4
SliderMultiplier:1.7
SliderTickRate:1

[Events]
//Background and Video events
0,0,"Phoenix Wright BackGrounds.png"
//Break Periods
2,43074,50907
//Storyboard Layer 0 (Background)
//Storyboard Layer 1 (Failing)
//Storyboard Layer 2 (Passing)
//Storyboard Layer 3 (Foreground)
//Storyboard Sound Samples
//Background Colour Transformations
3,100,163,162,255

[TimingPoints]
0,991.735537190083,4,0,0,100

[Colours]
Combo1 : 255,150,0
Combo2 : 5,240,5
Combo3 : 5,5,240
Combo4 : 240,5,5

[HitObjects]
128,256,4699,1,0
64,128,5099,1,0
288,64,5499,1,0
288,64,5899,1,0
288,64,6299,1,0
416,224,7099,2,0,B|64:288|128:64|416:96|32:288|448:288|-32:96,1,510
192,128,10699,1,0
448,160,11499,1,0
224,320,12299,1,0
320,32,13099,1,0
416,256,13899,1,0
64,224,14699,5,0
288,192,15099,1,0
352,64,15499,1,0
416,224,15899,1,0
96,128,16299,5,0
256,256,16699,1,0
320,64,17099,5,0
416,192,17499,1,0
128,224,17900,1,0
160,96,18301,5,0
160,96,18701,5,0
160,96,19101,5,0
160,96,19501,5,0
416,256,20055,1,0
160,256,20412,1,0
160,160,20703,1,0
384,128,21202,1,0
288,288,21625,1,0
160,352,22010,1,0
64,224,22283,1,0
192,96,22489,1,0
288,128,22762,1,0
416,256,23147,1,0
416,128,23364,1,0
416,128,23570,1,0
256,128,23843,1,0
160,224,24022,1,0
96,288,24191,1,0
96,224,24379,1,0
288,128,24576,1,0
384,192,24802,1,0
128,128,25904,1,0
128,128,26304,1,0
128,128,26704,1,0
128,128,26926,1,0
128,128,27116,1,0
128,128,27248,1,0
128,128,27351,1,0
128,128,27492,1,0
128,128,27642,1,0
128,128,27755,1,0
128,128,27924,1,0
128,128,28056,1,0
128,128,28188,1,0
128,128,28347,1,0
128,128,28498,1,0
128,128,28629,1,0
128,128,28789,1,0
128,128,28949,1,0
128,160,30800,1,0
352,256,31397,1,0
224,256,31763,1,0
160,224,32205,1,0
96,192,32666,1,0
128,96,33108,1,0
352,96,33549,1,0
352,160,34113,1,0
288,256,34518,1,0
160,288,34856,1,0
96,256,35147,1,0
160,128,35542,1,0
224,96,35984,1,0
352,192,36670,1,0
288,288,37347,1,0
160,256,37817,1,0
224,128,38165,1,0
288,96,38466,1,0
352,96,38682,1,0
384,192,38926,1,0
384,192,39142,1,0
352,288,39368,1,0
352,288,39565,1,0
288,320,39735,1,0
160,288,39960,1,0
160,288,40167,1,0
64,256,40393,1,0
32,224,40590,1,0
64,160,40787,1,0
128,128,40994,1,0
160,96,41201,1,0
288,96,41389,1,0
352,96,41586,1,0
352,96,41765,1,0
416,224,42000,1,0
416,288,42197,1,0
320,320,42414,1,0
224,320,42649,1,0
64,256,42874,1,0
352,256,53487,5,0
160,320,53919,1,0
32,256,54305,1,0
96,96,57864,1,0
320,256,58132,1,0
416,160,58780,1,0
224,128,59297,1,0
192,160,59589,1,0
160,224,59796,1,0
256,320,60125,1,0
352,288,60378,1,0
352,288,60585,1,0
384,64,60801,1,0
288,64,61036,1,0
288,64,61281,1,0
160,96,61506,1,0
128,160,61788,1,0
128,224,62033,1,0
192,288,62249,1,0
320,256,62493,1,0
320,160,62804,1,0
160,160,63264,1,0
192,288,63875,1,0
192,288,64026,1,0
192,288,64157,1,0
192,288,64317,1,0
192,288,64477,1,0
192,288,64637,1,0
192,288,64806,1,0
352,224,65398,1,0
192,160,66940,1,0
224,256,67250,1,0
384,224,68575,1,0
256,160,69515,1,0
96,288,70295,1,0
352,288,71076,1,0
352,96,71893,1,0
160,160,73097,1,0
320,224,73585,1,0
416,160,74525,1,0
256,96,75136,1,0
192,288,75860,1,0
64,224,76358,1,0
192,128,76772,1,0
352,256,77148,1,0
416,128,77656,1,0
288,96,78032,1,0
224,224,78370,1,0
128,256,78746,1,0
96,224,79056,1,0
128,160,79366,1,0
256,192,80011,12,0,82411
160,192,82811,1,4
