osu file format v5

[General]
AudioFilename: 3rd Coast - STOP.mp3
AudioLeadIn: 0
PreviewTime: 12025
Countdown: 0
SampleSet: Normal
StackLeniency: 0.2
Mode: 0
LetterboxInBreaks: 1
EditorDistanceSpacing: 1

[Metadata]
Title:STOP
Artist:3rd Coast
Creator:lesjuh
Version:DJPopStyle
Source:DJMAX
Tags:stop 3rd coast djmax so fly feat. JC DJPop

[Difficulty]
HPDrainRate:5
CircleSize:5
OverallDifficulty:8
SliderMultiplier:1.9
SliderTickRate:2

[Events]
//Background and Video events
0,0,"STOP.png"
1,-200,"STOP.avi"
//Break Periods
//Storyboard Layer 0 (Background)
//Storyboard Layer 1 (Failing)
//Storyboard Layer 2 (Passing)
//Storyboard Layer 3 (Foreground)
//Storyboard Sound Samples
5,25728,0,"soft-hitclap.wav"
5,26469,0,"soft-hitclap.wav"
5,27951,0,"soft-hitclap.wav"
5,28691,0,"soft-hitclap.wav"
5,31654,0,"soft-hitclap.wav"
//Background Colour Transformations
3,100,0,0,0

[TimingPoints]
12039.0884362617,370.37037037037,4,1,0,80,1,0
13417,-100,4,1,1,80,0,0
14158,-100,4,1,0,80,0,0
22306,-100,4,1,1,80,0,0
35640,-100,4,1,0,80,0,0
37117,-100,4,2,1,100,0,0
38691,-100,4,1,0,80,0,0
40080,-100,4,2,1,100,0,0
41654,-100,4,1,0,80,0,0
43043,-100,4,2,1,100,0,0
44617,-100,4,1,1,80,0,0
47399,-100,4,1,0,80,0,0
53695,-100,4,1,1,80,0,0
59343,-100,4,1,0,80,0,0
72677,-100,4,1,1,80,0,0
73417,-100,4,1,0,80,0,0
81566,-100,4,1,1,80,0,0
83043,-100,4,1,0,100,0,0

[Colours]
Combo1 : 255,0,0
Combo2 : 255,255,255

[HitObjects]
256,96,12029,5,6
192,128,12224,2,0,B|96:128,1,95,2|8
64,192,12594,2,0,B|160:192,1,95,2|0
128,256,12965,1,0
96,320,13150,1,10
160,352,13335,1,2
192,288,13520,5,2
224,272,13613,1,2
256,256,13705,1,2
288,320,13890,1,10
320,304,13983,1,2
352,288,14076,1,2
384,352,14261,1,0
448,320,14446,1,0
480,256,14631,1,10
448,192,14816,1,2
384,160,15002,5,2
320,192,15187,2,0,B|320:96,1,95,2|8
256,64,15557,2,0,B|256:160,1,95,2|0
192,192,15927,1,0
160,128,16113,1,10
192,64,16298,2,0,B|96:64,1,95,2|0
32,96,16668,5,0
96,128,16853,1,8
32,160,17039,1,0
96,192,17224,2,2,B|123:320|32:352,2,190,2|8|0
160,160,18150,5,0
224,192,18335,2,0,B|224:288,1,95,8|0
256,352,18705,1,0
320,320,18890,1,0
288,256,19076,2,0,B|384:256,2,95,8|0|0
320,192,19631,5,0
384,160,19816,2,0,B|480:160,1,95,8|0
448,96,20187,1,0
384,64,20372,1,0
320,32,20557,2,0,B|320:128,2,95,8|0|0
256,64,21113,5,0
224,128,21298,2,0,B|128:128,1,95,8|0
96,64,21668,1,0
64,128,21853,1,0
32,192,22039,2,2,B|32:288,1,95,10|0
64,352,22409,5,2
128,320,22594,1,2
192,352,22779,1,10
224,288,22965,1,2
256,224,23150,1,2
288,288,23335,1,2
320,352,23520,1,10
384,320,23705,1,2
448,352,23890,6,0,B|480:336|496:304|491:272|496:240|480:208|448:192,1,190,4|8
384,160,24446,1,0
448,128,24631,2,0,B|513:128|480:64,2,95,0|0|8
384,96,25187,2,0,B|417:32|352:32,1,95
320,96,25557,5,0
128,32,25927,1,0
64,64,26113,2,0,B|64:130|128:96,1,95
64,288,26668,1,0
32,224,26853,6,0,B|128:224,1,95
160,288,27224,1,8
128,352,27409,2,0,B|32:352,2,95
320,288,28150,2,0,B|286:352|352:352,1,95
416,320,28520,5,0
480,128,28890,1,0
448,192,29076,2,0,B|415:256|480:256,2,95,0|0|8
416,128,29631,1,8
448,64,29816,6,0,B|432:32|400:16|370:20|336:16|304:32|288:64,1,190,0|8
224,32,30372,2,0,B|208:64|176:80|144:75|112:80|80:64|64:32,1,190,0|0
32,96,30927,1,8
64,160,31113,2,0,B|64:256,1,95
32,320,31483,5,0
224,256,31853,1,0
160,288,32039,2,0,B|160:192,1,95
224,160,32409,1,8
288,192,32594,2,0,B|288:288,1,95
480,352,33150,6,0,B|480:287|416:320,1,95,8|0
384,256,33520,2,0,B|384:190|448:224,1,95
480,160,33890,1,8
448,96,34076,2,0,B|382:96|416:32,1,95
352,64,34446,5,0
288,32,34631,1,10
272,64,34724,1,2
256,96,34816,1,2
192,64,35002,1,2
176,96,35094,1,2
160,128,35187,1,2
96,96,35372,1,10
80,128,35465,1,2
64,160,35557,1,2
32,224,35742,6,0,B|10:353|128:352,1,190,4|8
160,288,36298,2,0,B|160:170|288:192,1,190
320,256,36853,2,0,B|253:287|320:320,1,95,8|0
384,352,37224,5,2
416,336,37316,1,2
448,320,37409,1,2
480,304,37502,1,2
448,288,37594,1,10
416,272,37687,1,2
384,256,37779,1,2
416,240,37872,1,2
448,224,37965,1,2
480,208,38057,1,2
448,192,38150,1,2
416,176,38242,1,2
384,160,38335,1,10
416,144,38427,1,2
448,128,38520,1,2
480,112,38613,1,2
448,96,38705,6,0,B|415:2|288:32,1,190,4|8
320,96,39261,2,0,B|255:147|160:32,1,190
96,64,39816,2,0,B|44:76|32:128,1,95,8|0
64,192,40187,5,2
48,224,40279,1,2
32,256,40372,1,2
48,288,40465,1,2
64,320,40557,1,10
96,336,40650,1,2
128,352,40742,1,2
160,336,40835,1,2
192,320,40927,1,2
208,288,41020,1,2
224,256,41113,1,2
208,224,41205,1,2
192,192,41298,1,10
160,176,41390,1,2
128,160,41483,1,2
96,176,41576,1,2
64,192,41668,6,0,B|32:176|16:144|20:111|16:80|32:48|64:32,1,190,4|8
128,64,42224,2,0,B|144:96|176:112|207:108|240:112|272:96|288:64,1,190,0|0
352,32,42779,2,0,B|448:32,1,95,8|0
480,96,43150,5,2
448,112,43242,1,2
416,128,43335,1,2
384,144,43427,1,2
352,160,43520,1,10
320,176,43613,1,2
288,192,43705,1,2
256,208,43798,1,2
240,176,43890,1,2
208,192,43983,1,2
176,208,44076,1,2
144,224,44168,1,2
112,240,44261,1,10
80,256,44353,1,2
48,272,44446,1,2
16,288,44539,1,2
32,320,44631,6,0,B|48:352|80:368|111:364|144:368|176:352|192:320,1,190,4|10
208,288,45094,1,2
224,256,45187,1,2
288,288,45372,1,2
304,320,45465,1,2
320,352,45557,1,2
384,320,45742,1,10
400,288,45835,1,2
416,256,45927,1,2
480,288,46113,6,0,B|480:192,1,95
416,160,46483,1,10
432,128,46576,1,2
448,96,46668,1,2
384,64,46853,1,2
368,96,46946,1,2
352,128,47039,1,2
288,96,47224,2,2,B|272:64|240:48|210:52|176:48|144:64|128:96,1,190,10|4
64,288,47965,5,8
32,352,48150,1,0
224,288,48520,1,0
192,352,48705,1,8
160,288,48890,1,0
192,224,49076,5,0
384,288,49446,1,8
320,96,49816,1,0
352,32,50002,1,0
384,96,50187,1,8
416,32,50372,1,0
448,96,50557,5,0
256,32,50927,1,8
224,96,51113,1,0
32,32,51483,1,0
64,96,51668,1,8
32,160,51853,1,0
64,224,52039,6,2,B|63:289|128:256,1,95
192,224,52409,2,2,B|256:190|256:256,1,95,10|2
320,288,52779,2,2,B|385:288|352:224,1,95
384,160,53150,2,2,B|384:94|448:128,1,95,10|2
480,64,53520,5,0
416,256,53890,1,10
448,240,53983,1,2
480,224,54076,1,2
288,288,54446,1,0
320,352,54631,1,10
352,336,54724,1,2
384,320,54816,1,2
352,256,55002,5,2
336,224,55094,1,2
320,192,55187,1,2
256,224,55372,1,10
240,192,55465,1,2
224,160,55557,1,2
288,128,55742,1,0
256,64,55927,1,0
192,96,56113,1,10
176,64,56205,1,2
160,32,56298,1,2
96,64,56483,5,2
64,80,56576,1,2
32,96,56668,1,2
64,160,56853,1,10
96,144,56946,1,2
128,128,57039,1,2
64,320,57409,1,0
32,256,57594,1,10
64,240,57687,1,2
96,224,57779,1,2
128,288,57965,5,2
144,320,58057,1,2
160,352,58150,1,2
224,320,58335,1,10
208,288,58427,1,2
192,256,58520,1,2
160,192,58705,1,0
224,160,58890,1,0
256,224,59076,1,10
272,256,59168,1,2
288,288,59261,1,2
320,352,59446,6,0,B|448:379|480:288,1,190,4|8
448,224,60002,1,0
384,256,60187,1,0
352,192,60372,2,0,B|352:96,1,95,0|8
416,64,60742,1,0
480,96,60927,5,0
288,32,61298,1,8
224,224,61668,2,0,B|224:128,1,95
192,64,62039,1,8
128,32,62224,1,0
64,64,62409,6,0,B|-15:95|0:160|32:224,1,190,0|8
96,192,62965,1,0
160,160,63150,2,0,B|160:256,1,95
96,288,63520,1,8
32,320,63705,1,0
96,352,63890,5,0
288,288,64261,1,8
224,96,64631,2,0,B|190:32|256:32,1,95
320,64,65002,1,8
384,96,65187,1,8
320,128,65372,5,0
384,320,65742,1,8
448,352,65927,1,0
384,160,66298,1,0
448,192,66483,1,8
480,128,66668,1,0
448,64,66853,5,0
256,128,67224,1,8
320,320,67594,1,0
256,352,67779,1,0
192,320,67965,2,0,B|96:320,1,95,8|0
32,352,68335,5,0
96,160,68705,1,8
32,192,68890,1,0
224,256,69261,1,0
160,224,69446,1,8
224,192,69631,1,0
288,224,69816,5,0
224,32,70187,1,8
416,96,70557,1,0
384,32,70742,1,0
352,96,70927,1,8
384,160,71113,1,8
416,224,71298,5,6
480,192,71483,2,0,B|480:288,1,95,2|8
448,352,71853,2,0,B|352:352,1,95,2|0
320,288,72224,1,0
288,352,72409,1,10
256,288,72594,1,2
288,224,72779,5,2
256,208,72872,1,2
224,192,72965,1,2
192,256,73150,1,10
176,288,73242,1,2
160,320,73335,1,2
96,352,73520,1,0
32,320,73705,1,0
96,288,73890,1,10
32,256,74076,1,2
96,224,74261,5,2
64,160,74446,2,0,B|160:160,1,95,2|8
128,96,74816,2,0,B|224:96,1,95,2|0
256,32,75187,1,0
288,96,75372,1,10
352,64,75557,2,0,B|352:160,1,95,2|0
416,128,75927,5,0
448,64,76113,1,8
480,128,76298,1,0
448,192,76483,2,2,B|384:319|480:352,2,190,2|8|0
384,224,77409,5,0
320,256,77594,2,0,B|320:352,1,95,8|0
256,320,77965,1,0
192,352,78150,1,0
128,320,78335,2,0,B|32:320,2,95,8|0|0
192,288,78890,5,0
128,256,79076,2,0,B|32:256,1,95,8|0
64,192,79446,1,0
128,160,79631,1,0
64,128,79816,2,0,B|-2:128|32:64,2,95,8|0|0
128,96,80372,5,0
192,64,80557,2,0,B|288:64,1,95,8|0
352,32,80927,1,0
416,64,81113,1,0
480,96,81298,2,2,B|480:192,1,95,10|0
448,256,81668,5,2
416,320,81853,1,2
352,352,82039,1,10
288,320,82224,1,2
256,256,82409,1,2
224,320,82594,1,2
160,352,82779,1,10
96,320,82965,1,2
64,256,83150,5,4
