osu file format v9

[General]
AudioFilename: 3rd Coast-STOP.mp3
AudioLeadIn: 1000
PreviewTime: 11658
Countdown: 1
SampleSet: Normal
StackLeniency: 0.7
Mode: 0
LetterboxInBreaks: 1

[Editor]
DistanceSpacing: 1.3
BeatDivisor: 2
GridSize: 32

[Metadata]
Title:STOP
Artist:3rd Coast
Creator:DaRRi MIx
Version:PopStyle
Source:DJMAX
Tags:Technika lesjuh

[Difficulty]
HPDrainRate:6
CircleSize:4
OverallDifficulty:6
ApproachRate:7
SliderMultiplier:1.8
SliderTickRate:0.5

[Events]
//Background and Video events
0,0,"stop_1.jpg"
//Break Periods
//Storyboard Layer 0 (Background)
//Storyboard Layer 1 (Fail)
//Storyboard Layer 2 (Pass)
//Storyboard Layer 3 (Foreground)
//Storyboard Sound Samples
//Background Colour Transformations
3,100,0,0,0

[TimingPoints]
492,666.666666666667,4,1,1,100,1,0
1159.63736263736,-100,4,1,1,100,0,1
10325,-200,4,1,1,100,0,1
11492,-100,4,2,0,100,0,0
11659,-100,4,1,0,100,0,0
11826,370.37037037037,4,1,0,100,1,0
22196,-100,4,1,1,100,0,0
23677,-100,4,1,0,100,0,0
35622,-100,4,1,0,0,0,0
37196,-100,4,1,0,100,0,0
38585,-100,4,1,0,0,0,0
40159,-100,4,1,0,100,0,0
41548,-100,4,1,0,0,0,0
43122,-100,4,1,0,100,0,0
53307,-100,4,1,1,100,0,1
59233,-100,4,1,2,100,0,0
69603,-200,4,1,2,100,0,0
70159,-100,4,1,1,100,0,0
70992,-100,4,1,0,100,0,0
81455,-100,4,1,1,100,0,0
82844,-100,4,1,0,100,0,0
82937,-100,4,1,0,100,0,1

[Colours]
Combo1 : 255,255,0
Combo2 : 255,255,255
Combo3 : 255,0,0
Combo4 : 255,255,255

[HitObjects]
128,128,1825,1,0
384,256,3158,1,0
256,64,4492,5,0
256,320,5825,1,0
384,128,7158,5,0
128,256,8492,1,0
384,256,9825,5,0
320,192,10325,2,0,B|350:141|417:140|448:192,1,157.5,0|2
448,320,11826,5,4
32,288,12381,1,0
64,224,12566,2,0,B|112:224|192:256|240:256,1,180
480,96,13492,5,0
480,96,13863,1,0
448,160,14048,2,0,B|400:160|320:128|272:128,1,180
64,64,14788,5,0
352,352,15343,1,0
288,320,15528,2,0,B|288:272|320:192|320:144,1,180
160,32,16455,5,0
160,32,16825,1,0
224,64,17010,2,0,B|224:112|192:192|192:240,1,180
32,320,17937,5,0
96,320,18122,1,8
160,320,18307,1,0
224,320,18492,1,0
288,288,18677,1,0
320,352,18863,1,8
480,64,19418,5,0
416,64,19603,1,8
352,64,19788,1,0
288,64,19973,1,0
224,96,20158,1,0
192,32,20344,1,8
32,320,20900,5,0
96,320,21085,1,8
160,320,21270,1,0
224,320,21455,1,0
288,288,21640,1,0
320,352,21826,1,8
448,160,22196,5,6
416,224,22381,1,2
352,192,22566,1,10
288,160,22751,1,2
224,128,22937,1,2
192,192,23122,1,6
128,160,23307,1,10
64,128,23492,1,10
32,64,23677,5,6
32,320,24418,1,2
384,352,24974,5,2
256,304,25344,1,2
320,192,25714,1,2
256,80,26085,1,2
384,32,26455,1,2
480,192,27011,5,2
480,192,27381,1,2
128,352,27937,5,2
256,304,28307,1,2
192,192,28677,1,2
256,80,29048,1,2
480,288,29603,5,6
480,96,30159,1,2
128,32,30900,5,2
256,80,31270,1,2
192,192,31640,1,2
256,304,32011,1,2
128,352,32381,2,0,B|80:272,1,90,2|0
32,192,32937,5,2
32,192,33307,1,2
384,32,33863,5,2
256,80,34233,1,2
320,192,34603,1,2
256,304,34974,1,2
480,352,35529,5,4
32,128,37196,1,0
96,96,37381,1,0
160,64,37566,1,0
224,32,37751,1,0
288,64,37937,1,0
352,96,38122,1,0
416,128,38307,1,0
480,96,38492,5,4
32,160,40159,1,0
96,192,40344,1,0
160,224,40529,1,0
224,256,40714,1,0
288,224,40900,1,0
352,192,41085,1,0
416,160,41270,1,0
480,192,41455,5,4
32,320,43122,1,0
96,288,43307,1,0
160,256,43492,1,0
224,224,43677,1,0
288,256,43863,1,0
352,288,44048,1,0
416,320,44233,1,0
480,288,44418,5,4
416,64,44974,5,4
416,64,45344,1,4
32,96,45900,5,4
96,320,46456,5,4
96,320,46826,1,4
32,96,47381,5,4
160,64,47751,1,8
224,80,47937,1,0
352,48,48307,1,0
416,32,48492,1,8
448,192,48863,5,0
320,160,49233,1,8
192,192,49603,1,0
128,176,49788,1,0
64,160,49974,1,8
32,320,50344,5,0
160,288,50714,1,8
224,304,50900,1,0
352,336,51270,1,0
416,320,51455,1,8
480,128,51825,5,2
480,256,52196,1,2
480,128,52566,1,2
480,256,52937,1,2
352,192,53307,6,0,B|304:144|304:80|352:32,1,180,4|8
351,32,53863,1,4
224,64,54233,1,4
160,32,54418,5,8
32,32,54788,1,4
160,32,55159,1,8
96,160,55529,5,4
96,160,55714,1,4
32,192,55899,5,8
32,320,56269,1,4
32,192,56640,1,8
288,320,57196,5,4
352,352,57381,5,8
480,352,57751,1,4
352,352,58122,1,8
416,224,58492,5,4
416,224,58677,1,4
480,192,58863,5,8
480,112,59048,1,8
480,32,59233,6,2,B|408:80|296:80|224:32,1,270,6|0
192,96,59974,1,2
224,160,60159,2,2,B|240:264|128:288,1,180,2|0
64,288,60714,5,2
0,160,61085,1,8
64,32,61455,1,2
128,160,61825,1,8
64,288,62196,6,2,B|136:336|248:336|320:288,1,270,2|0
288,224,62937,1,2
256,160,63122,2,2,B|240:56|352:32,1,180,2|0
416,32,63677,5,0
512,128,64048,2,0,B|512:192|384:160|416:256,1,180,8|0
480,288,64603,1,0
448,352,64788,2,8,B|352:320,1,90
288,320,65159,6,0,B|216:376|96:352,1,180,0|8
32,320,65714,5,0
128,192,66085,1,0
32,64,66455,1,0
32,64,66640,1,0
256,256,67381,5,0
288,320,67566,1,0
256,128,67937,5,0
224,64,68122,2,0,B|296:8|416:32,1,180,0|8
480,64,68677,5,0
384,192,69048,1,0
480,320,69418,1,0
480,320,69603,1,0
64,192,70344,5,0
64,192,70529,1,0
96,128,70714,1,8
96,128,70900,1,8
64,64,71085,5,4
480,96,71640,1,0
448,160,71825,2,0,B|400:160|320:128|272:128,1,180
32,288,72751,5,0
32,288,73122,1,0
64,224,73307,2,0,B|112:224|192:256|240:256,1,180
448,320,74047,5,0
160,32,74602,1,0
224,64,74787,2,0,B|224:112|192:192|192:240,1,180
352,352,75714,5,0
352,352,76084,1,0
288,320,76269,2,0,B|288:272|320:192|320:144,1,180
480,64,77196,5,0
416,64,77381,1,8
352,64,77566,1,0
288,64,77751,1,0
224,32,77936,1,0
192,96,78122,1,8
32,320,78677,5,0
96,320,78862,1,8
160,320,79047,1,0
224,320,79232,1,0
288,352,79417,1,0
320,288,79603,1,8
480,64,80159,5,0
416,64,80344,1,8
352,64,80529,1,0
288,64,80714,1,0
224,32,80899,1,0
192,96,81085,1,8
0,192,81455,5,6
64,256,81640,1,2
128,256,81825,1,10
192,256,82010,1,2
256,192,82196,1,6
320,256,82381,1,6
384,256,82566,1,10
448,256,82751,1,10
512,320,82936,5,4
