osu file format v9

[General]
AudioFilename: 3rd Coast-STOP.mp3
AudioLeadIn: 1000
PreviewTime: 11658
Countdown: 1
SampleSet: Normal
StackLeniency: 0.7
Mode: 0
LetterboxInBreaks: 1

[Editor]
Bookmarks: 11826,23677,35529
DistanceSpacing: 1.7
BeatDivisor: 4
GridSize: 8

[Metadata]
Title:STOP
Artist:3rd Coast
Creator:DaRRi MIx
Version:LesjuhStyle
Source:DJMAX
Tags:Technika lesjuh

[Difficulty]
HPDrainRate:7
CircleSize:5
OverallDifficulty:6
ApproachRate:8
SliderMultiplier:1.6
SliderTickRate:2

[Events]
//Background and Video events
0,0,"stop_1.jpg"
//Break Periods
//Storyboard Layer 0 (Background)
//Storyboard Layer 1 (Fail)
//Storyboard Layer 2 (Pass)
//Storyboard Layer 3 (Foreground)
//Storyboard Sound Samples
//Background Colour Transformations
3,100,0,0,0

[TimingPoints]
492,666.666666666667,4,1,1,100,1,0
11826,370.37037037037,4,1,0,40,1,0
22288,-100,4,1,0,30,0,0
23585,-100,4,1,0,40,0,0
35529,-100,4,1,0,60,0,0
35714,-100,4,1,0,40,0,0
37103,-100,4,1,0,30,0,0
38400,-100,4,1,0,60,0,0
38677,-100,4,1,0,40,0,0
40066,-100,4,1,0,30,0,0
41363,-100,4,1,0,60,0,0
41640,-100,4,1,0,40,0,0
43029,-100,4,1,0,30,0,0
44325,-100,4,1,0,60,0,0
44603,-100,4,1,0,40,0,0
45807,-100,4,1,0,60,0,0
46085,-100,4,1,0,40,0,0
47381,-100,4,1,0,50,0,1
47474,-100,4,2,0,50,0,1
50251,-100,4,1,0,50,0,1
50437,-100,4,2,0,50,0,1
51733,-100,4,1,0,40,0,1
53307,-100,4,1,0,50,0,1
53400,-100,4,2,0,50,0,1
59233,-100,4,1,2,60,0,0
59418,-100,4,1,2,40,0,0
69788,-100,4,1,0,0,0,0
71085,-100,4,1,0,40,0,0
81548,-100,4,1,0,30,0,0
82937,-100,4,1,0,100,0,1
83029,-100,4,1,0,100,0,0

[Colours]
Combo1 : 255,255,0
Combo2 : 255,255,255
Combo3 : 255,0,0
Combo4 : 255,255,255

[HitObjects]
16,96,11826,1,6
88,64,12011,2,2,B|120:96|136:128,1,80,2|8
112,208,12381,1,0
160,272,12566,2,2,B|248:312|312:248,1,160,2|10
328,176,13122,1,2
376,56,13307,5,4
448,96,13492,2,0,B|472:136|480:184,1,80,2|8
440,240,13863,1,0
512,272,14048,2,2,B|424:232|368:304,1,160,2|10
320,368,14603,1,0
192,328,14788,5,6
144,264,14974,2,0,B|152:224|176:184,1,80,2|8
208,120,15344,1,0
144,72,15529,2,2,B|232:112|296:48,1,160,2|10
368,16,16085,1,2
480,88,16270,5,4
448,160,16455,2,0,B|472:208|480:248,2,80,2|8|0
376,128,17011,2,2,B|240:32|272:312|112:176,1,320,2|4
16,104,17937,5,0
16,104,18122,2,2,B|32:144|40:184,2,80,10|0|2
56,32,18677,1,0
136,56,18863,2,0,B|120:136,1,80,10|0
152,256,19233,5,4
208,312,19418,1,0
280,280,19603,2,2,B|320:288|360:312,1,80,10|0
408,368,19974,1,2
408,368,20159,1,0
480,328,20344,1,10
512,256,20529,1,0
448,144,20714,5,4
376,112,20900,1,0
320,168,21085,2,0,B|304:208|296:256,1,80,10|0
240,304,21455,1,2
168,272,21640,1,0
136,200,21825,2,2,B|40:168|-16:248,1,160,10|2
0,328,22381,5,2
64,376,22566,1,10
152,360,22751,1,2
216,296,22937,1,2
240,200,23122,1,2
224,104,23308,1,10
144,40,23492,1,2
40,64,23677,6,6,B|-8:128|16:216,1,160,6|10
64,280,24233,1,2
144,256,24418,2,0,B|168:176,1,80,0|0
216,112,24788,1,8
288,136,24974,1,0
344,80,25159,2,2,B|432:56|488:144,1,160,2|10
480,216,25714,1,2
408,256,25900,6,0,B|432:296|440:336,2,80,4|0|8
336,224,26455,1,0
240,288,26640,5,4
168,312,26825,1,0
120,248,27011,2,0,B|96:208|88:168,1,80,10|0
16,144,27381,2,0,B|72:88,1,80,2|0
112,16,27751,1,10
192,32,27937,1,0
224,104,28122,6,2,B|296:160|376:112,1,160,6|10
432,56,28677,2,0,B|360:104|368:200,1,160,2|0
408,264,29233,1,10
200,328,29603,6,2,B|112:360|48:288,1,160,6|10
80,184,30159,2,2,B|168:152|232:224,1,160,2|0
264,288,30714,1,10
336,320,30900,1,0
432,264,31085,6,2,B|472:184|432:96,1,160,6|10
384,48,31640,1,2
304,32,31825,5,4
304,32,32011,1,0
256,96,32196,1,8
176,80,32381,1,0
48,56,32566,5,4
16,128,32751,1,0
80,176,32937,2,2,B|120:200|144:232,1,80,10|0
216,216,33307,2,2,B|192:264|184:304,1,80,2|0
248,344,33677,2,2,B|200:352|168:368,1,80,10|0
104,328,34048,1,6
256,192,34233,12,6,35529
408,80,35900,5,8
408,80,36085,1,0
256,40,36455,1,0
224,112,36640,1,8
280,168,36825,1,0
256,288,37011,5,4
200,344,37196,1,0
128,312,37381,2,2,B|112:272|104:224,1,80,10|0
56,168,37751,1,2
80,88,37937,1,0
144,40,38122,1,10
216,64,38307,1,0
336,24,38492,5,6
160,160,38863,1,8
160,160,39048,1,0
432,192,39418,1,0
456,272,39603,1,8
408,336,39788,1,0
272,360,39974,5,4
208,312,40159,1,0
128,304,40344,2,2,B|88:320|56:352,1,80,10|0
128,304,40714,1,2
176,240,40900,1,0
192,160,41085,1,10
144,96,41270,1,0
24,64,41455,5,6
56,256,41825,1,8
56,256,42011,1,0
232,88,42381,1,0
312,72,42566,1,8
360,136,42751,1,0
488,168,42937,5,4
416,208,43122,1,0
392,288,43307,2,0,B|408:328|432:360,1,80,10|0
392,288,43677,1,2
336,232,43863,1,0
256,208,44048,1,10
192,256,44233,1,0
72,192,44418,5,6
128,40,44788,1,0
128,40,44974,2,2,B|216:0|272:88,1,160,2|2
304,152,45529,1,0
264,224,45714,1,0
152,272,45900,5,6
384,88,46270,1,0
384,88,46456,2,2,B|296:48|240:136,1,160,2|2
208,208,47011,2,2,B|232:248|240:296,1,80,2|0
160,352,47381,5,4
80,336,47566,1,2
32,272,47751,1,4
64,192,47937,1,2
72,160,48029,1,0
64,128,48122,1,0
136,88,48307,1,0
152,56,48400,2,0,B|184:32,1,40,0|4
256,56,48677,5,2
280,128,48863,1,0
352,104,49048,1,2
352,104,49140,2,0,B|400:112|432:128,1,80,0|0
480,192,49511,1,0
472,224,49603,1,0
408,272,49788,1,2
392,248,49881,2,0,B|328:256|280:288,1,120
192,216,50344,5,4
112,192,50529,1,2
80,200,50622,1,0
56,224,50714,1,4
40,304,50900,1,2
120,328,51085,1,0
152,320,51177,1,0
176,296,51270,2,0,B|216:312,2,40,2|0|4
192,216,51640,1,0
112,192,51825,6,2,B|96:112,1,80
200,32,52196,2,2,B|192:112,1,80,2|0
304,80,52566,6,2,B|320:160,1,80
400,224,52937,2,2,B|416:144,1,80,2|0
480,88,53307,5,4
496,120,53400,1,0
488,152,53492,2,0,B|488:176|496:216,2,40,2|0|4
368,136,53863,5,2
376,168,53955,1,0
368,200,54048,1,0
384,224,54140,1,0
392,256,54233,2,4,B|384:288|384:328,2,40,2|0|4
264,208,54603,5,2
272,176,54695,1,0
264,144,54788,1,0
280,120,54880,1,0
288,88,54973,2,4,B|280:56|280:16,2,40,2|0|4
176,64,55344,5,2
112,112,55529,1,0
32,96,55714,1,2
16,128,55807,1,0
24,160,55900,2,0,B|40:200|32:248,1,80,4|2
112,320,56270,5,0
144,304,56363,1,0
176,312,56455,2,0,B|216:328|248:320,2,40,2|0|4
160,192,56825,5,2
232,160,57011,1,0
296,208,57196,1,2
328,216,57288,1,0
360,200,57381,1,4
432,224,57566,1,2
488,120,57751,5,0
472,96,57844,1,0
440,80,57937,1,2
408,88,58029,1,0
384,72,58122,1,4
320,32,58307,1,0
288,40,58400,1,0
232,96,58585,1,0
264,104,58678,1,0
320,160,58863,2,0,B|336:208|328:256,1,80,4|0
384,296,59233,5,6
240,360,59603,2,0,B|224:312|232:264,1,80,8|0
256,208,59974,1,0
184,184,60159,1,0
144,112,60344,1,8
144,112,60529,1,0
144,112,60714,1,4
280,24,61085,6,0,B|320:40|352:64,1,80,8|0
424,40,61455,1,0
424,40,61640,1,0
416,120,61825,1,8
448,192,62011,1,0
392,248,62196,1,4
264,152,62566,6,0,B|224:168|192:192,1,80,8|0
120,160,62937,1,0
104,240,63122,1,0
152,304,63307,1,8
80,336,63492,1,0
80,336,63677,1,0
40,64,64048,5,8
192,112,64418,1,0
272,136,64603,1,0
328,72,64788,1,8
328,72,64974,1,0
448,120,65159,5,4
480,192,65344,1,0
440,264,65529,2,0,B|400:272|360:296,1,80,8|0
336,264,65807,2,0,B|320:312,1,40
256,344,66085,1,0
192,296,66270,1,8
224,224,66455,1,0
200,112,66640,5,4
48,56,67011,1,8
0,216,67381,1,0
0,216,67566,1,0
24,288,67751,1,8
96,264,67937,1,0
160,312,68122,6,0,B|200:304|240:272,1,80,4|0
312,304,68492,2,0,B|296:216,1,80,8|0
232,184,68863,1,0
232,184,69048,1,0
256,104,69233,1,8
336,120,69418,1,0
400,72,69603,1,4
256,192,69974,12,0,70992
392,120,71085,5,6
320,80,71270,2,2,B|288:112|272:144,1,80,2|8
312,216,71640,1,0
288,288,71825,2,2,B|208:344|136:272,1,160,2|10
128,200,72381,1,2
56,112,72566,5,4
96,40,72751,2,0,B|136:16|184:8,1,80,2|8
248,40,73122,1,0
280,112,73307,2,2,B|360:168|432:96,1,160,2|10
440,24,73862,1,0
496,152,74047,5,6
456,216,74233,2,0,B|476:250|484:290,1,80,2|8
424,336,74603,1,0
368,280,74788,2,2,B|280:240|216:304,1,160,2|10
144,272,75344,1,2
24,208,75529,5,4
56,136,75714,2,0,B|32:88|24:48,2,80,2|8|0
128,96,76270,2,2,B|264:0|232:280|392:144,1,320,2|4
464,80,77196,5,0
464,80,77381,2,2,B|448:40|440:0,2,80,10|0|2
512,144,77936,1,0
504,224,78122,2,0,B|440:280,1,80,10|0
352,344,78492,5,4
280,312,78677,1,0
312,240,78862,2,2,B|320:200|312:144,1,80,10|0
256,104,79233,1,2
256,104,79418,1,0
176,88,79603,1,10
128,152,79788,1,0
40,232,79973,5,4
88,296,80159,1,0
160,272,80344,2,0,B|196:278|236:294,1,80,10|0
288,352,80714,1,2
368,336,80899,1,0
416,272,81084,2,2,B|456:192|416:104,1,160,10|2
376,48,81640,5,2
288,32,81825,1,10
240,120,82010,1,2
272,216,82196,1,2
240,320,82381,1,2
128,368,82567,1,10
32,280,82751,1,2
40,144,82937,1,6
