osu file format v9

[General]
AudioFilename: 3rd Coast-STOP.mp3
AudioLeadIn: 1000
PreviewTime: 11658
Countdown: 1
SampleSet: Normal
StackLeniency: 0.7
Mode: 0
LetterboxInBreaks: 1

[Editor]
DistanceSpacing: 1.3
BeatDivisor: 4
GridSize: 8

[Metadata]
Title:STOP
Artist:3rd Coast
Creator:DaRRi MIx
Version:DaRRiStyle
Source:DJMAX
Tags:Technika lesjuh

[Difficulty]
HPDrainRate:7
CircleSize:5
OverallDifficulty:7
ApproachRate:9
SliderMultiplier:1.8
SliderTickRate:1

[Events]
//Background and Video events
0,0,"stop_1.jpg"
//Break Periods
//Storyboard Layer 0 (Background)
//Storyboard Layer 1 (Fail)
//Storyboard Layer 2 (Pass)
//Storyboard Layer 3 (Foreground)
//Storyboard Sound Samples
//Background Colour Transformations
3,100,0,0,0

[TimingPoints]
492,666.666666666667,4,1,1,100,1,0
1159.63736263736,-100,4,1,1,100,0,1
11492,-100,4,2,0,100,0,0
11659,-100,4,1,0,100,0,0
11826,370.37037037037,4,1,0,100,1,0
22196,-100,4,1,1,100,0,0
23677,-100,4,1,0,100,0,0
35622,-100,4,1,0,0,0,0
37196,-100,4,1,0,100,0,0
38585,-100,4,1,0,0,0,0
40159,-100,4,1,0,100,0,0
41548,-100,4,1,0,0,0,0
43122,-100,4,1,0,100,0,0
53307,-100,4,1,1,100,0,1
59233,-100,4,1,2,100,0,0
65251,-100,4,2,2,80,0,0
65437,-100,4,1,2,100,0,0
66733,-100,4,2,2,80,0,0
66918,-100,4,1,2,100,0,0
68214,-100,4,2,2,80,0,0
68400,-100,4,1,2,100,0,0
69603,-200,4,1,2,100,0,0
70159,-100,4,1,1,100,0,0
70992,-100,4,1,0,100,0,0
81455,-100,4,1,1,100,0,0
82844,-100,4,1,0,100,0,0
82937,-100,4,1,0,100,0,1

[Colours]
Combo1 : 255,255,0
Combo2 : 255,255,255
Combo3 : 255,0,0
Combo4 : 255,255,255

[HitObjects]
96,192,1159,1,4
96,192,1326,1,4
16,48,1826,2,0,B|176:48,1,130
304,112,2826,1,4
304,112,2992,1,4
368,112,3159,2,0,B|416:144|416:240|368:272,1,180,0|4
304,272,3992,5,4
160,336,4492,2,0,B|0:336,1,135
112,192,5492,1,4
112,192,5659,1,4
174,192,5826,2,0,B|366:192,1,180,0|4
416,192,6659,5,4
496,48,7159,2,0,B|352:48,1,135
208,112,8159,1,4
208,112,8325,1,4
144,112,8492,2,0,B|96:144|96:240|144:272,1,180,0|4
208,272,9325,5,4
352,336,9825,2,0,B|512:336,1,135
400,192,10825,1,4
400,192,10992,1,4
336,192,11159,2,0,B|224:192,1,90,0|2
246,192,11826,5,4
32,96,12196,1,8
32,32,12381,2,0,B|72:-16|152:-16|192:32,1,180
192,96,12937,1,8
192,96,13122,1,0
416,96,13492,5,0
416,96,13863,1,0
384,32,14048,2,0,B|328:40|320:96|328:152|384:160,1,180,0|8
416,96,14603,1,0
480,96,14788,5,0
480,288,15159,1,8
480,352,15344,2,0,B|440:400|360:400|320:352,1,180
320,288,15900,1,8
320,288,16085,1,0
96,288,16455,5,0
96,288,16826,1,0
32,320,17011,2,0,B|40:376|96:384|152:376|160:320,1,180,0|8
96,288,17566,1,0
32,32,17937,5,0
96,32,18122,1,8
160,32,18307,1,0
224,32,18492,1,0
288,0,18677,1,0
320,64,18863,2,0,B|424:80|416:192,1,180,8|0
352,160,19418,5,0
320,224,19603,1,8
256,192,19788,1,0
192,224,19974,1,0
160,160,20159,1,0
96,160,20344,2,0,B|48:200|48:280|96:320,1,180,8|0
160,320,20900,5,0
224,320,21085,1,8
288,320,21270,1,0
352,320,21455,1,0
416,288,21640,1,0
448,352,21825,2,0,B|528:288|480:192,1,180,8|2
416,192,22381,5,2
352,192,22566,1,10
288,192,22751,1,2
256,128,22937,1,2
224,192,23122,1,2
160,192,23307,1,10
96,192,23492,1,10
64,128,23677,6,0,B|8:136|0:192|8:248|64:256,1,180,0|8
64,320,24233,1,0
64,64,24603,1,0
64,320,24974,1,0
62,255,25159,6,0,B|8:248|0:192|8:136|64:128,1,180,0|8
256,192,25900,1,0
326,192,26085,2,0,B|416:192,1,90,0|8
416,192,26455,1,0
448,256,26640,6,0,B|504:248|512:192|504:136|448:128,1,180,0|8
448,64,27196,1,0
448,320,27566,1,0
448,64,27937,1,0
449,128,28122,6,0,B|504:136|512:192|504:248|448:256,1,180,0|8
256,192,28863,1,0
192,224,29048,2,0,B|96:272,1,90,0|8
32,32,29603,6,0,B|96:-8|160:24|160:96,1,180,0|8
224,64,30159,2,0,B|216:168|352:192|416:96,1,270,0|8
448,32,30900,5,0
480,192,31270,1,0
448,352,31640,1,0
480,192,32011,2,0,B|384:192,1,90,0|8
320,192,32381,1,0
352,128,32566,5,0
256,320,32937,1,0
160,128,33307,1,0
64,352,33863,5,0
32,192,34233,1,0
64,32,34603,1,0
32,192,34974,1,0
256,192,35529,5,4
256,192,35622,12,0,37196
256,192,37381,5,0
288,256,37566,1,0
352,256,37751,1,0
384,192,37937,1,0
352,128,38122,1,0
288,128,38307,1,0
320,192,38492,1,4
256,192,38585,12,0,40159
256,192,40344,5,0
224,256,40529,1,0
160,256,40714,1,0
128,192,40900,1,0
160,128,41085,1,0
224,128,41270,1,0
192,192,41455,1,4
256,192,41548,12,0,43122
256,192,43307,5,0
192,224,43492,1,0
192,288,43677,1,0
256,320,43863,1,0
320,288,44048,1,0
320,224,44233,1,0
256,256,44418,5,4
480,288,44974,5,4
480,96,45344,1,4
256,256,45900,5,4
32,288,46456,5,4
32,96,46826,1,4
480,96,47381,5,4
288,32,47751,1,8
256,96,47937,1,0
64,96,48307,1,0
32,32,48492,1,8
32,224,48863,5,0
192,160,49233,1,8
352,224,49603,1,0
416,192,49788,1,0
480,160,49974,1,8
480,352,50344,5,0
288,288,50714,1,8
256,352,50900,1,0
64,352,51270,1,0
32,288,51455,1,8
32,64,51825,6,0,B|96:128,1,90
128,64,52196,2,0,B|192:0,1,90
224,64,52566,2,0,B|288:128,1,90
320,64,52937,2,0,B|384:0,1,90
422,64,53307,6,0,B|512:64,1,90,4|0
480,128,53677,1,10
496,136,53770,1,2
512,144,53863,1,6
512,320,54233,1,4
448,352,54418,1,10
440,336,54511,1,2
432,320,54603,1,6
368,288,54788,5,6
360,304,54881,1,2
352,320,54974,1,2
288,352,55159,1,10
280,336,55252,1,2
272,320,55344,1,2
208,288,55529,1,4
208,288,55714,1,4
144,320,55900,1,10
136,304,55992,1,2
128,288,56085,1,6
64,320,56270,5,6
48,328,56363,1,2
32,336,56455,1,2
0,272,56640,1,10
8,256,56733,1,2
16,240,56825,1,6
16,64,57196,1,4
80,32,57381,1,10
96,24,57474,1,2
112,16,57566,1,6
176,48,57751,5,6
184,64,57844,1,2
192,80,57937,1,2
256,48,58122,1,10
272,56,58214,1,2
288,64,58307,1,2
352,32,58492,1,4
352,32,58677,1,4
416,64,58863,1,10
432,56,58955,1,2
448,48,59048,1,10
512,80,59233,6,0,B|512:272,1,180,0|8
288,288,59974,1,0
352,320,60159,2,0,B|352:224,1,90,0|8
160,320,60714,5,0
320,160,61085,1,8
96,128,61455,1,0
152,72,61640,2,0,B|0:16,1,90,0|8
0,16,62011,1,0
0,80,62196,6,0,B|0:272,1,180,0|8
224,288,62937,1,0
160,320,63122,2,0,B|160:224,1,90,0|8
352,320,63677,5,0
192,160,64048,1,8
416,128,64418,1,0
360,72,64603,2,0,B|304:224,1,90,0|8
160,320,65159,5,0
160,218,65344,2,0,B|160:128,1,90,2|8
480,288,65900,1,0
480,96,66270,1,8
352,288,66640,5,0
352,186,66825,2,0,B|352:96,1,90,2|8
32,256,67381,1,0
32,64,67751,1,8
160,256,68122,5,0
160,154,68307,2,0,B|160:64,1,90,2|8
480,224,68863,1,0
480,32,69233,1,8
256,64,69603,6,0,B|216:64|216:0|296:0|296:64|256:64,1,135,0|0
256,128,70344,1,0
256,192,70529,1,0
256,256,70714,1,8
256,320,70900,1,8
320,320,71085,5,4
128,352,71455,1,8
64,352,71640,2,0,B|16:312|16:232|64:192,1,180
128,192,72196,1,8
128,192,72381,1,0
384,192,72751,5,0
384,192,73122,1,0
448,192,73307,2,0,B|496:152|496:72|448:32,1,180,0|8
384,32,73863,1,0
320,64,74048,5,0
128,32,74418,1,8
64,32,74603,2,0,B|16:72|16:152|64:192,1,180
128,192,75159,1,8
128,192,75344,1,0
384,192,75714,5,0
384,192,76085,1,0
448,192,76270,2,0,B|496:232|496:312|448:352,1,180,0|8
384,352,76826,1,0
64,352,77196,5,0
64,288,77381,1,8
64,224,77566,1,0
64,160,77751,1,0
32,96,77937,1,0
96,64,78122,2,0,B|176:80|176:-16|256:0,1,180,8|0
320,32,78677,5,0
352,96,78863,1,8
288,128,79048,1,0
320,192,79233,1,0
256,224,79418,1,0
224,288,79603,2,0,B|272:352|336:288|384:352,1,180,8|0
448,352,80159,5,0
448,288,80344,1,8
448,224,80529,1,0
448,160,80714,1,0
480,96,80900,1,0
416,64,81085,2,0,B|336:80|336:-16|256:0,1,180,8|2
256,64,81640,5,2
256,128,81825,1,10
320,160,82011,1,2
320,224,82196,1,2
256,256,82381,1,2
192,224,82566,1,10
192,160,82751,1,10
256,192,82937,1,4
