osu file format v7

[General]
AudioFilename: 04.jealousy.mp3
AudioLeadIn: 0
PreviewTime: 7190
Countdown: 0
SampleSet: Soft
StackLeniency: 0.7
Mode: 0
LetterboxInBreaks: 1

[Editor]
DistanceSpacing: 1
BeatDivisor: 4
GridSize: 8

[Metadata]
Title:Jealousy (Extended Version)
Artist:3rd Coast
Creator:Pasonia
Version:Normal
Source:DJMAX
Tags:black square clazziquai technika JC

[Difficulty]
HPDrainRate:5
CircleSize:3
OverallDifficulty:5
SliderMultiplier:1.8
SliderTickRate:2

[Events]
//Background and Video events
0,0,"Background.JPG"
//Break Periods
2,31384,36704
2,100504,106784
//Storyboard Layer 0 (Background)
//Storyboard Layer 1 (Fail)
//Storyboard Layer 2 (Pass)
//Storyboard Layer 3 (Foreground)
//Storyboard Sound Samples
//Background Colour Transformations
3,100,163,162,255

[TimingPoints]
464,480.000944881891,4,2,0,100,1,0
37430,-100,4,2,0,72,0,0
53870,-100,4,2,1,100,0,0
67550,-100,4,2,0,72,0,0
115910,-100,4,2,1,100,0,0
117464,-100,4,2,0,100,0,0
118544,-100,4,2,1,100,0,0
119264,-100,4,2,0,100,0,0
120464,-100,4,2,1,100,0,0
121664,-100,4,2,0,100,0,0
122144,-100,4,2,1,100,0,0
122624,-100,4,2,0,100,0,0
123104,-100,4,2,1,100,0,0
123584,-100,4,2,0,100,0,0
124064,-100,4,2,1,100,0,0
125504,-100,4,2,0,100,0,0
125984,-100,4,2,1,100,0,0
127424,-100,4,2,0,100,0,0
127904,-100,4,2,1,100,0,0
129344,-100,4,2,0,72,0,0
129824,-100,4,2,1,100,0,0
130304,-100,4,2,0,100,0,0

[Colours]
Combo1 : 0,128,64
Combo2 : 88,171,171
Combo3 : 128,128,128
Combo4 : 240,0,120

[HitObjects]
256,192,8144,1,2
256,192,8624,1,0
160,264,9344,5,0
256,104,9704,1,0
352,264,10064,1,2
352,264,11264,5,0
256,104,11624,1,0
160,264,11984,1,2
80,304,13184,5,2
80,184,13544,1,0
80,64,13904,2,0,C|128:32|256:32|360:32|424:72,1,360,2|8
416,232,15344,2,2,C|376:312|328:208,1,180,2|4
328,96,17024,5,0
168,192,17384,1,0
328,288,17744,1,2
160,264,18944,1,0
256,104,19304,1,0
352,264,19664,1,2
184,96,20864,5,0
344,192,21224,1,0
184,288,21584,2,0,C|128:312|72:200|120:88|192:128,1,360,2|8
288,192,23024,1,2
448,192,23504,5,4
192,40,24704,2,2,C|344:40,2,135,2|0|2
192,40,25904,1,8
192,320,26624,2,2,C|336:320,2,135,2|0|2
192,320,27824,1,8
32,320,28544,6,2,C|32:168,1,135,2|0
32,64,29264,2,0,C|64:96|104:64|144:96|176:64|208:96|240:64|272:96|304:80,1,360,2|2
456,256,30704,1,0
232,320,31184,1,4
256,192,37904,12,4,38864
256,192,39344,5,8
256,16,39824,1,0
256,192,40304,1,8
80,192,40784,1,0
256,192,41264,1,8
432,192,41744,1,0
256,192,42224,1,8
256,280,42464,1,8
256,368,42704,5,0
80,368,43184,1,8
80,192,43664,1,0
80,16,44144,1,8
256,16,44624,1,0
432,16,45104,1,8
432,192,45584,1,0
432,368,46064,1,8
344,368,46304,1,8
256,368,46544,1,0
80,336,47024,5,2
256,296,47504,1,0
432,256,47984,1,2
256,208,48464,1,0
80,160,48944,1,2
256,128,49424,1,0
432,96,49904,1,2
256,48,50384,1,0
80,88,50864,5,2
256,128,51344,1,0
432,168,51824,1,2
256,232,52304,1,0
80,264,52784,1,8
80,88,53264,1,2
80,264,53744,1,8
80,88,54224,5,2
280,88,54704,2,2,B|440:88,1,135
416,240,55424,2,2,B|264:240,1,135,2|2
281,240,56144,1,8
80,240,56624,6,8,B|224:240,1,135
216,104,57344,2,8,B|216:256,1,135
216,239,58064,1,2
256,48,58544,6,2,B|144:160,1,135
256,48,59264,2,2,B|368:168,1,135
256,264,59984,1,2
256,264,60464,6,2,B|256:112,1,135
256,129,61184,2,8,B|392:56,1,135
374,65,61904,1,2
152,56,62384,5,2
24,136,62744,1,2
80,272,63104,1,2
232,272,63464,1,2
280,136,63824,1,12
120,248,64304,5,8
152,104,64664,1,8
184,248,65024,1,8
72,152,65384,1,8
224,152,65744,1,2
360,8,66224,5,2
488,80,66584,1,2
360,152,66944,1,2
232,224,67304,1,2
360,296,67664,5,4
280,80,68144,1,4
192,296,68624,1,4
392,168,69104,1,2
280,168,69344,1,8
160,168,69584,1,4
464,48,70784,5,0
464,200,71144,1,0
464,352,71504,1,2
264,352,71984,2,8,C|128:352|56:240,1,270,8|2
56,96,73064,1,0
184,24,73424,2,0,C|280:24|368:80,1,180,2|8
256,352,74624,5,0
328,224,74984,1,0
176,224,75344,1,2
472,328,75824,5,8
472,56,76304,1,0
40,56,76784,5,8
40,328,77264,1,4
176,48,78464,6,0,C|328:48,2,135,0|0|2
40,192,79664,1,8
176,336,80384,2,0,C|328:336,2,135,0|0|2
40,192,81584,1,8
256,32,82304,5,0
184,160,82664,1,0
336,160,83024,1,2
40,56,83504,5,8
40,328,83984,1,0
472,328,84464,5,8
472,56,84944,1,4
40,88,86144,6,0,C|40:240,1,135
192,224,86864,1,2
192,224,87344,2,0,C|200:152|256:128|312:152|320:264,1,270,8|0
440,312,88424,2,0,C|480:248|480:160,1,135,0|2
481,189,89264,1,8
200,280,89984,5,0
352,280,90344,1,0
504,280,90704,1,2
504,80,91184,2,0,C|312:80,1,180,8|0
324,80,92144,2,0,C|128:80,1,180,8|4
144,80,93104,1,8
320,320,93824,6,0,C|432:240,1,135,2|0
429,241,94544,2,0,C|472:184|472:64,1,180,2|8
192,320,95744,6,0,C|80:240,1,135,2|0
82,241,96464,2,0,C|40:184|40:64,1,180,2|8
256,16,97664,6,0,C|256:152,1,135,2|0
256,152,98384,2,0,C|232:209|272:209|248:289,1,180,2|8
256,192,99344,12,4,100304
48,56,107984,5,0
48,152,108224,2,0,C|48:200,1,45,0|2
48,296,108584,1,0
144,296,108824,2,0,C|144:240,1,45,0|2
144,152,109184,1,0
144,56,109424,1,8
464,328,109904,5,0
464,232,110144,2,0,C|464:184,1,45,0|2
464,88,110504,1,0
368,88,110744,2,0,C|368:144,1,45,0|2
368,232,111104,1,0
368,328,111344,1,4
224,192,111824,5,0
176,104,112064,2,0,C|120:104,1,45,0|2
80,192,112424,1,0
128,280,112664,2,0,C|208:280,1,45,0|2
272,304,113024,1,0
368,336,113264,1,4
352,136,113744,6,0,C|384:96,4,45
256,136,114464,1,4
160,136,114704,2,0,C|128:96,4,45
256,136,115424,1,4
256,232,115664,1,4
104,104,116144,6,0,C|56:144|48:280|104:352,1,270,2|2
232,336,117224,1,2
384,336,117584,2,0,C|416:296|368:288|400:208,1,180,2|8
424,48,118784,5,2
272,48,119144,1,2
120,48,119504,2,2,C|120:248,1,180,2|8
416,232,120704,2,2,C|440:168|408:96,2,135
224,176,121904,1,8
56,248,122384,1,8
224,312,122864,1,8
392,248,123344,1,2
224,176,123824,5,2
480,40,124544,5,2
480,192,124904,1,2
480,344,125264,2,2,C|264:344,1,180,2|8
32,40,126464,5,2
32,192,126824,1,2
32,344,127184,2,2,C|248:344,1,180,2|8
256,248,128384,6,2,C|416:248,2,135
80,344,129584,1,8
256,248,130064,1,8
432,344,130544,1,8
480,152,131024,5,4
328,32,131504,1,8
144,112,131984,1,0
144,208,132224,1,0
72,272,132464,1,8
144,208,132704,1,0
232,256,132944,2,0,C|288:296|408:304,1,180,2|8
480,120,133904,5,0
304,32,134384,1,2
208,32,134624,2,0,B|288:168|216:336,1,270,0|2
136,296,135584,1,0
256,192,136304,12,4,138704
40,48,139184,5,8
64,248,139664,1,0
128,320,139904,1,0
192,248,140144,1,2
128,176,140384,2,0,B|248:120|400:184,1,270,0|8
390,179,141584,1,0
464,248,141824,1,0
392,312,142064,1,8
320,248,142304,1,0
144,336,142784,6,0,B|112:256|184:160|104:128|24:96|24:32|104:16|232:24,1,450,2|2
368,96,144464,1,0
488,256,144944,1,8
424,328,145184,1,0
360,256,145424,2,0,B|312:224|256:320|192:248,2,180,2|8|4
