osu file format v7

[General]
AudioFilename: 04.jealousy.mp3
AudioLeadIn: 0
PreviewTime: 7190
Countdown: 0
SampleSet: Soft
StackLeniency: 0.7
Mode: 0
LetterboxInBreaks: 1

[Editor]
DistanceSpacing: 0.800000011920929
BeatDivisor: 4
GridSize: 8

[Metadata]
Title:Jealousy (Extended Version)
Artist:3rd Coast
Creator:Pasonia
Version:Hard
Source:DJMAX
Tags:black square clazziquai technika JC

[Difficulty]
HPDrainRate:5
CircleSize:3
OverallDifficulty:6
SliderMultiplier:1.8
SliderTickRate:1

[Events]
//Background and Video events
0,0,"Background.JPG"
//Break Periods
2,69790,76220
//Storyboard Layer 0 (Background)
//Storyboard Layer 1 (Fail)
//Storyboard Layer 2 (Pass)
//Storyboard Layer 3 (Foreground)
//Storyboard Sound Samples
//Background Colour Transformations
3,100,163,162,255

[TimingPoints]
470,480.000944881891,4,2,0,100,1,0

[Colours]
Combo1 : 0,128,64
Combo2 : 88,171,171
Combo3 : 128,128,128
Combo4 : 240,0,120

[HitObjects]
160,96,6230,2,4,B|184:192|216:24|216:24|224:24|240:192|256:368|280:192|288:24|288:24|296:16|304:128|328:192|360:88|368:64,1,720,2|6
256,344,9350,2,0,B|208:352|152:328|144:248|144:192|248:176|264:208,1,270
256,200,10550,1,8
256,344,11270,2,0,B|304:352|360:328|368:248|368:192|264:176|248:208,1,270
256,200,12470,2,0,B|184:208|128:192|80:128|88:40|192:16|272:40,1,360
400,40,13910,5,2
280,120,14390,1,8
337,163,14630,1,0
395,204,14870,1,2
294,306,15350,1,8
239,259,15590,1,0
186,210,15830,1,4
256,192,17030,5,0
256,192,17750,1,0
256,192,18230,1,0
256,192,18950,1,0
256,192,19670,1,0
256,192,20150,1,0
256,192,20870,1,0
256,192,21590,1,0
256,192,22070,1,0
256,192,22550,1,0
256,192,23030,1,0
256,192,23510,1,0
256,192,23990,1,0
256,192,24710,5,0
256,192,25430,1,0
256,192,25910,1,0
256,192,26630,1,0
256,192,27350,1,0
256,192,27830,1,0
256,192,28550,1,0
256,192,29270,1,0
256,192,29750,1,0
256,192,29990,1,0
256,192,30230,1,0
256,192,30710,1,0
256,192,31190,1,4
256,192,32390,5,0
256,192,33110,1,0
256,192,33590,1,8
256,192,34310,1,0
256,192,34670,1,0
256,192,35030,1,0
256,192,35510,1,8
256,192,36230,1,0
256,192,36590,1,0
256,192,36950,1,0
256,192,37430,12,4,38870
256,192,40790,5,0
256,192,41030,1,0
256,192,42710,1,0
256,192,42950,1,0
256,192,44630,1,0
256,192,44870,1,0
256,192,46070,1,0
256,192,46310,1,0
256,192,46550,1,0
256,192,46790,1,0
256,192,47750,1,0
256,192,48470,1,0
256,192,48710,1,0
256,192,49670,1,0
256,192,49910,1,0
256,192,50390,1,0
256,192,50630,1,0
256,192,51590,1,0
256,192,51830,1,0
256,192,52310,1,0
256,192,52790,1,0
256,192,53270,1,0
256,192,53750,1,0
256,192,54230,1,0
256,192,54710,1,0
256,192,55190,1,0
256,192,55670,1,0
256,192,56150,1,0
256,192,56630,1,0
256,192,57110,1,0
256,192,57590,1,0
256,192,58070,1,0
256,192,58550,1,0
256,192,59030,1,0
256,192,59510,1,0
256,192,59990,1,0
256,192,60470,1,0
256,192,60950,1,0
256,192,61430,1,0
256,192,61910,1,0
256,192,62390,1,0
256,192,62870,1,0
256,192,63350,1,0
256,192,63830,1,0
256,192,64310,1,0
256,192,64790,1,0
256,192,65270,1,0
256,192,65750,12,0,69590
256,192,77270,5,0
