osu file format v5

[General]
AudioFilename: 09. Coastal Tempo.mp3
AudioLeadIn: 0
PreviewTime: 29623
Countdown: 1
SampleSet: Normal
StackLeniency: 0.7
Mode: 0
LetterboxInBreaks: 0

[Metadata]
Title:Coastal Tempo
Artist:3rd Coast
Creator:peppy
Version:Easy
Source:
Tags:djmax

[Difficulty]
HPDrainRate:4
CircleSize:3
OverallDifficulty:4
SliderMultiplier:0.8
SliderTickRate:2

[Events]
//Background and Video events
0,0,"coastaltempo.jpg"
1,0,"coastaltempo.avi"
//Break Periods
2,57813,70515
//Storyboard Layer 0 (Background)
//Storyboard Layer 1 (Failing)
//Storyboard Layer 2 (Passing)
//Storyboard Layer 3 (Foreground)
//Storyboard Sound Samples
//Background Colour Transformations
3,100,15,103,168

[TimingPoints]
724.215836518649,444.445470022205,4,1,0,100,1
28289,-100,4,2,0,100,0
59078,-100,4,1,0,100,0
71779,-100,4,2,0,100,0

[Colours]
Combo1 : 255,252,217
Combo2 : 3,208,252
Combo3 : 27,78,252
Combo4 : 248,240,90

[HitObjects]
112,72,7835,1,4
368,72,9613,1,0
368,328,11390,5,4
240,328,12279,1,0
128,264,13168,1,0
176,216,13613,1,0
128,176,14057,1,4
176,128,14502,1,4
176,64,14946,5,4
240,56,15390,1,0
304,64,15835,1,0
288,192,16724,1,0
352,184,17168,1,0
416,192,17613,1,0
488,296,18502,6,0,B|371:381|307:189|208:376|128:296,1,320
112,312,20724,1,0
72,264,21168,1,0
32,208,21613,1,0
104,144,22279,5,0
152,104,22724,1,2
192,152,23168,1,2
232,104,23613,1,2
280,64,24057,5,0
328,104,24502,1,2
376,64,24946,1,0
424,104,25391,1,2
424,104,25613,2,0,L|344:264|256:304,1,240
256,192,27390,12,4,29168
104,56,30057,5,0
168,56,30502,1,8
232,56,30946,1,0
296,56,31390,1,8
296,56,31613,1,0
296,56,31835,1,0
360,56,32279,1,8
400,104,32724,2,0,L|400:208,1,80,0|8
400,248,33613,5,0
336,248,34058,1,8
272,248,34502,1,0
208,248,34946,1,8
144,248,35390,2,0,L|32:248,3,80,0|8|0|8
32,192,37168,5,0
32,128,37613,1,8
80,88,38057,1,0
144,88,38502,1,8
192,128,38946,1,0
192,192,39390,1,8
208,256,39835,6,0,B|344:256,1,120,0|8
392,256,40946,1,8
416,192,41390,1,8
256,16,43390,5,4
256,144,44279,5,0
256,208,44724,1,8
256,272,45168,1,0
320,272,45613,1,8
384,272,46057,2,0,L|384:152,1,80,0|8
320,192,46946,1,0
256,192,47390,1,8
256,128,47835,5,0
256,64,48280,1,8
256,0,48724,1,0
192,0,49169,1,8
128,0,49613,2,0,L|128:120,3,80,0|8|0|8
128,144,51390,5,0
80,192,51835,1,8
64,256,52279,1,0
80,312,52724,1,8
136,336,53168,1,0
200,344,53613,1,8
264,328,54057,1,2
344,272,54724,1,2
376,104,55835,5,2
312,88,56279,1,2
248,88,56724,1,2
184,96,57168,1,2
128,120,57613,1,6
256,72,71835,5,4
112,176,72724,5,0
176,176,73168,1,0
240,176,73613,1,0
304,176,74057,1,2
336,176,74279,1,0
368,176,74502,1,0
432,176,74946,1,2
432,240,75391,1,0
432,304,75835,1,0
368,304,76279,5,0
304,304,76723,1,0
240,304,77168,1,0
176,304,77612,1,2
144,304,77834,1,0
112,304,78057,1,0
48,304,78501,1,2
48,240,78946,1,0
48,176,79390,1,8
48,112,79835,5,0
112,112,80279,1,8
176,112,80724,1,0
240,112,81168,1,10
272,112,81390,1,0
304,112,81613,1,0
368,112,82057,1,10
368,176,82502,1,0
368,240,82946,1,8
304,240,83391,5,0
240,240,83835,1,8
208,240,84057,1,0
176,240,84279,1,2
112,240,84724,1,10
112,176,85168,1,10
176,176,85613,1,10
240,176,86057,1,6
