osu file format v5

[General]
AudioFilename: 3OH_3_-_Starstrukk.mp3
AudioLeadIn: 0
PreviewTime: 40817
Countdown: 1
SampleSet: Normal
StackLeniency: 0.7
Mode: 0
LetterboxInBreaks: 1

[Metadata]
Title:Starstrukk
Artist:3oh!3
Creator:m980
Version:Normal
Source:
Tags:

[Difficulty]
HPDrainRate:2
CircleSize:3
OverallDifficulty:3
SliderMultiplier:1.7
SliderTickRate:2

[Events]
//Background and Video events
0,0,"bg.png"
//Break Periods
2,36312,40698
2,70384,72627
2,101455,106291
2,135527,138220
//Storyboard Layer 0 (Background)
//Storyboard Layer 1 (Failing)
//Storyboard Layer 2 (Passing)
//Storyboard Layer 3 (Foreground)
//Storyboard Sound Samples
//Background Colour Transformations
3,100,163,162,255

[TimingPoints]
3960,428.571428571429,4,1,0,100,1
138541,-100,4,2,0,61,0
145398,-100,4,2,0,69,0
152255,-100,4,2,0,81,0
159112,-100,4,2,0,92,0
165220,-100,4,1,0,100,0
180541,-100,4,2,0,41,0

[HitObjects]
48,336,8674,6,0,B|224:336,2,170
64,256,9745,1,0
144,256,9959,1,4
104,96,10388,6,0,B|160:32|264:32,1,170
256,112,11031,1,0
256,192,11245,2,2,B|357:200|405:128,1,170
480,280,12102,6,0,B|392:376|224:344,1,255
160,344,12959,2,0,B|48:352|16:264,1,170
40,104,13817,6,2,B|104:32|216:32,1,170
80,176,14674,2,2,B|144:104|256:104,1,170
384,40,15531,6,0,B|384:224,1,170
472,40,16388,2,0,B|472:216,1,170
392,360,17245,5,0
304,360,17459,1,0
216,360,17674,1,0
48,360,18102,2,2,B|-8:280|56:200,1,170
40,32,18960,6,0,B|312:32,1,255
296,112,19817,1,0
128,112,20245,1,0
200,264,20674,6,2,B|384:264,1,170
464,128,21531,1,2
504,304,22388,6,4,B|256:408|0:304,1,510
7,77,24102,6,4,B|256:-24|504:80,1,510
376,192,25817,6,4,B|96:192,2,255
256,312,27531,1,4
88,344,27960,6,0,B|-8:336|-8:216,1,170
8,56,28817,1,0
88,56,29031,5,0
88,56,29245,2,4,B|352:56,2,255
424,328,30960,6,4,B|160:328,2,255
511,192,32674,6,4,B|-9:192,1,510
0,24,34388,1,0
168,24,34817,5,0
256,104,35245,1,0
344,24,35674,1,0
432,104,36102,1,4
424,288,41888,5,0
352,344,42102,2,2,B|176:344,1,170
112,288,42745,1,0
40,336,42960,1,0
40,160,43388,2,4,B|40:16|216:16,1,255
472,16,44674,1,0
472,192,45102,2,4,B|472:344|296:328,1,255
256,248,45959,1,0
88,192,46388,6,2,B|112:104|224:96,1,170
256,168,47031,1,0
297,96,47245,2,2,B|400:104|424:192,1,170
256,248,48102,2,4,B|72:248,2,170
408,336,49388,1,0
408,336,49602,1,0
496,336,49817,5,0
472,160,50245,2,4,B|472:16|296:16,1,255
40,48,51531,1,0
40,224,51959,2,4,B|40:368|216:368,1,255
104,192,53245,6,2,B|288:192,2,170
136,112,54317,1,0
224,112,54531,1,0
392,104,54959,2,2,B|392:0|272:0,2,170
392,280,56245,1,0
392,280,56459,1,0
320,336,56674,6,4,B|128:376|0:216,3,340
32,40,60102,6,4,B|224:40,1,170
288,40,60745,1,0
376,40,60959,2,4,B|472:40,2,85
464,192,61817,2,4,B|272:192,1,170
208,192,62459,1,0
120,192,62674,2,4,B|24:192,2,85
32,344,63531,6,4,B|392:344,3,340
56,192,66959,6,0,B|56:88|168:88,1,170
224,152,67602,1,0
287,216,67817,2,2,B|394:217|394:113,1,170
488,264,68674,2,2,B|368:360|224:352,1,255
168,352,69531,1,0
168,264,69745,1,0
80,264,69959,1,0
80,352,70174,1,4
48,48,73817,6,0,B|432:48,1,340
472,48,74888,1,0
472,48,75102,1,4
472,224,75531,5,0
432,304,75745,1,0
352,264,75959,1,0
392,184,76174,1,0
304,184,76388,2,2,B|224:128|136:192,1,170
32,320,77245,6,4,B|168:320,2,127.5
32,232,78102,1,0
32,144,78317,1,0
32,56,78531,1,0
208,56,78959,6,2,B|384:56,3,170
504,176,80674,5,0
504,352,81102,1,0
328,352,81531,1,0
328,176,81959,1,0
160,224,82388,5,0
160,312,82602,1,0
72,312,82817,1,0
72,224,83031,1,0
116,148,83245,2,2,B|116:36|236:36,1,170
392,32,84102,6,4,B|464:24|512:80,2,127.5
336,104,84959,1,0
416,144,85174,1,0
496,184,85388,1,0
416,336,85817,6,2,B|224:336,1,170
72,336,86674,1,2
8,80,87531,6,4,B|256:-24|512:80,1,510
505,307,89245,6,4,B|256:408|8:304,1,510
136,192,90959,6,4,B|416:192,2,255
256,72,92674,1,0
424,40,93102,6,0,B|520:48|520:168,1,170
504,328,93959,1,0
424,328,94174,5,0
424,328,94388,2,4,B|160:328,2,255
88,56,96102,6,4,B|352:56,2,255
1,192,97817,6,4,B|521:192,1,510
512,360,99531,1,0
344,360,99959,5,0
256,280,100388,1,0
168,360,100817,1,0
80,280,101245,1,4
88,288,107031,5,0
160,344,107245,2,2,B|336:344,1,170
400,288,107888,1,0
472,336,108102,1,0
472,160,108531,2,4,B|472:16|296:16,1,255
40,16,109817,1,0
40,192,110245,2,4,B|40:344|216:328,1,255
256,248,111102,1,0
424,192,111531,6,2,B|400:104|288:96,1,170
256,168,112174,1,0
215,96,112388,2,2,B|112:104|88:192,1,170
256,248,113245,2,4,B|440:248,2,170
104,336,114531,1,0
104,336,114745,1,0
16,336,114959,5,0
40,160,115388,2,4,B|40:16|216:16,1,255
472,48,116674,1,0
472,224,117102,2,4,B|472:368|296:368,1,255
408,192,118388,6,2,B|224:192,2,170
376,112,119459,1,0
288,112,119674,1,0
120,104,120102,2,2,B|120:0|240:0,2,170
120,280,121388,1,0
120,280,121602,1,0
192,336,121817,6,4,B|384:376|512:216,3,340
480,40,125245,6,4,B|288:40,1,170
224,40,125888,1,0
136,40,126102,2,4,B|40:40,2,85
48,192,126959,2,4,B|240:192,1,170
304,192,127602,1,0
392,192,127817,2,4,B|488:192,2,85
480,344,128674,6,4,B|120:344,3,340
456,192,132102,6,2,B|456:88|344:88,1,170
288,152,132745,1,0
225,216,132959,2,2,B|118:217|118:113,1,170
24,264,133817,2,2,B|144:360|288:352,1,255
344,352,134674,1,0
344,264,134888,1,0
432,264,135102,1,0
432,352,135317,1,4
40,40,138959,6,2,B|312:40,1,255
296,128,139817,2,2,B|32:128,1,255
40,216,140674,1,0
40,304,140888,1,0
128,304,141102,1,0
128,216,141317,1,4
456,56,142388,6,2,B|456:240,2,170
296,56,143674,1,0
344,120,143888,1,0
296,184,144102,2,0,B|120:184,1,170
72,248,144745,1,4
472,40,145817,6,2,B|200:40,1,255
216,128,146674,2,2,B|480:128,1,255
472,216,147531,1,0
472,304,147745,1,0
384,304,147960,1,0
384,216,148174,1,4
56,56,149245,6,2,B|56:240,2,170
216,56,150531,1,0
168,120,150745,1,0
216,184,150960,2,0,B|392:184,1,170
440,248,151602,1,4
40,344,152674,6,2,B|312:344,1,255
296,256,153531,2,2,B|32:256,1,255
40,168,154388,1,0
40,80,154602,1,0
128,80,154817,1,0
128,168,155031,1,4
456,328,156102,6,2,B|456:144,2,170
296,328,157388,1,0
344,264,157602,1,0
296,200,157817,2,0,B|120:200,1,170
72,136,158460,1,4
472,344,159531,6,2,B|200:344,1,255
216,256,160388,2,2,B|480:256,1,255
472,168,161245,1,0
472,80,161460,1,0
384,80,161674,1,0
384,168,161888,1,4
56,328,162960,6,2,B|56:144,2,170
216,328,164245,1,0
168,264,164460,1,0
216,200,164674,1,0
456,144,165531,6,2,B|456:320,1,170
368,320,166174,1,0
368,232,166388,1,8
216,320,166817,1,0
64,240,167245,1,8
216,160,167674,1,0
376,88,168102,1,8
216,8,168531,1,0
56,88,168960,1,8
216,160,169388,1,0
72,256,169817,6,2,B|72:368|184:368,1,170
256,368,170460,1,0
343,367,170674,2,2,B|444:368|444:256,1,170,2|0
448,80,171531,2,4,B|256:-80|56:88,1,425
24,160,172817,1,0
24,336,173245,6,0,B|208:336,1,170,8|0
344,248,174102,2,0,B|152:248,1,170,8|0
328,160,174960,2,0,B|504:160,3,170,8|0|8|0
376,32,176674,5,8
288,32,176888,1,0
200,32,177102,1,8
112,32,177317,1,0
112,120,177531,2,0,B|16:120,3,85,8|0|8|0
24,208,178388,2,8,B|200:208,1,170
192,296,179031,1,0
280,296,179245,2,0,B|424:296|512:184,1,255,8|0
256,192,180102,12,0,181388
