osu file format v5

[General]
AudioFilename: 3OH_3_-_Starstrukk.mp3
AudioLeadIn: 0
PreviewTime: 40817
Countdown: 1
SampleSet: Normal
StackLeniency: 0.7
Mode: 0
LetterboxInBreaks: 1

[Metadata]
Title:Starstrukk
Artist:3oh!3
Creator:m980
Version:Insane
Source:
Tags:

[Difficulty]
HPDrainRate:7
CircleSize:4
OverallDifficulty:8
SliderMultiplier:2
SliderTickRate:2

[Events]
//Background and Video events
0,0,"bg.png"
//Break Periods
2,36312,40698
2,70384,72627
2,101455,106291
2,135527,138220
//Storyboard Layer 0 (Background)
//Storyboard Layer 1 (Failing)
//Storyboard Layer 2 (Passing)
//Storyboard Layer 3 (Foreground)
//Storyboard Sound Samples
//Background Colour Transformations
3,100,163,162,255

[TimingPoints]
3960,428.571428571429,4,1,0,100,1
138541,-100,4,2,0,61,0
145398,-100,4,2,0,69,0
152255,-100,4,2,0,81,0
159112,-100,4,2,0,92,0
165220,-100,4,1,0,100,0
180541,-100,4,2,0,41,0

[HitObjects]
156,47,8674,1,0
356,47,9102,1,0
256,224,9531,1,0
208,136,9745,1,0
304,136,9959,1,0
487,210,10388,6,0,B|464:336|360:342,1,200
256,344,11031,1,0
152,342,11245,2,2,B|48:336|24:208,1,200
480,40,12102,5,0
328,40,12424,1,0
328,40,12531,1,0
256,112,12745,2,0,B|240:56|168:56,1,100
119,135,13174,2,0,B|135:190|200:192,1,100,0|0
256,264,13602,1,0
464,176,13817,6,2,B|544:264|464:360,1,200
48,176,14674,2,2,B|-32:264|48:360,1,200
156,92,15531,5,0
356,92,15959,1,0
356,292,16388,1,0
156,292,16817,1,0
256,120,17245,5,0
328,192,17459,1,0
256,264,17674,1,0
184,192,17888,1,0
256,120,18102,2,2,B|312:32|440:40,1,200
496,224,18960,5,0
408,344,19281,1,0
408,344,19388,2,0,B|360:376|304:352,1,100
352,264,19817,2,0,B|386:138|224:112,1,200
256,216,20460,1,0
152,360,20674,6,2,B|40:352|0:232,1,200
360,24,21531,2,2,B|472:32|512:152,1,200
456,224,22174,6,4,B|400:336|296:80|192:232,1,300
144,80,23245,1,0
24,168,23567,1,0
136,264,23888,1,4
354,58,24531,6,4,B|466:82|493:211,1,200,4|4
456,336,25281,1,0
360,216,25602,1,4
136,16,26245,6,0,B|8:40|24:168,1,200,4|4
168,128,26995,1,0
256,248,27317,1,4
472,40,27960,5,0
336,192,28388,1,0
472,344,28817,1,0
368,344,29031,2,4,B|288:400|176:288|72:352,1,300
40,152,30102,5,4
136,40,30424,1,0
176,184,30745,1,4
472,152,31388,5,0
472,152,31817,1,4
376,40,32138,1,0
336,184,32460,1,4
40,248,33102,5,0
40,248,33531,2,0,B|80:320|184:328,1,150,4|0
168,176,34174,1,4
256,24,34817,5,0
256,136,35245,1,0
256,248,35674,1,0
256,360,36102,1,4
56,112,41888,5,0
136,48,42102,1,2
208,112,42317,1,0
304,112,42531,5,0
384,48,42745,1,2
464,112,42960,1,0
464,312,43388,5,0
312,312,43710,1,0
384,176,44031,1,0
256,208,44459,5,0
48,312,44674,5,0
48,312,45102,1,0
200,312,45424,1,0
128,176,45745,1,0
256,112,45959,5,0
440,24,46388,1,0
376,104,46602,1,0
472,128,46817,2,2,B|488:192|432:216,1,100,2|0
456,312,47245,1,0
456,312,47459,1,0
360,280,47674,2,2,B|336:336|256:320,1,100,2|0
280,224,48102,1,0
280,224,48317,1,0
192,176,48531,1,2
192,176,48745,1,0
168,272,48959,2,0,B|128:320|72:280,1,100,0|0
48,192,49388,1,2
48,192,49602,1,0
128,48,49817,5,0
128,48,50245,1,0
256,128,50567,1,0
384,48,50888,1,0
256,192,51317,5,0
128,336,51531,5,0
128,336,51959,1,0
256,256,52281,1,0
384,336,52602,1,0
32,136,53245,5,2
112,72,53459,1,0
192,136,53674,1,2
256,56,53888,1,0
320,136,54102,1,2
400,72,54317,1,0
480,136,54531,1,2
400,200,54745,1,0
320,256,54959,1,2
256,336,55174,1,0
192,256,55388,1,2
112,200,55602,1,0
256,200,55817,5,2
256,200,56031,1,0
256,56,56245,1,2
256,56,56459,1,0
156,59,56674,5,0
356,59,57102,1,0
480,144,57424,1,0
504,288,57745,1,0
416,240,57959,1,8
416,240,58174,1,0
356,325,58388,5,0
156,325,58817,1,0
32,240,59138,1,0
8,96,59459,1,0
96,144,59674,1,8
96,144,59888,1,0
120,56,60102,5,2
176,136,60317,1,0
256,80,60531,1,2
336,136,60745,1,0
392,56,60959,1,2
392,56,61174,1,0
256,192,61388,5,2
256,192,61602,1,0
392,336,61817,5,2
336,256,62031,1,0
256,312,62245,1,2
176,256,62459,1,0
120,336,62674,1,2
120,336,62888,1,0
256,192,63102,5,2
256,192,63317,1,0
176,128,63531,5,0
176,128,63959,2,4,B|24:128,2,150
256,64,64817,1,0
256,64,65031,1,0
336,128,65245,1,0
336,128,65674,2,4,B|488:128,2,150
256,192,66531,1,4
40,301,66959,5,2
40,301,67174,1,0
144,373,67388,1,2
144,373,67602,1,0
256,309,67817,1,2
256,309,68031,1,0
368,373,68245,1,2
368,373,68459,1,0
472,301,68674,1,2
472,301,68888,1,0
368,229,69102,5,2
256,165,69317,1,0
144,229,69531,1,2
192,109,69745,1,0
320,109,69959,1,2
256,0,70174,1,0
72,104,73817,5,0
256,24,74245,1,0
440,104,74674,1,0
440,200,74888,1,0
440,296,75102,1,0
344,120,75531,5,0
256,168,75745,1,0
168,120,75959,1,0
256,168,76174,1,0
344,216,76388,2,2,B|256:300|166:214,1,200
32,64,77245,5,0
48,208,77567,1,0
48,208,77674,1,0
24,304,77888,1,0
114,345,78102,2,0,B|162:321|218:369,1,100
305,360,78531,2,0,B|351:321|399:345,1,100
472,280,78959,6,2,B|472:72,1,200
40,280,79817,2,2,B|40:72,1,200
256,56,80674,5,0
392,192,81102,1,0
256,328,81531,1,0
120,192,81959,1,0
308,140,82388,1,0
204,140,82602,1,0
204,244,82817,1,0
308,244,83031,1,0
480,288,83245,6,2,B|528:192|472:72,1,200
288,32,84102,5,0
136,40,84424,1,0
136,40,84531,1,0
48,96,84745,2,0,B|104:112|96:184,1,100
175,111,85174,2,0,B|168:173|224:189,1,100
256,280,85602,1,0
440,192,85817,6,2,B|520:280|448:376,1,200
72,192,86674,2,2,B|-8:280|64:376,1,200
152,336,87317,6,0,B|248:264|360:400|464:320,1,300
472,136,88388,1,4
392,8,88709,1,0
320,136,89031,1,4
40,32,89674,6,0,B|152:40|200:152,1,200,0|4
48,112,90424,1,0
160,208,90745,1,4
456,256,91388,6,0,B|392:344|256:312,1,200,0|4
264,168,92138,1,0
408,192,92459,1,4
152,32,93102,5,0
32,192,93531,1,0
152,352,93959,1,0
152,352,94174,6,0,B|208:240|352:352|416:232,1,300,0|0
384,40,95245,1,4
240,88,95567,1,0
384,128,95888,1,4
104,32,96531,6,0,B|-8:80|40:208,1,200,0|4
152,104,97281,1,0
112,248,97602,1,4
400,328,98245,6,0,B|344:256|216:272,1,200,0|4
344,200,98995,1,0
416,64,99317,1,4
256,24,99959,5,0
256,136,100388,1,0
256,248,100817,1,0
256,360,101245,1,4
456,112,107031,5,0
376,48,107245,1,2
304,112,107459,1,0
208,112,107674,5,0
128,48,107888,1,2
48,112,108102,1,0
48,312,108531,5,0
128,176,108852,1,0
200,312,109174,1,0
256,208,109602,5,0
464,312,109817,5,0
464,312,110245,1,0
384,176,110567,1,0
312,312,110888,1,0
256,112,111102,5,0
72,24,111531,1,2
136,104,111745,1,0
40,128,111959,2,0,B|24:192|80:216,1,100,0|0
56,312,112388,1,2
152,280,112602,1,0
152,280,112817,2,0,B|176:336|256:320,1,100
232,224,113245,1,2
320,176,113459,1,0
232,224,113674,1,0
320,176,113888,1,0
344,272,114102,2,0,B|384:320|440:280,1,100,2|0
464,192,114531,1,0
464,192,114745,1,0
384,48,114959,5,0
384,48,115388,1,0
256,128,115709,1,0
128,48,116031,1,0
256,192,116459,5,0
384,336,116674,5,0
384,336,117102,1,0
256,256,117424,1,0
128,336,117745,1,0
480,136,118388,5,2
400,72,118602,1,0
320,136,118817,1,2
256,56,119031,1,0
192,136,119245,1,2
112,72,119459,1,0
32,136,119674,1,2
112,200,119888,1,0
192,256,120102,1,2
256,336,120317,1,0
320,256,120531,1,2
400,200,120745,1,0
256,200,120959,5,2
256,56,121174,1,0
256,56,121388,1,2
256,200,121602,1,0
356,59,121817,5,0
156,59,122245,1,0
32,144,122567,1,0
8,288,122888,1,0
96,240,123102,1,8
96,240,123317,1,8
156,325,123531,5,0
356,325,123959,1,0
480,240,124281,1,0
504,96,124602,1,0
416,144,124817,1,8
416,144,125031,1,4
392,56,125245,5,2
336,136,125459,1,0
256,80,125674,1,2
176,136,125888,1,0
120,56,126102,1,2
120,56,126317,1,0
256,192,126531,5,2
256,192,126745,1,0
120,336,126959,5,2
176,256,127174,1,0
256,312,127388,1,2
336,256,127602,1,0
392,336,127817,1,2
392,336,128031,1,0
256,192,128245,5,0
256,192,128459,1,0
336,128,128674,5,0
336,128,129102,2,4,B|488:128,2,150
256,64,129959,1,0
256,64,130174,1,0
176,128,130388,1,0
176,128,130817,2,4,B|24:128,2,150
256,192,131674,1,0
472,301,132102,5,2
368,373,132317,1,0
256,309,132531,1,2
144,373,132745,1,0
40,301,132959,1,2
40,301,133174,1,0
144,373,133388,1,2
256,309,133602,1,0
368,373,133817,1,2
472,301,134031,1,0
368,229,134245,5,2
320,109,134459,1,0
192,109,134674,1,2
144,229,134888,1,0
256,165,135102,1,2
256,0,135317,1,0
160,24,138959,6,2,B|264:24,1,100
352,24,139388,1,0
352,24,139602,1,0
352,120,139817,6,2,B|248:120,1,100
160,120,140245,1,0
160,120,140459,1,0
256,216,140674,5,2
144,288,140888,1,0
256,360,141102,1,0
368,288,141317,1,2
464,40,141745,5,0
360,40,141959,1,0
256,40,142174,1,0
152,40,142388,2,2,B|24:40|32:168,2,200
176,136,143459,1,0
176,136,143674,1,0
256,200,143888,1,0
336,136,144102,1,0
416,200,144317,1,0
416,200,144531,1,0
456,296,144745,1,4
96,336,145817,6,2,B|216:336,1,100
296,336,146245,1,0
296,336,146460,1,0
296,232,146674,6,2,B|192:232,1,100
96,232,147102,1,0
96,232,147317,1,0
40,144,147531,5,0
96,56,147745,1,0
200,56,147960,1,0
256,144,148174,1,0
448,56,149031,5,0
448,56,149245,2,2,B|448:272,2,200
376,248,150531,1,0
376,248,150745,1,0
304,312,150960,1,0
208,344,151174,1,0
112,312,151388,1,0
40,240,151602,1,4
352,360,152674,6,2,B|248:360,1,100
160,360,153102,1,0
160,360,153317,1,0
160,264,153531,6,2,B|264:264,1,100
352,264,153960,1,0
352,264,154174,1,0
256,168,154388,5,2
368,96,154602,1,0
256,24,154817,1,0
144,96,155031,1,2
48,344,155460,5,0
152,344,155674,1,0
256,344,155888,1,0
360,344,156102,2,2,B|488:344|480:216,2,200
336,248,157174,1,0
336,248,157388,1,0
256,184,157602,1,0
176,248,157817,1,0
96,184,158031,1,0
96,184,158245,1,0
56,88,158460,1,4
416,48,159531,6,2,B|296:48,1,100
216,48,159960,1,0
216,48,160174,1,0
216,152,160388,6,2,B|320:152,1,100
416,152,160817,1,0
416,152,161031,1,0
472,240,161245,5,0
416,328,161460,1,0
312,328,161674,1,0
256,240,161888,1,0
64,328,162745,5,0
64,328,162960,2,2,B|64:112,2,200
136,136,164245,1,0
136,136,164460,1,0
208,72,164674,1,0
304,40,164888,1,0
400,72,165102,1,0
468,256,165317,5,0
388,320,165531,1,2
308,256,165745,1,0
204,256,165960,1,0
124,320,166174,1,2
44,256,166388,1,8
80,32,166817,1,8
168,216,167245,1,8
256,32,167674,1,8
344,216,168102,1,8
432,32,168531,1,8
256,152,168960,5,8
256,152,169174,1,0
256,360,169388,5,8
48,352,169817,5,8
48,248,170031,1,0
48,144,170245,1,8
48,40,170460,1,0
152,40,170674,2,0,B|176:96|248:88,1,100,8|0
151,151,171102,2,0,B|207:144|231:200,1,100,8|0
312,264,171531,1,8
416,264,171745,1,0
368,176,171960,1,8
416,88,172174,2,0,B|464:120|440:192,1,100,0|8
416,88,172602,2,0,B|472:104|512:56,1,100,0|8
416,88,173031,6,0,B|296:-32|120:56,1,300,0|8
256,216,174102,1,8
80,320,174531,1,8
80,216,174745,1,0
80,112,174960,1,8
256,216,175388,1,8
432,320,175817,1,8
432,216,176031,1,0
432,112,176245,1,8
184,32,176674,5,8
64,80,176888,1,0
64,80,177102,1,8
64,208,177317,1,0
64,208,177531,1,8
176,152,177745,1,0
176,152,177960,1,8
176,152,178174,1,0
256,48,178388,5,8
368,112,178602,1,0
256,184,178817,1,8
144,248,179031,1,0
256,312,179245,1,8
368,248,179460,1,0
480,184,179674,1,8
480,184,179888,1,0
256,192,180102,12,0,181388
