osu file format v5

[General]
AudioFilename: 3OH_3_-_Starstrukk.mp3
AudioLeadIn: 0
PreviewTime: 40817
Countdown: 1
SampleSet: Normal
StackLeniency: 0.7
Mode: 0
LetterboxInBreaks: 1

[Metadata]
Title:Starstrukk
Artist:3oh!3
Creator:m980
Version:Hard
Source:
Tags:

[Difficulty]
HPDrainRate:4
CircleSize:3
OverallDifficulty:5
SliderMultiplier:1.8
SliderTickRate:2

[Events]
//Background and Video events
0,0,"bg.png"
//Break Periods
2,36312,40698
2,70384,72627
2,101455,106291
2,135527,138220
//Storyboard Layer 0 (Background)
//Storyboard Layer 1 (Failing)
//Storyboard Layer 2 (Passing)
//Storyboard Layer 3 (Foreground)
//Storyboard Sound Samples
//Background Colour Transformations
3,100,163,162,255

[TimingPoints]
3960,428.571428571429,4,1,0,100,1
138541,-100,4,2,0,61,0
145398,-100,4,2,0,69,0
152255,-100,4,2,0,81,0
159112,-100,4,2,0,92,0
165220,-100,4,1,0,100,0
180541,-100,4,2,0,41,0

[HitObjects]
176,80,8674,2,0,B|256:0|352:96,1,180
312,256,9531,1,0
256,328,9745,1,0
200,256,9959,1,4
416,344,10388,5,0
480,280,10602,1,0
512,192,10817,1,0
480,104,11031,1,0
416,40,11245,2,2,B|224:40,1,180
32,280,12102,6,0,B|32:360|136:368|136:280,1,180
88,200,12745,1,0
44,120,12959,1,0
132,120,13174,1,0
88,40,13388,1,0
328,128,13817,6,2,B|400:32|480:128,1,180
328,256,14674,2,2,B|400:352|480:256,1,180
48,152,15531,6,0,B|48:48|176:48,1,180
48,232,16388,2,0,B|48:336|176:336,1,180
340,284,17245,1,0
420,236,17459,1,0
420,148,17674,1,0
340,100,17888,1,0
328,192,18102,6,2,B|120:192,1,180
352,16,18960,6,0,B|448:8|496:112,1,180
496,192,19602,1,0
493,277,19817,2,4,B|448:376|352:368,1,180
176,336,20674,6,2,B|88:384|0:328,1,180
96,176,21531,1,2
312,40,21960,5,2
400,40,22174,2,4,C|493:94|400:136|492:184|400:224|493:264|400:304,1,630
311,303,23888,6,4,C|219:264|312:224|220:184|312:136|219:94|312:40,1,630
128,32,25817,6,4,B|-24:200|136:352,2,360
304,72,27960,5,0
480,72,28388,1,0
480,248,28817,1,0
392,248,29031,6,4,C|353:341|313:248|273:340|225:248|183:341|129:248,1,630
127,160,30745,6,4,C|167:68|207:161|247:69|295:161|337:68|391:161,1,630,0|0
456,368,32674,6,4,B|520:192|448:8,2,360
256,32,34817,5,0
256,136,35245,1,0
256,248,35674,1,0
256,352,36102,1,4
412,168,41888,5,0
372,88,42102,1,2
300,32,42317,1,0
212,32,42531,5,0
140,88,42745,1,2
100,168,42960,1,0
208,312,43388,6,0,B|48:312,2,135,0|0|0
256,136,44459,5,0
256,136,44674,1,0
304,312,45102,2,8,B|464:312,2,135,0|0|0
256,232,45959,1,2
40,96,46388,5,0
112,40,46602,1,0
176,96,46817,2,0,B|256:32,1,90,2|0
336,40,47245,1,0
424,40,47459,2,0,B|520:40,2,90,0|2|0
456,120,48102,6,4,B|520:200|456:304,2,180,4|6|4
384,176,49174,1,0
384,264,49388,1,8
216,192,49817,5,0
40,152,50245,2,0,B|40:8,2,135
216,192,51317,5,0
216,192,51531,1,0
40,232,51959,2,0,B|40:376,2,135
328,8,53245,6,0,B|432:8,2,90,2|0|2
256,56,53888,1,0
184,104,54102,2,0,B|80:104,2,90,2|0|2
256,160,54745,1,0
352,184,54959,6,0,B|448:256|352:336,1,180
256,368,55602,1,0
155,332,55817,2,2,B|64:256|160:184,1,180
256,160,56459,1,0
256,160,56674,5,0
416,80,57102,2,4,B|256:-72|72:96,3,360
8,232,60102,6,0,B|8:352|120:352,1,180
96,264,60745,1,0
79,176,60959,2,2,B|183:176|183:296,1,180
256,344,61602,1,0
329,294,61817,6,0,B|329:176|432:176,1,180
416,264,62459,1,0
400,351,62674,2,2,B|504:352|504:232,1,180
256,8,63531,5,0
88,72,63959,2,4,B|256:184|448:64,3,360
88,352,66959,6,0,B|-8:352,2,90,4|0|4
144,280,67602,1,0
200,352,67817,2,0,B|304:352,1,90,4|0
344,280,68245,1,4
344,280,68459,1,0
408,344,68674,6,4,B|488:264|408:184,1,180
344,128,69317,1,0
272,80,69531,2,4,B|192:0|112:80,1,180,0|0
192,128,70174,1,4
176,312,73817,6,0,B|256:384|352:304,2,180
256,264,74888,1,0
256,176,75102,1,4
140,72,75531,5,0
212,24,75745,1,0
300,24,75959,1,0
372,72,76174,1,0
336,152,76388,2,2,B|256:72|176:152,1,180
448,232,77245,6,0,B|448:344|328:360,1,180
256,360,77888,1,0
168,357,78102,2,0,B|64:344|64:232,1,180
32,56,78959,6,2,B|224:56,1,180
480,56,79817,2,2,B|288:56,1,180
32,248,80674,6,0,B|32:360|152:360,1,180
368,359,81531,2,0,B|480:360|480:248,1,180
300,232,82388,6,4,B|196:232,1,90
212,144,82817,2,4,B|316:144,1,90,0|0
344,64,83245,2,2,B|160:64,1,180
64,232,84102,6,0,B|64:344|184:360,1,180
256,360,84745,1,0
343,357,84959,2,0,B|448:344|448:232,1,180
480,56,85817,6,2,B|288:56,1,180
32,56,86674,1,2
208,56,87102,5,2
256,128,87317,1,0
184,176,87531,2,0,B|256:272|336:168,3,180,0|8|0|8
480,143,89245,6,0,B|578:218|482:290,3,180,0|8|0|8
328,319,90959,6,4,B|254:417|182:321,3,180,4|12|4|12
256,152,92674,1,0
120,32,93102,6,0,B|32:104|128:192,2,180,8|0|8
208,32,94174,6,2,B|496:32,1,270
480,208,95245,1,0
472,344,95567,1,0
360,264,95888,1,4
32,208,96531,5,0
32,208,96959,1,0
40,344,97281,1,0
152,264,97602,1,4
480,176,98245,5,0
480,176,98674,1,0
472,40,98995,1,0
360,120,99317,1,4
256,32,99959,5,0
256,136,100388,1,0
256,248,100817,1,0
256,352,101245,1,4
100,168,107031,5,0
140,88,107245,1,2
212,32,107459,1,0
300,32,107674,5,0
372,88,107888,1,2
412,168,108102,1,0
304,312,108531,6,0,B|464:312,2,135,0|0|0
256,136,109602,5,0
256,136,109817,1,0
208,312,110245,2,8,B|48:312,2,135,0|0|0
256,232,111102,1,2
472,96,111531,5,0
400,40,111745,1,0
336,96,111959,2,0,B|256:32,1,90,2|0
176,40,112388,1,0
88,40,112602,2,0,B|-8:40,2,90,0|2|0
56,120,113245,6,4,B|-8:200|56:304,2,180,4|6|4
128,176,114317,1,0
128,264,114531,1,8
296,192,114959,5,0
472,152,115388,2,0,B|472:8,2,135
296,192,116459,5,0
296,192,116674,1,0
472,232,117102,2,0,B|472:376,2,135
184,8,118388,6,0,B|80:8,2,90,2|0|2
256,56,119031,1,0
328,104,119245,2,0,B|432:104,2,90,2|0|2
256,160,119888,1,0
160,184,120102,6,0,B|64:256|160:336,1,180
256,368,120745,1,0
357,332,120959,2,2,B|448:256|352:184,1,180
256,160,121602,1,0
256,160,121817,5,0
96,80,122245,2,4,B|256:-72|440:96,3,360
504,232,125245,6,0,B|504:352|392:352,1,180
416,264,125888,1,0
433,176,126102,2,2,B|329:176|329:296,1,180
256,344,126745,1,0
183,294,126959,6,0,B|183:176|80:176,1,180
96,264,127602,1,0
112,351,127817,2,2,B|8:352|8:232,1,180
256,8,128674,5,0
424,72,129102,2,4,B|256:184|64:64,3,360
424,352,132102,6,0,B|520:352,2,90,4|0|4
368,280,132745,1,0
312,352,132959,2,0,B|208:352,1,90,4|0
168,280,133388,1,4
168,280,133602,1,0
104,344,133817,6,4,B|24:264|104:184,1,180
168,128,134459,1,0
240,80,134674,2,4,B|320:0|400:80,1,180,0|0
320,128,135317,1,4
40,16,138959,6,2,B|232:16,1,180
472,16,139817,2,2,B|280:16,1,180
256,192,140674,1,0
213,271,140888,1,0
302,283,141102,1,0
256,360,141317,1,4
72,352,141745,5,0
72,352,141959,1,0
72,168,142388,2,2,B|72:24|264:24,1,270
352,24,143245,1,0
464,160,143674,1,0
416,232,143888,1,0
496,272,144102,1,0
464,360,144317,1,0
464,360,144531,1,0
464,360,144745,1,4
472,16,145817,6,2,B|280:16,1,180
40,16,146674,2,2,B|232:16,1,180
256,192,147531,1,0
299,271,147745,1,0
210,283,147960,1,0
256,360,148174,1,4
440,352,148602,5,0
440,352,148817,1,0
440,168,149245,2,2,B|440:24|248:24,1,270
160,24,150102,1,0
48,160,150531,1,0
96,232,150745,1,0
16,272,150960,1,0
48,360,151174,1,0
48,360,151388,1,0
48,360,151602,1,4
40,368,152674,6,2,B|232:368,1,180
472,368,153531,2,2,B|280:368,1,180
256,192,154388,1,0
213,113,154602,1,0
302,101,154817,1,0
256,24,155031,1,4
72,32,155460,5,0
72,32,155674,1,0
72,216,156102,2,2,B|72:360|264:360,1,270
352,360,156960,1,0
464,224,157388,1,0
416,152,157602,1,0
496,112,157817,1,0
464,24,158031,1,0
464,24,158245,1,0
464,24,158460,1,4
472,368,159531,6,2,B|280:368,1,180
40,368,160388,2,2,B|232:368,1,180
256,192,161245,1,0
299,113,161460,1,0
210,101,161674,1,0
256,24,161888,1,4
440,32,162317,5,0
440,32,162531,1,0
440,216,162960,2,2,B|440:360|248:360,1,270
160,360,163817,1,0
48,224,164245,1,0
96,152,164460,1,0
16,112,164674,1,0
48,24,164888,1,4
358,36,165317,5,0
430,92,165531,1,2
358,148,165745,1,0
358,236,165960,1,0
430,292,166174,1,2
358,348,166388,1,8
176,344,166817,1,8
6,284,167245,1,8
6,100,167674,1,8
176,40,168102,1,8
80,192,168531,1,8
256,192,168960,1,8
432,192,169388,1,10
336,40,169817,6,0,B|432:40,2,90,8|0|8
256,80,170460,1,0
176,120,170674,2,0,B|72:120,2,90,8|0|8
256,168,171317,1,0
336,208,171531,2,0,B|456:208,1,90,8|0
424,296,171960,1,8
336,296,172174,1,0
256,344,172388,2,8,B|72:344,2,180
104,248,173674,5,8
104,64,174102,1,8
256,160,174531,1,8
408,64,174960,1,8
408,248,175388,1,8
256,336,175817,1,8
256,248,176031,1,0
256,160,176245,1,8
96,72,176674,5,8
32,136,176888,1,0
96,200,177102,1,8
160,136,177317,1,0
224,72,177531,2,0,B|320:72,3,90,8|0|8|0
376,136,178388,1,8
464,136,178602,1,0
421,215,178817,1,8
464,288,179031,1,0
376,288,179245,1,8
304,344,179460,2,0,B|208:344,2,90,0|8|0
256,192,180102,12,0,181388
