osu file format v5

[General]
AudioFilename: 3OH_3_-_Starstrukk.mp3
AudioLeadIn: 0
PreviewTime: 40817
Countdown: 1
SampleSet: Normal
StackLeniency: 0.7
Mode: 0
LetterboxInBreaks: 1

[Metadata]
Title:Starstrukk
Artist:3oh!3
Creator:m980
Version:Easy
Source:
Tags:

[Difficulty]
HPDrainRate:2
CircleSize:3
OverallDifficulty:0
SliderMultiplier:1.3
SliderTickRate:1

[Events]
//Background and Video events
0,0,"bg.png"
//Break Periods
2,36302,40088
2,70384,72627
2,101455,106291
2,135527,138220
//Storyboard Layer 0 (Background)
//Storyboard Layer 1 (Failing)
//Storyboard Layer 2 (Passing)
//Storyboard Layer 3 (Foreground)
//Storyboard Sound Samples
//Background Colour Transformations
3,100,163,162,255

[TimingPoints]
3960,428.571428571429,4,1,0,100,1
138541,-100,4,2,0,61,0
145398,-100,4,2,0,69,0
152255,-100,4,2,0,81,0
159112,-100,4,2,0,92,0
165220,-100,4,1,0,100,0
180541,-100,4,2,0,41,0

[HitObjects]
96,144,8674,2,0,B|184:16|336:16|432:160,1,390
464,280,10388,5,0
360,344,10817,1,0
256,280,11245,2,2,B|192:312|120:272,1,130
96,160,12102,6,0,B|96:40|224:48,2,195
216,168,13817,6,2,B|272:208|352:160,3,130
464,32,15531,5,0
344,32,15959,1,0
224,32,16388,1,0
104,32,16817,1,0
24,136,17245,5,0
128,208,17674,1,0
120,336,18102,2,2,B|184:384|248:328,1,130
360,328,18960,6,0,B|472:328|504:216,2,195
368,208,20674,6,2,B|368:72,1,130
256,24,21531,1,2
16,61,22388,6,4,B|16:333,1,260
496,321,24102,6,4,B|496:61,1,260
336,240,25817,6,4,B|320:360|184:360|176:224,2,260
256,144,27960,5,0
256,144,28388,1,4
496,323,29245,6,4,B|496:51,1,260
16,63,30960,6,4,B|16:323,1,260
176,144,32674,6,4,B|192:24|328:24|336:160,2,260
144,240,34817,5,0
144,360,35245,1,0
376,296,36102,1,4
192,88,42102,6,0,B|256:40|328:96,2,130
136,192,43388,6,0,B|136:328,2,130
256,224,44674,5,4
376,192,45102,6,0,B|376:336,2,130
428,81,46388,5,2
316,25,46817,1,0
196,25,47245,1,2
84,81,47674,1,0
32,192,48102,6,0,B|56:296|184:320,2,195,2|2|2
224,192,49817,5,0
288,296,50245,6,0,B|432:296,2,130
352,192,51531,5,4
288,88,51959,6,0,B|432:88,2,130
168,88,53245,6,0,B|96:88|72:176,2,130,2|0|2
232,192,54531,1,0
136,264,54959,6,0,B|200:360|312:352,1,195,2|0
376,352,55817,2,0,B|456:344|496:272,1,130,2|0
504,168,56674,6,4,B|256:24|0:176,2,520
448,280,60531,6,0,B|368:384|192:360,1,260
120,288,61817,2,0,B|136:208|216:224,2,130,0|0|4
8,168,63531,6,4,B|256:24|512:176,2,520
64,280,67388,6,0,B|144:384|320:360,1,260
392,288,68674,2,0,B|376:208|296:224,2,130,0|0|4
472,192,69959,1,0
472,192,70174,1,4
56,152,73817,6,0,B|120:32|288:40,1,260
256,160,75102,1,0
152,224,75531,6,0,B|192:368|360:368,1,260,0|2
424,272,76817,1,2
488,168,77245,6,0,B|488:0|256:0|248:176,1,390
128,176,78959,5,2
128,296,79388,1,2
248,296,79817,2,2,B|392:296,1,130
440,192,80674,6,0,B|440:32|264:24,2,260
320,192,82817,1,0
200,192,83245,6,2,B|40:192,1,130
40,312,84102,6,0,B|168:376|304:312,1,260
408,304,85388,1,0
408,184,85817,6,2,B|272:184,2,130
496,61,87531,6,4,B|496:333,1,260
16,321,89245,6,4,B|16:61,1,260
176,240,90959,6,4,B|192:360|328:360|336:224,2,260
256,144,93102,5,0
256,144,93531,1,4
16,323,94388,6,4,B|16:51,1,260
496,63,96102,6,4,B|496:323,1,260
336,144,97817,6,4,B|320:24|184:24|176:160,2,260
368,240,99959,5,0
368,360,100388,1,0
136,296,101245,1,4
320,88,107245,6,0,B|256:40|184:96,2,130
376,192,108531,6,0,B|376:328,2,130
256,224,109817,5,4
136,192,110245,6,0,B|136:336,2,130
84,81,111531,5,2
196,25,111959,1,0
316,25,112388,1,2
428,81,112817,1,0
480,192,113245,6,0,B|456:296|328:320,2,195,2|2|2
288,192,114959,5,0
224,296,115388,6,0,B|80:296,2,130
160,192,116674,5,4
224,88,117102,6,0,B|80:88,2,130
344,88,118388,6,0,B|416:88|440:176,2,130,2|0|2
280,192,119674,1,0
376,264,120102,6,0,B|312:360|200:352,1,195,2|0
136,352,120959,2,0,B|56:344|16:272,1,130,2|0
8,168,121817,6,4,B|256:24|512:176,2,520
64,280,125674,6,0,B|144:384|320:360,1,260
392,288,126959,2,0,B|376:208|296:224,2,130,0|0|4
504,168,128674,6,4,B|256:24|0:176,2,520
448,280,132531,6,0,B|368:384|192:360,1,260
120,288,133817,2,0,B|136:208|216:224,2,130,4|0|4
40,192,135102,1,0
40,192,135317,1,4
56,48,138959,6,2,B|328:48,2,260
56,168,141102,1,0
56,168,141317,1,2
288,352,142388,6,0,B|440:352,1,130
496,256,143245,1,0
416,112,144102,2,0,B|264:112,1,130
208,16,144959,1,4
456,336,145817,6,2,B|184:336,2,260
456,216,147960,1,0
456,216,148174,1,2
224,32,149245,6,0,B|72:32,1,130
16,128,150102,1,0
96,272,150960,2,0,B|248:272,1,130
304,368,151817,1,4
456,48,152674,6,2,B|184:48,2,260
456,168,154817,1,0
456,168,155031,1,2
224,352,156102,6,0,B|72:352,1,130
16,256,156960,1,0
96,112,157817,2,0,B|248:112,1,130
304,16,158674,1,4
56,336,159531,6,2,B|328:336,2,260
56,216,161674,1,0
56,216,161888,1,2
288,32,162960,6,0,B|440:32,1,130
496,128,163817,1,0
416,272,164674,2,0,B|264:272,1,130
256,152,165531,5,0
316,46,165960,1,0
196,46,166388,1,4
40,232,167245,1,4
256,344,168102,1,4
472,232,168960,1,4
256,112,169817,6,4,B|136:24|8:128,2,260
316,218,171960,1,0
196,218,172388,1,4
40,152,173245,5,4
256,40,174102,1,4
472,152,174960,1,4
256,40,175817,1,0
256,272,176674,6,4,B|136:360|8:256,2,260
196,166,178817,1,0
316,166,179245,1,4
256,56,179674,1,0
256,192,180102,12,0,181388
