osu file format v5

[General]
AudioFilename: 3oh!3 - RICHMAN.mp3
AudioLeadIn: 0
PreviewTime: -1
Countdown: 0
SampleSet: Normal
StackLeniency: 0.7
Mode: 0
LetterboxInBreaks: 1
EditorBookmarks: 40451

[Metadata]
Title:Richman
Artist:3oh!3
Creator:Mafiamaster
Version:Hard
Source:
Tags:

[Difficulty]
HPDrainRate:7
CircleSize:5
OverallDifficulty:6
SliderMultiplier:1.6
SliderTickRate:1

[Events]
//Background and Video events
0,0,"bg.png"
//Break Periods
2,63431,66070
2,91024,100329
2,113801,124774
//Storyboard Layer 0 (Background)
//Storyboard Layer 1 (Failing)
//Storyboard Layer 2 (Passing)
//Storyboard Layer 3 (Foreground)
//Storyboard Sound Samples
//Background Colour Transformations
3,100,0,0,0

[TimingPoints]
1955,370.37037037037,4,2,0,100,1,0
16750,370.37037037037,4,1,0,100,1,0
28507,-100,4,1,0,100,0,0
28600,-100,4,1,0,100,0,0
138414,-100,4,2,0,100,0,0
148695,-100,4,1,0,100,0,0
196653,-100,4,2,0,0,0,0

[HitObjects]
256,208,1955,1,8
416,208,2325,1,2
416,48,2695,1,2
352,16,2880,1,0
288,48,3066,1,0
224,16,3251,1,0
160,48,3436,1,8
160,208,3806,1,0
320,208,4177,1,0
320,128,4362,2,4,B|240:48|240:48|272:96|224:176,1,240,0|4
160,304,5288,5,2
320,304,5658,1,2
400,288,5843,1,0
448,224,6029,1,0
432,144,6214,1,0
360,112,6399,1,8
328,40,6584,2,8,B|408:56|488:104,2,160
264,88,7510,1,0
296,160,7695,1,0
96,48,8066,5,10
48,112,8251,1,0
96,176,8436,1,2
160,48,8806,5,10
208,112,8992,1,0
160,176,9177,1,2
96,320,9547,5,8
176,320,9732,2,0,B|256:320|256:208,1,140
256,144,10288,1,2
320,96,10473,1,2
384,144,10658,1,2
96,208,11214,5,8
256,192,11492,12,4,12140
416,208,12695,5,8
256,192,12973,12,4,13621
384,336,15566,2,0,B|384:160,2,160,0|0|0
112,336,16750,1,6
384,256,17120,1,0
112,224,17490,1,0
384,160,17861,1,0
112,112,18231,1,0
384,64,18601,1,0
112,16,18972,6,0,B|112:64|176:64,1,80
240,64,19342,1,0
320,64,19527,2,0,B|320:112|384:112,1,80,0|4
384,272,20083,1,0
96,272,20453,1,0
96,32,20824,1,0
384,32,21194,1,0
384,272,21564,1,0
320,320,21749,1,0
256,272,21935,1,0
320,224,22120,2,0,B|320:48,1,160,0|4
240,64,22675,5,2
176,16,22861,1,0
112,64,23046,1,0
240,160,23416,5,0
176,208,23601,1,0
112,160,23787,1,0
176,112,23972,1,0
256,112,24157,1,0
176,112,24342,1,0
96,112,24527,1,0
256,112,24898,6,0,L|352:112,1,80
400,64,25268,2,0,L|400:160,1,80
448,208,25638,2,0,L|352:208,1,80,4|0
288,208,26009,1,0
208,208,26194,2,0,L|208:288,1,80
144,336,26564,1,0
80,288,26749,2,0,L|80:192,1,80
144,256,27120,1,0
144,176,27305,1,0
144,96,27490,1,0
256,192,27675,12,0,28416
256,208,28601,5,6
32,208,28972,1,0
32,32,29342,1,8
256,32,29712,1,0
480,32,30083,1,0
480,208,30453,1,0
480,368,30824,5,8
400,368,31009,1,0
320,368,31194,1,0
240,368,31379,1,0
160,368,31564,2,0,B|64:368|64:240,2,160,12|0|12
400,368,32675,1,0
400,112,33046,1,0
160,112,33416,6,0,B|224:96|272:112,3,80,8|0|8|0
320,112,34157,1,0
384,160,34342,1,0
432,224,34527,1,6
384,288,34712,1,0
336,352,34898,2,0,B|400:368|432:368,2,80,8|0|8
256,336,35453,1,0
176,304,35638,1,0
112,256,35824,1,0
96,176,36009,1,0
144,112,36194,1,0
224,96,36379,1,0
224,256,36749,6,0,L|320:256,1,80,8|0
368,304,37120,2,0,L|368:208,1,80
416,160,37490,2,0,L|320:160,1,80,4|0
256,160,37861,1,0
176,160,38046,2,0,L|176:240,1,80,0|8
96,264,38416,1,0
48,328,38601,2,0,L|144:328,1,80
208,328,38972,2,0,B|256:328|256:264,1,80
256,192,39342,1,0
256,48,39712,5,8
216,120,39898,1,0
296,120,40083,1,0
256,272,40453,1,6
96,272,40824,5,0
96,112,41194,1,10
160,160,41379,1,0
224,112,41564,1,0
288,160,41749,1,0
352,112,41935,2,0,B|352:16|464:16,2,160,10|0|10
432,96,42861,1,0
480,160,43046,1,0
432,224,43231,2,0,B|432:336|240:336,1,240
96,336,44157,5,8
176,336,44342,1,0
176,256,44527,1,0
256,256,44712,2,0,B|256:160,1,80
176,176,45083,1,0
336,176,45453,2,0,B|464:176|496:32|416:32,1,240
368,96,46194,1,0
208,96,46564,6,0,B|112:96,1,80,0|0
64,144,46935,1,0
128,192,47120,2,0,B|304:192,1,160,10|0
352,240,47675,1,0
288,288,47861,2,0,B|112:288,1,160,2|0
64,240,48416,1,2
144,96,48787,5,0
80,144,48972,1,0
208,48,49342,2,0,B|304:48|304:160,1,160
304,224,49898,1,0
384,256,50083,1,8
304,288,50268,1,0
384,320,50453,1,0
304,352,50638,2,0,B|256:352|240:304,1,80
208,240,51009,5,0
160,176,51194,2,0,B|64:176|64:64,1,160,0|8
160,72,51749,1,0
264,80,51935,2,0,B|264:176|152:176,2,160,0|2|0
384,64,53046,5,10
448,112,53231,1,0
400,176,53416,1,0
336,128,53601,1,0
256,128,53787,2,0,B|80:128,1,160,2|0
96,288,54527,1,10
176,288,54712,2,0,B|432:288,1,240,0|4
416,128,55638,5,0
256,128,56009,1,8
176,160,56194,1,0
160,240,56379,1,0
208,304,56564,1,0
288,304,56749,1,0
336,240,56935,1,0
432,112,57305,1,0
288,304,57861,1,0
336,240,58046,1,0
240,368,58416,5,0
192,304,58601,1,0
144,240,58787,1,0
96,176,58972,1,10
240,96,59342,2,0,B|336:96,2,80,0|0|2
80,96,60083,1,0
160,96,60268,2,2,B|256:96|256:224,1,160
320,160,60824,1,0
320,320,61194,5,0
160,320,61564,2,0,B|112:336|80:320,1,80
128,256,61935,1,8
176,192,62120,2,0,B|128:176|96:192,2,80
256,224,62675,2,0,B|304:240|336:224,1,80
400,192,63046,1,0
320,160,63231,1,4
256,32,67120,5,6
256,352,67490,1,0
80,80,67861,1,8
256,352,68231,1,0
432,80,68601,1,0
256,352,68972,1,0
256,32,69342,1,8
256,112,69527,1,0
256,192,69712,1,0
256,272,69898,1,0
176,272,70083,6,0,B|96:272|96:144,2,160,14|0|12
336,272,71194,6,0,B|416:272|416:144,2,160,4|0|4
256,272,72120,1,0
208,208,72305,1,8
272,160,72490,1,0
208,112,72675,1,0
272,64,72861,2,0,B|320:64|320:128,1,80,0|2
320,192,73231,1,0
400,192,73416,2,0,B|496:192|496:304,1,160,0|8
416,272,73972,5,0
336,256,74157,1,0
288,320,74342,1,0
208,288,74527,2,0,B|96:288|96:192,2,160,8|0|8
288,288,75453,2,0,B|384:288,1,80
448,288,75824,1,0
448,208,76009,2,0,B|368:144,1,80,2|0
384,240,76379,1,0
304,240,76564,2,0,B|224:176,1,80,0|8
240,272,76935,1,0
160,272,77120,2,0,B|96:272|96:208,2,80
240,272,77675,5,0
320,272,77861,1,0
400,272,78046,2,0,B|320:208,1,80,0|8
272,176,78416,2,0,B|192:112,1,80
288,128,78787,1,0
256,48,78972,5,6
416,320,79342,1,0
96,320,79712,2,0,B|192:320,1,80,8|0
256,320,80083,1,0
416,320,80453,5,0
256,320,80824,1,0
256,160,81194,2,0,B|256:256,1,80,8|0
192,288,81564,1,0
256,320,81750,1,0
320,288,81935,1,6
256,32,82305,1,0
192,176,82675,6,0,B|272:240,1,80,8|0
272,144,83046,1,0
208,96,83231,1,0
256,32,83416,2,0,B|384:144,1,160
432,192,83972,1,0
368,240,84157,2,0,B|368:336|256:336,1,160,8|0
224,264,84712,2,0,B|160:264|160:312,2,80,0|2|0
272,200,85268,1,0
320,336,85638,5,8
240,336,85824,1,0
160,336,86009,1,0
80,336,86194,1,0
80,256,86379,2,0,B|80:80,1,160
240,96,87120,5,8
320,96,87305,1,0
400,96,87490,1,0
480,96,87675,1,0
480,176,87861,2,0,B|480:272|368:272,1,160,2|0
304,272,88416,1,0
224,272,88601,2,0,B|288:208,1,80
336,160,88972,1,0
400,208,89157,2,0,B|464:272,1,80
256,192,89527,12,4,90824
416,64,101379,5,0
336,64,101564,1,0
176,64,101935,2,0,B|96:64|96:128,2,80,8|0|8
336,64,102675,1,0
336,224,103046,5,0
176,224,103416,1,10
192,144,103601,1,0
256,96,103787,1,0
320,144,103972,1,0
256,192,104157,2,0,B|256:368,1,160,2|0
416,352,104898,1,10
416,272,105083,1,0
416,192,105268,1,0
416,112,105453,2,0,B|416:16|208:16,1,240
64,16,106379,5,10
128,64,106564,1,0
64,112,106750,1,0
128,160,106935,2,0,B|64:224,2,80,0|2|0
240,48,107675,1,0
320,48,107861,1,2
432,176,108231,1,0
368,224,108416,2,0,B|304:272|208:256,1,160
144,240,108972,5,0
96,176,109157,1,0
144,112,109342,1,10
240,240,109712,1,0
288,176,109898,1,0
240,112,110083,1,2
192,256,110453,1,0
192,176,110638,1,2
352,176,111009,5,0
432,176,111194,2,0,B|432:272|304:272,2,160
432,96,112120,1,0
352,64,112305,2,0,B|272:96,1,80,8|0
240,32,112675,1,0
184,88,112861,2,0,B|240:152,1,80
304,192,113231,2,0,B|224:224,1,80
152,240,113601,1,4
256,32,125824,5,8
256,192,126194,1,8
256,192,126379,1,4
32,368,127120,5,8
256,32,128601,5,8
480,368,130083,5,8
32,32,131564,5,8
256,368,133046,5,8
480,32,134527,5,8
256,208,136009,5,8
256,368,137675,5,8
256,208,138046,1,8
256,208,138231,1,8
96,208,138601,6,0,B|0:208|0:96,2,160
176,208,139527,1,2
176,288,139712,1,4
336,288,140083,5,2
336,128,140453,2,0,B|272:128|272:192,2,80
416,128,141009,2,0,B|480:128|480:192,1,80,0|4
480,320,141564,5,2
400,320,141750,1,2
320,320,141935,2,0,B|256:320|256:272,1,80
256,208,142305,2,0,B|160:208|160:320,2,160,0|4|0
257,283,143231,1,0
256,208,143416,2,0,B|432:208|432:32|272:32,1,320,0|4
128,32,144527,6,0,B|192:32|192:80,1,80
192,144,144898,1,2
160,160,144990,1,0
128,176,145083,1,2
96,192,145175,1,2
64,208,145268,1,2
64,288,145453,1,2
144,256,145638,1,4
288,192,146009,5,0
288,192,146101,2,0,B|336:192|320:144|288:144,1,80
400,176,146564,1,2
416,208,146657,1,0
432,240,146750,1,0
448,272,146842,1,2
464,304,146935,1,0
480,336,147027,1,2
448,352,147120,1,4
288,352,147490,5,0
128,352,147861,2,0,B|80:336|64:304,1,80
128,208,148324,2,0,B|208:160|224:112,1,120,0|4
288,96,148787,5,0
368,64,148972,2,0,B|432:144|384:240,1,160
336,160,149527,1,0
336,240,149712,1,0
176,240,150083,1,4
176,80,150453,5,0
336,80,150824,2,0,B|336:176,1,80,2|0
272,208,151194,1,0
192,208,151379,1,0
112,208,151564,2,0,B|32:208|32:80,2,160,10|0|10
272,208,152675,1,0
192,208,152861,2,0,B|128:208|128:288|192:320|320:304,1,240
464,304,153787,6,0,B|384:240,1,80,10|0
464,208,154157,1,0
400,160,154342,1,0
336,208,154527,2,0,B|256:144,1,80,2|0
144,64,155083,2,2,B|32:64|32:256,1,240,2|2
32,320,155824,1,0
112,344,156009,1,4
192,320,156194,5,0
128,272,156379,1,0
112,192,156564,1,0
160,128,156750,2,0,B|208:64|304:64,1,160,8|0
368,32,157305,1,0
432,80,157490,2,0,B|432:176|320:176,1,160
280,112,158046,2,0,B|280:208|168:208,1,160
176,288,158601,6,0,B|80:288|80:176,2,160,0|4|0
272,208,159527,2,0,B|368:208,1,80,0|8
432,208,159898,1,0
432,288,160083,2,0,B|336:288,1,80
272,288,160453,1,0
192,288,160638,1,0
112,288,160824,2,0,B|16:288|32:176,1,160,0|8
96,224,161379,1,0
160,176,161564,1,0
320,176,161935,5,4
256,32,162305,1,0
192,176,162675,1,10
256,224,162861,1,0
320,176,163046,1,0
256,128,163231,1,0
192,176,163416,2,0,B|96:176|96:288,2,160,10|0|8
272,176,164342,1,0
352,176,164527,1,0
352,96,164712,2,0,B|464:96|464:288,1,240
320,336,165638,5,10
240,336,165824,2,0,B|320:272,1,80
224,272,166194,1,0
160,320,166379,1,2
80,304,166564,2,0,B|208:192,1,160
384,40,167490,1,0
328,96,167675,2,0,B|440:96|440:208,1,160
416,256,168231,5,0
352,304,168416,1,0
288,256,168601,1,10
352,112,168972,1,0
272,112,169157,1,0
192,112,169342,1,2
352,160,169712,1,0
272,160,169898,1,0
112,160,170268,5,0
192,160,170453,2,0,B|96:160|96:288,2,160
272,160,171379,1,0
352,160,171564,1,10
432,160,171749,2,0,B|368:240,1,80
304,224,172120,1,0
224,224,172305,2,0,B|288:304,1,80,2|0
352,288,172675,1,0
304,352,172861,1,0
224,352,173046,2,0,B|176:352|176:288,1,80,8|0
112,352,173416,2,0,B|16:352|16:240,1,160,0|4
16,80,174157,6,0,B|16:176|128:176,1,160,0|10
192,176,174712,1,0
272,176,174898,1,0
352,176,175083,1,0
432,176,175268,2,0,B|432:80|304:80,2,160,10|0|10
432,256,176194,1,0
352,256,176379,1,0
272,256,176564,2,0,B|128:288|88:128,1,240
176,160,177305,5,0
256,192,177490,1,10
304,128,177675,1,0
256,48,177861,1,0
208,128,178046,1,0
304,128,178231,5,2
400,128,178416,2,0,B|400:304,2,160,0|0|0
336,200,179342,1,0
264,256,179527,1,0
192,192,179712,1,0
264,128,179898,5,0
360,128,180083,1,0
336,200,180268,1,0
432,200,180453,2,0,B|432:296,2,80,10|0|8
336,200,181009,1,0
240,200,181194,2,0,B|240:104|128:104,1,160,2|0
40,104,181749,1,0
40,288,182120,5,0
136,288,182305,1,0
232,288,182490,1,0
328,288,182675,2,0,B|424:288|424:176,1,160,2|0
424,88,183231,2,0,B|344:136,1,80,0|10
264,104,183601,1,0
176,136,183787,2,0,B|224:216,1,80
312,208,184157,1,2
240,272,184342,1,0
152,312,184527,2,0,B|88:344|40:312,1,80
120,240,184898,5,8
56,168,185083,1,0
120,96,185268,1,0
296,168,185638,1,4
56,168,186009,5,0
232,104,186379,1,10
296,168,186564,1,0
232,240,186749,1,0
168,168,186935,1,0
232,104,187120,2,2,B|336:80|368:160,2,160,8|0|8
136,104,188046,2,0,B|40:104,1,80
40,200,188416,2,0,B|40:344|200:344,1,240
288,344,189157,1,0
376,312,189342,5,10
408,224,189527,1,0
312,224,189712,2,0,B|216:224,2,80,0|0|2
360,144,190268,2,0,B|472:144|472:32,2,160
264,144,191194,1,0
168,136,191379,2,0,B|104:136|104:72,2,80,0|4|0
264,144,191935,5,0
360,144,192120,1,0
360,240,192305,2,0,B|440:240|440:272,2,80,2|0|0
264,208,192861,1,0
168,184,193046,2,0,B|120:152|72:168,1,80,2|0
120,72,193416,1,0
200,32,193601,2,0,B|216:144|232:160|280:192,1,160
320,248,194157,1,0
408,272,194342,1,0
432,184,194527,6,0,B|432:88|320:88,1,160
232,80,195083,1,0
136,80,195268,2,0,B|200:144,1,80,8|0
256,200,195638,1,0
160,216,195824,2,0,B|217:272,1,80
312,280,196194,2,0,B|336:184,1,80
408,256,196564,1,4
256,192,196749,12,0,197490
