osu file format v9

[General]
AudioFilename: 3in1 - Sexy.mp3
AudioLeadIn: 0
PreviewTime: 51298
Countdown: 1
SampleSet: Normal
StackLeniency: 0.7
Mode: 0
LetterboxInBreaks: 1

[Editor]
DistanceSpacing: 0.8
BeatDivisor: 2
GridSize: 16

[Metadata]
Title:Sexy
Artist:3in1
Creator:KcLKcL
Version:Easy
Source:
Tags:indonesian pop, 3in1, 3 in 1, alay

[Difficulty]
HPDrainRate:3
CircleSize:3
OverallDifficulty:3
ApproachRate:3
SliderMultiplier:1.4
SliderTickRate:1

[Events]
//Background and Video events
//Break Periods
2,37180,50771
2,80103,87694
//Storyboard Layer 0 (Background)
//Storyboard Layer 1 (Fail)
//Storyboard Layer 2 (Pass)
//Storyboard Layer 3 (Foreground)
//Storyboard Sound Samples
//Background Colour Transformations
3,100,163,162,255

[TimingPoints]
520.352803037962,461.530517082179,4,1,0,100,1,0

[HitObjects]
128,96,15750,1,0
384,96,17596,1,0
384,256,19443,1,0
256,192,21289,1,0
96,288,23135,1,0
192,288,24058,1,0
288,288,24981,1,0
416,288,25904,1,0
416,192,26366,6,0,B|128:192,1,280
32,192,27750,2,0,B|32:64|128:64,1,140
192,64,28673,1,0
320,64,29596,1,0
64,192,30519,5,0
192,128,30981,1,0
144,240,31442,2,0,B|192:272|192:272|304:272,1,140
384,192,32365,1,0
384,80,32827,2,0,B|240:80,1,140
48,64,33750,2,0,B|48:352|448:352,1,420
416,336,35596,2,0,B|416:48|48:48,1,420
64,64,52211,5,0
160,64,52673,1,0
256,64,53134,1,0
352,64,53596,2,0,B|352:224,1,140
352,272,54519,1,0
256,272,54980,1,0
144,272,55442,1,0
48,272,55904,1,0
48,48,56365,2,0,B|192:48,2,140
256,192,57750,12,0,59134
64,48,59596,5,0
64,128,60057,1,0
144,128,60519,1,0
224,128,60980,1,0
224,224,61442,1,0
48,224,62826,1,0
48,336,63288,2,0,B|480:336|480:48|480:64,1,560
48,48,66519,1,0
48,144,66980,5,0
144,144,67442,1,0
240,144,67903,1,0
240,240,68365,1,0
240,144,68826,1,0
256,192,70672,12,0,72519
64,64,74365,5,0
64,160,74826,1,0
192,160,75288,1,0
192,288,75749,1,0
320,288,76211,1,0
464,288,78057,2,0,B|464:48|0:48|0:48|16:48,1,560
432,64,89134,6,0,B|144:64|144:240|432:240|432:368|96:368,1,560
256,192,92826,2,0,B|432:192|432:48|96:64|96:192|96:352|256:352,1,560
112,240,96518,2,0,B|384:80,1,280
352,256,98364,2,0,B|80:64,1,280
160,64,100210,2,0,B|160:208|384:208|368:32|368:32|368:336|48:320|48:304,1,840
