osu file format v14

[General]
AudioFilename: Theme of Rabi-Ribi.mp3
AudioLeadIn: 0
PreviewTime: 52606
Countdown: 0
SampleSet: None
StackLeniency: 0.5
Mode: 0
LetterboxInBreaks: 1
WidescreenStoryboard: 0

[Editor]
DistanceSpacing: 1.1
BeatDivisor: 4
GridSize: 8
TimelineZoom: 1.35

[Metadata]
Title:Theme of Rabi-Ribi
TitleUnicode:Theme of Rabi-Ribi
Artist:3R2
ArtistUnicode:3R2
Creator:Silynn
Version:Bunny Extinction
Source:Rabi-Ribi
Tags:bunnies
BeatmapID:974610
BeatmapSetID:454598

[Difficulty]
HPDrainRate:6
CircleSize:4.2
OverallDifficulty:9.3
ApproachRate:9.3
SliderMultiplier:1.7
SliderTickRate:1

[Events]
//Background and Video events
0,0,"rabiribi.png",0,0
//Break Periods
//Storyboard Layer 0 (Background)
//Storyboard Layer 1 (Fail)
//Storyboard Layer 2 (Pass)
//Storyboard Layer 3 (Foreground)
//Storyboard Sound Samples

[TimingPoints]
835,342.857142857143,4,2,0,70,1,0
52606,-71.4285714285714,4,2,0,70,0,0
52949,-71.4285714285714,4,2,0,70,0,1
74892,-100,4,2,0,70,0,0

[HitObjects]
41,254,835,5,0,0:0:0:0:
96,318,1006,1,0,0:0:0:0:
180,329,1177,1,0,0:0:0:0:
256,292,1349,1,0,0:0:0:0:
279,210,1863,5,0,0:0:0:0:
508,63,2206,5,0,0:0:0:0:
423,6,2377,1,0,0:0:0:0:
321,22,2549,1,0,0:0:0:0:
269,110,2720,1,0,0:0:0:0:
279,210,3063,5,0,0:0:0:0:
476,342,3235,2,0,P|492:252|491:220,1,85
27,359,3577,6,0,L|131:358,1,85
290,336,3920,1,0,0:0:0:0:
279,210,4092,2,0,P|236:143|132:105,1,170
51,211,4606,5,0,0:0:0:0:
286,57,4777,2,0,L|455:82,1,170
405,271,5292,6,0,P|382:191|380:158,1,85
319,296,5635,2,0,P|309:315|275:347,1,42.5
169,351,5806,2,0,P|100:346|56:328,1,85
48,305,6063,5,0,0:0:0:0:
32,256,6149,1,0,0:0:0:0:
35,204,6235,1,0,0:0:0:0:
69,166,6320,2,0,B|101:149|107:132|107:132|89:58|39:22,1,170
256,288,6835,1,0,0:0:0:0:
461,30,7006,2,0,B|423:58|405:132|405:132|411:149|443:166,1,170
485,345,7520,5,0,0:0:0:0:
256,288,7692,2,0,P|259:231|264:287,1,170
76,338,8206,1,0,0:0:0:0:
195,151,8377,6,0,P|267:132|290:136,1,85
485,345,8720,1,0,0:0:0:0:
76,338,8892,2,0,P|42:274|33:229,1,85
96,58,9234,1,0,0:0:0:0:
340,237,9406,5,0,0:0:0:0:
26,174,9577,1,0,0:0:0:0:
321,111,9749,5,0,0:0:0:0:
76,338,9920,1,0,0:0:0:0:
203,31,10092,5,0,0:0:0:0:
249,353,10263,1,0,0:0:0:0:
200,339,10349,1,0,0:0:0:0:
173,297,10434,1,0,0:0:0:0:
181,247,10520,1,0,0:0:0:0:
227,224,10606,1,0,0:0:0:0:
277,237,10692,1,0,0:0:0:0:
284,288,10777,1,0,0:0:0:0:
244,319,10863,1,0,0:0:0:0:
195,306,10949,1,0,0:0:0:0:
172,262,11034,1,0,0:0:0:0:
169,211,11120,6,0,P|177:187|197:158,1,42.5
393,232,11292,2,0,P|364:245|345:249,1,42.5
213,51,11463,2,0,P|240:65|257:86,1,42.5
96,288,11634,2,0,P|62:278|33:249,1,42.5
348,49,11806,5,0,0:0:0:0:
452,348,11977,1,0,0:0:0:0:
447,93,12149,5,0,0:0:0:0:
339,344,12320,1,0,0:0:0:0:
102,196,12492,6,0,P|151:120|171:100,1,85
447,93,12834,1,0,0:0:0:0:
198,334,13006,6,0,P|114:338|77:326,1,85
256,96,13349,1,0,0:0:0:0:
399,337,13520,1,0,0:0:0:0:
36,253,13692,5,0,0:0:0:0:
256,96,13863,2,0,P|325:115|354:136,1,85
48,130,14206,2,0,P|84:71|117:40,1,85
400,48,14549,5,0,0:0:0:0:
256,256,14720,1,0,0:0:0:0:
307,25,14892,5,0,0:0:0:0:
474,282,15063,1,0,0:0:0:0:
488,42,15234,5,0,0:0:0:0:
331,346,15406,1,0,0:0:0:0:
80,192,15577,5,0,0:0:0:0:
488,143,15749,1,0,0:0:0:0:
164,231,16092,5,0,0:0:0:0:
488,143,16435,5,0,0:0:0:0:
80,192,16606,2,0,P|73:243|163:326,1,170
166,326,17292,5,0,0:0:0:0:
390,314,17463,1,0,0:0:0:0:
232,173,17635,1,0,0:0:0:0:
313,371,17806,1,0,0:0:0:0:
421,53,18149,5,0,0:0:0:0:
232,173,18320,1,0,0:0:0:0:
86,120,18492,1,0,0:0:0:0:
94,102,18835,5,0,0:0:0:0:
38,329,19177,5,0,0:0:0:0:
94,102,19349,1,0,0:0:0:0:
172,352,19520,1,0,0:0:0:0:
8,192,19692,1,0,0:0:0:0:
273,278,19863,1,0,0:0:0:0:
280,279,20206,5,0,0:0:0:0:
360,73,20377,1,0,0:0:0:0:
458,347,20549,1,0,0:0:0:0:
473,352,20892,5,0,0:0:0:0:
274,152,21064,1,0,0:0:0:0:
494,231,21235,1,0,0:0:0:0:
484,245,21577,5,0,0:0:0:0:
169,197,21920,5,0,0:0:0:0:
484,245,22092,1,0,0:0:0:0:
241,348,22263,1,0,0:0:0:0:
233,80,22435,1,0,0:0:0:0:
443,314,22606,1,0,0:0:0:0:
169,197,22777,6,0,P|246:155|281:160,1,85
96,276,23120,2,0,P|40:254|3:219,1,85
242,237,23463,1,0,0:0:0:0:
241,348,23635,1,0,0:0:0:0:
145,100,23806,1,0,0:0:0:0:
145,100,24149,5,0,0:0:0:0:
407,166,24320,5,0,0:0:0:0:
80,194,24492,1,0,0:0:0:0:
402,280,24663,1,0,0:0:0:0:
307,22,24835,1,0,0:0:0:0:
310,316,25006,5,0,0:0:0:0:
208,359,25177,2,0,P|138:367|95:361,1,85
496,343,25520,2,0,P|399:350|302:310,1,170
203,247,26035,2,0,P|137:226|9:246,1,170
87,103,26549,5,0,0:0:0:0:
159,101,26635,1,0,0:0:0:0:
230,99,26720,1,0,0:0:0:0:
302,97,26806,1,0,0:0:0:0:
374,93,26892,1,0,0:0:0:0:
455,138,27235,5,0,0:0:0:0:
12,40,27406,1,0,0:0:0:0:
374,93,27749,5,0,0:0:0:0:
87,103,28092,5,0,0:0:0:0:
374,93,28263,5,0,0:0:0:0:
364,244,28435,2,0,P|338:274|284:298,1,85
15,210,28777,1,0,0:0:0:0:
15,210,29120,5,0,0:0:0:0:
165,353,29292,1,0,0:0:0:0:
248,68,29463,1,0,0:0:0:0:
248,68,29806,6,0,L|233:181,1,85
165,353,30149,1,0,0:0:0:0:
15,210,30320,5,0,0:0:0:0:
356,173,30492,1,0,0:0:0:0:
126,81,30663,1,0,0:0:0:0:
320,344,30835,1,0,0:0:0:0:
15,210,31006,5,0,0:0:0:0:
126,81,31177,2,0,P|186:50|231:41,1,85
112,352,31520,2,0,L|102:243,1,85
39,54,31863,5,0,0:0:0:0:
216,144,32034,1,0,0:0:0:0:
30,329,32205,1,0,0:0:0:0:
283,352,32377,5,0,0:0:0:0:
385,352,32549,2,0,P|456:338|483:327,1,85
488,192,32892,1,0,0:0:0:0:
467,50,33063,2,0,P|427:37|385:32,1,85
148,192,33406,1,0,0:0:0:0:
488,192,33577,1,0,0:0:0:0:
148,192,33749,6,0,L|36:192,1,85
256,40,34092,1,0,0:0:0:0:
340,144,34263,1,0,0:0:0:0:
16,192,34435,5,0,0:0:0:0:
160,24,34606,1,0,0:0:0:0:
160,360,34777,1,0,0:0:0:0:
340,144,34949,1,0,0:0:0:0:
16,192,35120,5,0,0:0:0:0:
101,135,35292,2,0,P|136:120|222:115,1,85
323,341,35635,1,0,0:0:0:0:
408,34,35806,1,0,0:0:0:0:
486,208,35977,5,0,0:0:0:0:
395,255,36149,2,0,P|351:259|280:236,1,85
78,349,36492,2,0,P|41:307|16:186,1,170
256,32,37006,1,0,0:0:0:0:
347,337,37177,2,0,L|142:334,1,170
400,88,37863,5,0,0:0:0:0:
416,112,38206,5,0,0:0:0:0:
432,136,38549,5,0,0:0:0:0:
302,124,38892,6,0,L|312:89,7,21.25
284,162,39235,2,0,P|229:176|166:163,1,85
52,90,39577,1,0,0:0:0:0:
110,340,39749,1,0,0:0:0:0:
146,262,39835,2,0,P|112:204|54:181,1,127.5
199,330,40263,2,0,P|274:335|307:329,1,85
452,246,40606,5,0,0:0:0:0:
303,77,40777,1,0,0:0:0:0:
256,148,40863,1,0,0:0:0:0:
248,232,40949,1,0,0:0:0:0:
452,246,41120,1,0,0:0:0:0:
385,33,41292,1,0,0:0:0:0:
385,33,41635,5,0,0:0:0:0:
452,246,41806,1,0,0:0:0:0:
179,114,41977,2,0,L|292:83,1,85
75,275,42320,6,0,P|50:178|51:158,1,85
85,116,42577,1,0,0:0:0:0:
179,114,42663,2,0,L|292:83,1,85
357,266,43006,6,0,L|252:258,1,85
170,251,43263,1,0,0:0:0:0:
75,275,43349,1,0,0:0:0:0:
178,349,43692,5,0,0:0:0:0:
263,166,44035,5,0,0:0:0:0:
37,155,44206,1,0,0:0:0:0:
178,349,44377,1,0,0:0:0:0:
212,40,44549,1,0,0:0:0:0:
303,295,44720,6,0,P|354:323|396:325,1,85
486,151,45063,1,0,0:0:0:0:
280,55,45235,1,0,0:0:0:0:
254,135,45320,1,0,0:0:0:0:
260,220,45406,1,0,0:0:0:0:
440,68,45577,5,0,0:0:0:0:
136,121,45749,1,0,0:0:0:0:
365,154,45920,1,0,0:0:0:0:
197,25,46092,5,0,0:0:0:0:
165,253,46263,1,0,0:0:0:0:
365,154,46435,1,0,0:0:0:0:
48,96,46606,1,0,0:0:0:0:
48,352,46777,1,0,0:0:0:0:
48,352,47120,6,0,P|112:361|153:357,1,85
316,255,47463,1,0,0:0:0:0:
159,143,47635,1,0,0:0:0:0:
210,356,47806,1,0,0:0:0:0:
403,246,47977,6,0,P|377:193|354:173,1,85
75,110,48320,2,0,P|75:168|91:203,1,85
266,111,48663,1,0,0:0:0:0:
135,35,48835,1,0,0:0:0:0:
256,248,49006,1,0,0:0:0:0:
377,35,49177,1,0,0:0:0:0:
135,35,49349,5,0,0:0:0:0:
447,182,49520,2,0,P|442:126|430:75,1,85
281,325,49863,1,0,0:0:0:0:
486,258,50035,1,0,0:0:0:0:
22,283,50206,5,0,0:0:0:0:
452,335,50377,1,0,0:0:0:0:
35,69,50549,5,0,0:0:0:0:
199,357,50720,1,0,0:0:0:0:
253,21,50892,5,0,0:0:0:0:
299,91,50977,1,0,0:0:0:0:
249,160,51063,1,0,0:0:0:0:
165,143,51149,1,0,0:0:0:0:
141,60,51235,2,0,P|148:38|170:17,1,42.5
104,206,51406,2,0,P|84:149|84:139,1,42.5
411,318,51749,5,0,0:0:0:0:
101,318,51921,1,0,0:0:0:0:
256,16,52092,1,0,0:0:0:0:
256,376,52263,1,0,0:0:0:0:
256,376,52606,6,0,P|219:375|176:365,1,59.4999981842042
352,136,52777,2,0,L|423:126,1,59.4999981842042
101,318,52949,6,0,P|72:255|67:189,1,118.999996368408
256,32,53292,1,0,0:0:0:0:
445,206,53463,5,0,0:0:0:0:
300,300,53635,2,0,P|238:309|161:293,1,118.999996368408
56,120,53977,1,0,0:0:0:0:
25,364,54149,1,0,0:0:0:0:
311,304,54320,2,0,P|289:210|165:98,1,237.999992736817
57,370,54835,2,0,P|136:368|192:350,1,118.999996368408
348,81,55177,5,0,0:0:0:0:
394,335,55349,1,0,0:0:0:0:
159,171,55520,1,0,0:0:0:0:
479,135,55692,6,0,P|466:232|449:292,1,118.999996368408
146,160,56035,1,0,0:0:0:0:
348,81,56206,1,0,0:0:0:0:
394,335,56377,1,0,0:0:0:0:
192,285,56549,1,0,0:0:0:0:
479,135,56720,5,0,0:0:0:0:
278,357,56892,1,0,0:0:0:0:
26,69,57063,1,0,0:0:0:0:
49,357,57406,5,0,0:0:0:0:
116,43,57577,1,0,0:0:0:0:
151,355,57920,5,0,0:0:0:0:
36,147,58092,2,0,P|77:75|121:36,1,118.999996368408
256,192,58435,5,0,0:0:0:0:
127,278,58606,1,0,0:0:0:0:
40,149,58777,1,0,0:0:0:0:
168,61,58949,1,0,0:0:0:0:
248,312,59120,1,0,0:0:0:0:
33,238,59292,5,0,0:0:0:0:
120,30,59463,1,0,0:0:0:0:
334,103,59635,1,0,0:0:0:0:
248,312,59806,5,0,0:0:0:0:
120,30,59977,1,0,0:0:0:0:
46,345,60149,1,0,0:0:0:0:
466,345,60320,2,0,P|460:282|377:114,1,237.999992736817
180,203,60835,5,0,0:0:0:0:
345,348,61006,1,0,0:0:0:0:
489,143,61177,2,0,L|361:120,1,118.999996368408
187,336,61520,1,0,0:0:0:0:
20,262,61692,2,0,P|8:175|10:118,1,118.999996368408
505,346,62035,2,0,P|385:376|250:365,1,237.999992736817
160,73,62549,5,0,0:0:0:0:
111,311,62720,1,0,0:0:0:0:
275,43,62892,5,0,0:0:0:0:
37,245,63063,1,0,0:0:0:0:
392,92,63235,5,0,0:0:0:0:
35,149,63406,1,0,0:0:0:0:
283,356,63577,5,0,0:0:0:0:
483,30,63749,1,0,0:0:0:0:
506,357,63920,2,0,P|445:373|345:363,1,118.999996368408
112,285,64263,1,0,0:0:0:0:
297,167,64435,2,0,L|423:160,1,118.999996368408
104,315,64777,1,0,0:0:0:0:
44,148,64949,2,0,P|59:67|77:24,1,118.999996368408
328,272,65292,5,0,0:0:0:0:
104,315,65463,1,0,0:0:0:0:
460,367,65635,1,0,0:0:0:0:
450,109,65806,2,0,P|393:84|299:88,1,118.999996368408
208,296,66149,5,0,0:0:0:0:
61,58,66320,1,0,0:0:0:0:
16,363,66492,1,0,0:0:0:0:
436,237,66663,6,0,L|292:227,1,118.999996368408
32,160,67006,1,0,0:0:0:0:
357,312,67177,6,0,L|475:320,1,118.999996368408
136,116,67520,1,0,0:0:0:0:
108,355,67692,2,0,P|81:276|77:224,1,118.999996368408
270,30,68035,6,0,P|276:129|253:289,1,237.999992736817
380,31,68549,2,0,P|396:108|398:166,1,118.999996368408
226,349,68892,1,0,0:0:0:0:
91,101,69063,6,0,P|129:90|175:91,1,59.4999981842042
393,271,69235,2,0,P|425:276|465:296,1,59.4999981842042
22,351,69406,2,0,P|-5:234|9:114,1,237.999992736817
256,272,69920,1,0,0:0:0:0:
504,117,70092,2,0,P|516:235|490:351,1,237.999992736817
256,32,70606,5,0,0:0:0:0:
416,288,70777,1,0,0:0:0:0:
104,368,70949,1,0,0:0:0:0:
256,112,71120,5,0,0:0:0:0:
488,360,71292,1,0,0:0:0:0:
144,264,71463,5,0,0:0:0:0:
492,190,71635,1,0,0:0:0:0:
320,368,71806,1,0,0:0:0:0:
149,41,71977,1,0,0:0:0:0:
492,190,72149,6,0,P|415:211|361:206,1,118.999996368408
135,174,72492,2,0,P|76:175|20:194,1,118.999996368408
96,328,72835,1,0,0:0:0:0:
171,361,72920,1,0,0:0:0:0:
256,368,73006,1,0,0:0:0:0:
341,361,73092,1,0,0:0:0:0:
416,328,73177,2,0,P|425:296|424:263,1,59.4999981842042
256,72,73349,2,0,L|256:152,1,59.4999981842042
96,328,73520,5,0,0:0:0:0:
49,266,73606,1,0,0:0:0:0:
37,189,73692,2,0,P|41:152|51:102,1,59.4999981842042
128,240,73863,5,0,0:0:0:0:
162,170,73949,1,0,0:0:0:0:
232,136,74035,2,0,P|254:132|311:133,1,59.4999981842042
221,234,74206,5,0,0:0:0:0:
298,234,74292,1,0,0:0:0:0:
366,268,74377,2,0,P|397:283|438:319,1,59.4999981842042
96,328,74549,5,0,0:0:0:0:
49,266,74635,1,0,0:0:0:0:
37,189,74721,2,0,P|41:152|51:102,1,59.4999981842042
256,320,74892,5,0,0:0:0:0:
160,40,75063,1,0,0:0:0:0:
37,189,75235,1,0,0:0:0:0:
152,373,75406,5,0,0:0:0:0:
341,71,75577,1,0,0:0:0:0:
37,189,75749,1,0,0:0:0:0:
160,40,75920,5,0,0:0:0:0:
463,308,76092,1,0,0:0:0:0:
73,107,76263,5,0,0:0:0:0:
341,71,76435,1,0,0:0:0:0:
463,308,76606,5,0,0:0:0:0:
160,40,76777,1,0,0:0:0:0:
49,308,76949,1,0,0:0:0:0:
352,40,77120,1,0,0:0:0:0:
256,360,77292,1,0,0:0:0:0:
256,152,77463,1,0,0:0:0:0:
256,360,77635,5,0,0:0:0:0:
36,163,77806,1,0,0:0:0:0:
256,248,77977,5,0,0:0:0:0:
476,51,78149,1,0,0:0:0:0:
36,163,78320,5,0,0:0:0:0:
256,360,78491,1,0,0:0:0:0:
476,163,78663,1,0,0:0:0:0:
137,24,78835,6,0,P|80:65|59:90,1,85
441,75,79177,2,0,P|411:46|375:24,1,85
64,256,79520,5,0,0:0:0:0:
448,256,79692,1,0,0:0:0:0:
64,256,79863,1,0,0:0:0:0:
448,256,80035,1,0,0:0:0:0:
256,360,80206,5,0,0:0:0:0:
170,96,80377,2,0,P|148:137|136:198,1,85
373,173,80720,2,0,P|362:133|342:96,1,85
32,336,81063,1,0,0:0:0:0:
256,368,81235,1,0,0:0:0:0:
480,336,81406,1,0,0:0:0:0:
296,32,81577,5,0,0:0:0:0:
168,328,81749,1,0,0:0:0:0:
344,328,81920,5,0,0:0:0:0:
216,32,82092,1,0,0:0:0:0:
400,80,82263,5,0,0:0:0:0:
56,256,82435,1,0,0:0:0:0:
456,256,82606,5,0,0:0:0:0:
112,80,82778,1,0,0:0:0:0:
256,352,82949,5,0,0:0:0:0:
512,80,83120,2,0,P|457:69|400:71,1,85
428,368,83463,2,0,P|470:365|511:356,1,85
256,56,83806,1,0,0:0:0:0:
84,368,83977,1,0,0:0:0:0:
428,368,84149,1,0,0:0:0:0:
256,192,84320,5,0,0:0:0:0:
256,272,84663,5,0,0:0:0:0:
256,24,85006,5,0,0:0:0:0:
256,352,85177,1,0,0:0:0:0:
256,312,85263,1,0,0:0:0:0:
256,272,85349,1,0,0:0:0:0:
256,232,85435,1,0,0:0:0:0:
256,192,85520,1,0,0:0:0:0:
256,192,85863,5,0,0:0:0:0:
