osu file format v14

[General]
AudioFilename: Rabi-Ribi Original Soundtrack - 37 Brawl Breaks.mp3
AudioLeadIn: 0
PreviewTime: 12410
Countdown: 0
SampleSet: Normal
StackLeniency: 0.7
Mode: 1
LetterboxInBreaks: 0
WidescreenStoryboard: 0

[Editor]
DistanceSpacing: 1.3
BeatDivisor: 4
GridSize: 4
TimelineZoom: 2.3

[Metadata]
Title:Brawl Breaks
TitleUnicode:Brawl Breaks
Artist:3R2
ArtistUnicode:3R2
Creator:Doyak
Version:Kantan
Source:Rabi-Ribi
Tags:ăƒ©ăƒ“-ăƒȘビ RabiRibi Original Soundtrack Steam kano-bi CreSpirit Animen Sekai Project Plurk GemaYue Erina Ribbon Kotri Boss Battle #2
BeatmapID:999018
BeatmapSetID:466564

[Difficulty]
HPDrainRate:8
CircleSize:4
OverallDifficulty:3
ApproachRate:5
SliderMultiplier:1.4
SliderTickRate:1

[Events]
//Background and Video events
0,0,"rabiribi.jpg",0,0
//Break Periods
//Storyboard Layer 0 (Background)
//Storyboard Layer 1 (Fail)
//Storyboard Layer 2 (Pass)
//Storyboard Layer 3 (Foreground)
//Storyboard Sound Samples

[TimingPoints]
865.343021177549,363.636363636364,4,1,0,70,1,0
12138,-100,4,1,0,80,0,0
12501,-100,4,1,0,95,0,1
12592,-100,4,1,0,80,0,1
35228,-100,4,1,0,85,0,1
35774,-100,4,1,0,95,0,0
35865,-100,4,1,0,70,0,0
46865,-100,4,1,0,80,0,0
47410,-100,4,1,0,95,0,0
47501,-100,4,1,0,70,0,0
58319,-100,4,1,0,40,0,0
59047,-100,4,1,0,70,0,0

[HitObjects]
230,61,865,5,0,0:0:0:0:
230,61,1592,1,8,0:0:0:0:
230,61,2319,1,0,0:0:0:0:
230,61,3046,1,8,0:0:0:0:
230,61,3774,1,0,0:0:0:0:
230,61,4501,1,0,0:0:0:0:
230,61,5228,1,0,0:0:0:0:
230,61,6683,1,0,0:0:0:0:
230,61,7410,1,8,0:0:0:0:
230,61,8138,1,0,0:0:0:0:
230,61,8865,1,8,0:0:0:0:
230,61,9592,1,0,0:0:0:0:
230,61,10319,1,0,0:0:0:0:
230,61,11047,1,0,0:0:0:0:
230,61,11774,1,8,0:0:0:0:
230,61,12138,1,8,0:0:0:0:
230,61,12501,1,4,0:0:0:0:
230,61,13228,1,8,0:0:0:0:
230,61,13956,1,0,0:0:0:0:
230,61,14319,1,0,0:0:0:0:
230,61,14683,1,8,0:0:0:0:
230,61,15410,1,0,0:0:0:0:
230,61,15774,1,8,0:0:0:0:
230,61,16138,1,8,0:0:0:0:
230,61,16501,1,8,0:0:0:0:
230,61,16865,1,0,0:0:0:0:
230,61,17592,1,8,0:0:0:0:
230,61,18319,1,0,0:0:0:0:
230,61,19047,1,8,0:0:0:0:
230,61,19774,1,0,0:0:0:0:
230,61,20138,1,0,0:0:0:0:
230,61,20501,1,8,0:0:0:0:
230,61,21228,1,0,0:0:0:0:
230,61,21592,1,8,0:0:0:0:
230,61,21956,1,0,0:0:0:0:
230,61,22683,1,8,0:0:0:0:
230,61,24138,1,0,0:0:0:0:
230,61,24865,1,8,0:0:0:0:
230,61,25593,1,0,0:0:0:0:
230,61,25956,1,0,0:0:0:0:
230,61,26320,1,8,0:0:0:0:
230,61,27047,1,0,0:0:0:0:
230,61,27411,1,8,0:0:0:0:
230,61,27775,1,8,0:0:0:0:
230,61,28138,1,8,0:0:0:0:
230,61,28502,1,0,0:0:0:0:
230,61,29229,1,8,0:0:0:0:
230,61,29956,1,0,0:0:0:0:
230,61,30683,1,8,0:0:0:0:
230,61,31411,1,0,0:0:0:0:
230,61,31775,1,0,0:0:0:0:
230,61,32139,1,8,0:0:0:0:
230,61,32865,1,0,0:0:0:0:
230,61,33229,1,8,0:0:0:0:
230,61,33592,1,0,0:0:0:0:
230,61,34320,1,8,0:0:0:0:
230,61,35047,1,0,0:0:0:0:
230,61,35410,1,8,0:0:0:0:
230,61,35774,1,12,0:0:0:0:
230,61,37228,1,0,0:0:0:0:
230,61,37956,1,0,0:0:0:0:
230,61,38319,1,8,0:0:0:0:
230,61,38683,1,0,0:0:0:0:
230,61,39047,1,8,0:0:0:0:
230,61,39774,1,8,0:0:0:0:
230,61,40138,1,0,0:0:0:0:
230,61,40865,1,8,0:0:0:0:
230,61,41228,1,8,0:0:0:0:
230,61,41592,1,8,0:0:0:0:
230,61,42138,1,8,0:0:0:0:
230,61,43047,1,0,0:0:0:0:
230,61,43774,1,0,0:0:0:0:
230,61,44501,1,0,0:0:0:0:
230,61,44865,1,8,0:0:0:0:
230,61,45592,1,8,0:0:0:0:
230,61,45956,1,0,0:0:0:0:
230,61,46683,1,0,0:0:0:0:
230,61,47047,1,8,0:0:0:0:
230,61,47410,1,12,0:0:0:0:
230,61,48864,1,0,0:0:0:0:
230,61,49592,1,0,0:0:0:0:
230,61,49955,1,8,0:0:0:0:
230,61,50319,1,0,0:0:0:0:
230,61,50683,1,8,0:0:0:0:
230,61,51410,1,8,0:0:0:0:
230,61,51774,1,0,0:0:0:0:
230,61,52501,1,8,0:0:0:0:
230,61,52865,1,8,0:0:0:0:
230,61,53228,1,8,0:0:0:0:
230,61,53774,1,8,0:0:0:0:
230,61,54683,1,0,0:0:0:0:
230,61,55410,1,0,0:0:0:0:
230,61,56137,1,0,0:0:0:0:
230,61,56501,1,8,0:0:0:0:
230,61,57228,1,8,0:0:0:0:
230,61,57592,1,8,0:0:0:0:
230,61,57956,1,8,0:0:0:0:
230,61,58319,1,8,0:0:0:0:
230,61,59047,1,0,0:0:0:0:
