osu file format v14

[General]
AudioFilename: Rabi-Ribi Original Soundtrack - 37 Brawl Breaks.mp3
AudioLeadIn: 0
PreviewTime: 12410
Countdown: 0
SampleSet: Normal
StackLeniency: 0.7
Mode: 1
LetterboxInBreaks: 0
WidescreenStoryboard: 0

[Editor]
DistanceSpacing: 1.3
BeatDivisor: 4
GridSize: 4
TimelineZoom: 2.3

[Metadata]
Title:Brawl Breaks
TitleUnicode:Brawl Breaks
Artist:3R2
ArtistUnicode:3R2
Creator:Doyak
Version:Futsuu
Source:Rabi-Ribi
Tags:ăƒ©ăƒ“-ăƒȘビ RabiRibi Original Soundtrack Steam kano-bi CreSpirit Animen Sekai Project Plurk GemaYue Erina Ribbon Kotri Boss Battle #2
BeatmapID:999017
BeatmapSetID:466564

[Difficulty]
HPDrainRate:7.5
CircleSize:4
OverallDifficulty:4
ApproachRate:5
SliderMultiplier:1.4
SliderTickRate:1

[Events]
//Background and Video events
0,0,"rabiribi.jpg",0,0
//Break Periods
//Storyboard Layer 0 (Background)
//Storyboard Layer 1 (Fail)
//Storyboard Layer 2 (Pass)
//Storyboard Layer 3 (Foreground)
//Storyboard Sound Samples

[TimingPoints]
865.343021177549,363.636363636364,4,1,0,70,1,0
12138,-100,4,1,0,80,0,0
12501,-100,4,1,0,95,0,1
12592,-100,4,1,0,80,0,1
35228,-100,4,1,0,85,0,1
35774,-100,4,1,0,95,0,0
35865,-100,4,1,0,70,0,0
46865,-100,4,1,0,80,0,0
47410,-100,4,1,0,95,0,0
47501,-100,4,1,0,70,0,0
58319,-100,4,1,0,40,0,0
58501,-100,4,1,0,50,0,0
58683,-100,4,1,0,60,0,0
59047,-100,4,1,0,70,0,0

[HitObjects]
211,52,865,5,0,0:0:0:0:
211,52,1047,1,8,0:0:0:0:
211,52,1592,1,8,0:0:0:0:
211,52,2319,1,0,0:0:0:0:
211,52,2501,1,8,0:0:0:0:
211,52,3046,1,8,0:0:0:0:
211,52,3774,1,0,0:0:0:0:
211,52,3956,1,8,0:0:0:0:
211,52,4501,1,0,0:0:0:0:
211,52,5228,1,0,0:0:0:0:
211,52,5410,1,8,0:0:0:0:
211,52,5955,1,8,0:0:0:0:
211,52,6683,1,0,0:0:0:0:
211,52,6865,1,8,0:0:0:0:
211,52,7410,1,8,0:0:0:0:
211,52,8138,1,0,0:0:0:0:
211,52,8320,1,8,0:0:0:0:
211,52,8865,1,8,0:0:0:0:
211,52,9592,1,0,0:0:0:0:
211,52,9774,1,8,0:0:0:0:
211,52,10319,1,0,0:0:0:0:
211,52,11047,1,0,0:0:0:0:
211,52,11229,1,8,0:0:0:0:
211,52,11774,1,8,0:0:0:0:
211,52,12138,1,8,0:0:0:0:
211,52,12319,1,8,0:0:0:0:
211,52,12501,1,4,0:0:0:0:
211,52,12865,1,8,0:0:0:0:
211,52,13228,1,0,0:0:0:0:
211,52,13410,1,8,0:0:0:0:
211,52,13774,1,8,0:0:0:0:
211,52,13956,1,0,0:0:0:0:
211,52,14319,1,8,0:0:0:0:
211,52,14683,1,0,0:0:0:0:
211,52,14865,1,0,0:0:0:0:
211,52,15228,1,8,0:0:0:0:
211,52,15410,1,0,0:0:0:0:
211,52,15774,1,8,0:0:0:0:
211,52,16138,1,0,0:0:0:0:
211,52,16319,1,8,0:0:0:0:
211,52,16683,1,8,0:0:0:0:
211,52,16865,1,0,0:0:0:0:
211,52,17228,1,8,0:0:0:0:
211,52,17592,1,8,0:0:0:0:
211,52,17774,1,8,0:0:0:0:
211,52,17956,1,8,0:0:0:0:
211,52,18319,1,0,0:0:0:0:
211,52,18683,1,8,0:0:0:0:
211,52,19046,1,0,0:0:0:0:
211,52,19228,1,8,0:0:0:0:
211,52,19592,1,8,0:0:0:0:
211,52,19774,1,0,0:0:0:0:
211,52,20137,1,8,0:0:0:0:
211,52,20501,1,0,0:0:0:0:
211,52,20683,1,0,0:0:0:0:
211,52,21046,1,8,0:0:0:0:
211,52,21228,1,0,0:0:0:0:
211,52,21592,1,8,0:0:0:0:
211,52,21956,1,0,0:0:0:0:
211,52,22137,1,0,0:0:0:0:
211,52,22319,1,8,0:0:0:0:
211,52,22683,1,8,0:0:0:0:
211,52,22865,1,0,0:0:0:0:
211,52,23047,1,8,0:0:0:0:
211,52,23410,1,0,0:0:0:0:
211,52,24138,1,0,0:0:0:0:
211,52,24502,1,8,0:0:0:0:
211,52,24865,1,0,0:0:0:0:
211,52,25047,1,8,0:0:0:0:
211,52,25411,1,8,0:0:0:0:
211,52,25593,1,0,0:0:0:0:
211,52,25956,1,8,0:0:0:0:
211,52,26320,1,0,0:0:0:0:
211,52,26502,1,0,0:0:0:0:
211,52,26865,1,8,0:0:0:0:
211,52,27047,1,0,0:0:0:0:
211,52,27411,1,8,0:0:0:0:
211,52,27775,1,0,0:0:0:0:
211,52,27956,1,8,0:0:0:0:
211,52,28320,1,8,0:0:0:0:
211,52,28502,1,0,0:0:0:0:
211,52,28865,1,8,0:0:0:0:
211,52,29229,1,8,0:0:0:0:
211,52,29411,1,8,0:0:0:0:
211,52,29593,1,8,0:0:0:0:
211,52,29956,1,0,0:0:0:0:
211,52,30320,1,8,0:0:0:0:
211,52,30683,1,0,0:0:0:0:
211,52,30865,1,8,0:0:0:0:
211,52,31229,1,8,0:0:0:0:
211,52,31411,1,0,0:0:0:0:
211,52,31774,1,8,0:0:0:0:
211,52,32138,1,0,0:0:0:0:
211,52,32320,1,0,0:0:0:0:
211,52,32683,1,8,0:0:0:0:
211,52,32865,1,0,0:0:0:0:
211,52,33229,1,8,0:0:0:0:
211,52,33593,1,0,0:0:0:0:
211,52,33774,1,0,0:0:0:0:
211,52,33956,1,8,0:0:0:0:
211,52,34320,1,8,0:0:0:0:
211,52,34502,1,0,0:0:0:0:
211,52,34684,1,8,0:0:0:0:
211,52,35047,1,0,0:0:0:0:
211,52,35229,1,8,0:0:0:0:
211,52,35410,1,8,0:0:0:0:
211,52,35774,1,12,0:0:0:0:
211,52,36501,1,0,0:0:0:0:
211,52,36865,1,8,0:0:0:0:
211,52,37228,1,0,0:0:0:0:
211,52,37592,1,8,0:0:0:0:
211,52,37956,1,0,0:0:0:0:
211,52,38138,1,8,0:0:0:0:
211,52,38319,1,8,0:0:0:0:
211,52,38683,1,0,0:0:0:0:
211,52,39047,1,8,0:0:0:0:
211,52,39410,1,8,0:0:0:0:
211,52,39592,1,0,0:0:0:0:
211,52,39774,1,8,0:0:0:0:
211,52,40138,1,0,0:0:0:0:
211,52,40501,1,8,0:0:0:0:
211,52,40865,1,8,0:0:0:0:
211,52,41047,1,8,0:0:0:0:
211,52,41228,1,8,0:0:0:0:
211,52,41592,1,8,0:0:0:0:
211,52,41956,1,0,0:0:0:0:
211,52,42138,1,8,0:0:0:0:
211,52,42501,1,0,0:0:0:0:
211,52,42683,1,0,0:0:0:0:
211,52,43047,1,0,0:0:0:0:
211,52,43410,1,8,0:0:0:0:
211,52,43774,1,0,0:0:0:0:
211,52,43956,1,8,0:0:0:0:
211,52,44138,1,0,0:0:0:0:
211,52,44501,1,0,0:0:0:0:
211,52,44865,1,8,0:0:0:0:
211,52,45228,1,8,0:0:0:0:
211,52,45410,1,0,0:0:0:0:
211,52,45592,1,8,0:0:0:0:
211,52,45956,1,8,0:0:0:0:
211,52,46319,1,0,0:0:0:0:
211,52,46501,1,8,0:0:0:0:
211,52,46865,1,0,0:0:0:0:
211,52,47047,1,8,0:0:0:0:
211,52,47410,1,12,0:0:0:0:
211,52,48138,1,0,0:0:0:0:
211,52,48501,1,8,0:0:0:0:
211,52,48864,1,0,0:0:0:0:
211,52,49228,1,8,0:0:0:0:
211,52,49592,1,0,0:0:0:0:
211,52,49774,1,8,0:0:0:0:
211,52,49955,1,8,0:0:0:0:
211,52,50319,1,0,0:0:0:0:
211,52,50683,1,8,0:0:0:0:
211,52,51046,1,8,0:0:0:0:
211,52,51228,1,0,0:0:0:0:
211,52,51410,1,8,0:0:0:0:
211,52,51774,1,0,0:0:0:0:
211,52,52137,1,8,0:0:0:0:
211,52,52501,1,8,0:0:0:0:
211,52,52683,1,8,0:0:0:0:
211,52,52864,1,8,0:0:0:0:
211,52,53228,1,8,0:0:0:0:
211,52,53592,1,0,0:0:0:0:
211,52,53774,1,8,0:0:0:0:
211,52,54137,1,0,0:0:0:0:
211,52,54319,1,0,0:0:0:0:
211,52,54683,1,0,0:0:0:0:
211,52,55046,1,8,0:0:0:0:
211,52,55410,1,0,0:0:0:0:
211,52,55592,1,8,0:0:0:0:
211,52,55774,1,0,0:0:0:0:
211,52,56137,1,0,0:0:0:0:
211,52,56501,1,8,0:0:0:0:
211,52,56864,1,8,0:0:0:0:
211,52,57046,1,0,0:0:0:0:
211,52,57228,1,8,0:0:0:0:
211,52,57592,1,8,0:0:0:0:
211,52,57955,1,8,0:0:0:0:
211,52,58319,1,8,0:0:0:0:
211,52,58501,1,8,0:0:0:0:
211,52,58683,1,8,0:0:0:0:
211,52,59047,1,0,0:0:0:0:
