osu file format v14

[General]
AudioFilename: 3R2-Beyond the Horizon.mp3
AudioLeadIn: 0
PreviewTime: 90620
Countdown: 0
SampleSet: Soft
StackLeniency: 0.7
Mode: 3
LetterboxInBreaks: 0
SpecialStyle: 0
WidescreenStoryboard: 0

[Editor]
DistanceSpacing: 1.3
BeatDivisor: 4
GridSize: 8
TimelineZoom: 1.699999

[Metadata]
Title:Beyond the Horizon
TitleUnicode:Beyond the Horizon
Artist:3R2
ArtistUnicode:3R2
Creator:hokin1995
Version:MX
Source:BMS
Tags:BOF2012 Yan-K Prismatic Music Sky_Demon bms of fighters -ein neuer heiliger- uk hardcore
BeatmapID:505719
BeatmapSetID:215305

[Difficulty]
HPDrainRate:8
CircleSize:4
OverallDifficulty:8
ApproachRate:5
SliderMultiplier:1.4
SliderTickRate:1

[Events]
//Background and Video events
0,0,"stage.jpg",0,0
Video,-110,"Beyond the Horizon.avi"
//Break Periods
//Storyboard Layer 0 (Background)
//Storyboard Layer 1 (Fail)
//Storyboard Layer 2 (Pass)
//Storyboard Layer 3 (Foreground)
//Storyboard Sound Samples

[TimingPoints]
1478,342.857142857143,4,2,1,40,1,0
24792,-117.647058823529,4,2,1,40,0,0
46735,-100,4,2,1,40,0,0
90278,-83.3333333333333,4,2,1,40,0,0
90535,-133.333333333333,4,2,1,40,0,0
90620,-100,4,2,1,40,0,1
111192,-100,4,2,1,40,0,0

[HitObjects]
448,192,1478,5,0,0:0:0:0:
64,192,1478,1,2,0:0:0:0:
192,192,1478,1,2,0:0:0:0:
320,192,1820,1,0,0:0:0:0:
320,192,1906,1,0,0:0:0:0:
192,192,1992,1,0,0:0:0:0:
192,192,2078,1,0,0:0:0:0:
64,192,2163,1,0,0:0:0:0:
448,192,2163,1,0,0:0:0:0:
320,192,2335,1,0,0:0:0:0:
320,192,2420,1,0,0:0:0:0:
64,192,2506,1,0,0:0:0:0:
448,192,2506,1,0,0:0:0:0:
64,192,2678,1,0,0:0:0:0:
448,192,2678,1,0,0:0:0:0:
448,192,2849,1,2,0:0:0:0:
192,192,2849,1,8,0:0:0:0:
320,192,2849,1,0,0:0:0:0:
64,192,3020,1,0,0:0:0:0:
448,192,3020,128,0,3192:0:0:0:0:
320,192,3192,128,0,3363:0:0:0:0:
192,192,3192,1,8,0:0:0:0:
64,192,3192,1,2,0:0:0:0:
448,192,3363,1,0,0:0:0:0:
192,192,3363,128,0,3706:0:0:0:0:
320,192,3535,1,8,0:0:0:0:
64,192,3535,1,2,0:0:0:0:
448,192,3706,1,0,0:0:0:0:
320,192,3878,1,0,0:0:0:0:
64,192,3878,1,8,0:0:0:0:
448,192,3878,1,2,0:0:0:0:
192,192,4049,1,0,0:0:0:0:
320,192,4220,1,2,0:0:0:0:
448,192,4220,1,8,0:0:0:0:
320,192,4392,1,0,0:0:0:0:
192,192,4563,1,0,0:0:0:0:
448,192,4563,1,8,0:0:0:0:
64,192,4563,1,2,0:0:0:0:
320,192,4735,1,0,0:0:0:0:
448,192,4906,1,8,0:0:0:0:
64,192,4906,1,2,0:0:0:0:
320,192,5078,1,0,0:0:0:0:
192,192,5249,1,0,0:0:0:0:
64,192,5249,1,2,0:0:0:0:
448,192,5249,1,8,0:0:0:0:
448,192,5420,1,0,0:0:0:0:
320,192,5592,1,8,0:0:0:0:
64,192,5592,1,2,0:0:0:0:
192,192,5763,1,0,0:0:0:0:
448,192,5763,128,0,5935:0:0:0:0:
64,192,5935,1,2,0:0:0:0:
320,192,5935,1,8,0:0:0:0:
192,192,5935,128,0,6106:0:0:0:0:
448,192,6106,1,0,0:0:0:0:
64,192,6106,128,0,6449:0:0:0:0:
448,192,6278,1,8,0:0:0:0:
320,192,6278,1,2,0:0:0:0:
192,192,6449,1,0,0:0:0:0:
320,192,6620,1,0,0:0:0:0:
64,192,6620,1,8,0:0:0:0:
448,192,6620,1,2,0:0:0:0:
64,192,6792,1,0,0:0:0:0:
192,192,6963,1,8,0:0:0:0:
448,192,6963,1,2,0:0:0:0:
320,192,6963,1,0,0:0:0:0:
64,192,7135,1,0,0:0:0:0:
320,192,7135,128,0,7306:0:0:0:0:
448,192,7306,1,2,0:0:0:0:
192,192,7306,1,2,0:0:0:0:
64,192,7478,128,0,7649:0:0:0:0:
448,192,7478,1,0,0:0:0:0:
192,192,7649,1,2,0:0:0:0:
320,192,7649,1,2,0:0:0:0:
192,192,7820,128,0,7992:0:0:0:0:
320,192,7992,128,2,8163:0:0:0:0:
64,192,7992,1,0,0:0:0:0:
448,192,8163,128,0,8335:0:0:0:0:
64,192,8335,1,2,0:0:0:0:
320,192,8335,1,8,0:0:0:0:
192,192,8506,1,0,0:0:0:0:
448,192,8506,128,0,8678:0:0:0:0:
64,192,8678,1,2,0:0:0:0:
192,192,8678,128,0,8849:0:0:0:0:
320,192,8678,1,8,0:0:0:0:
448,192,8849,1,0,0:0:0:0:
64,192,8849,128,0,9192:0:0:0:0:
192,192,9020,1,2,0:0:0:0:
320,192,9020,1,8,0:0:0:0:
448,192,9192,1,0,0:0:0:0:
320,192,9363,1,2,0:0:0:0:
64,192,9363,1,8,0:0:0:0:
320,192,9535,1,0,0:0:0:0:
448,192,9706,1,8,0:0:0:0:
64,192,9706,1,2,0:0:0:0:
192,192,9706,1,0,0:0:0:0:
192,192,9878,1,0,0:0:0:0:
320,192,10049,1,0,0:0:0:0:
448,192,10049,1,2,0:0:0:0:
64,192,10049,1,8,0:0:0:0:
320,192,10220,1,0,0:0:0:0:
192,192,10392,1,8,0:0:0:0:
64,192,10392,1,2,0:0:0:0:
448,192,10563,1,0,0:0:0:0:
64,192,10735,1,8,0:0:0:0:
192,192,10735,1,0,0:0:0:0:
320,192,10735,1,2,0:0:0:0:
320,192,10906,1,0,0:0:0:0:
64,192,11078,1,2,0:0:0:0:
448,192,11078,1,8,0:0:0:0:
192,192,11078,1,0,0:0:0:0:
320,192,11249,1,0,0:0:0:0:
192,192,11249,128,0,11420:0:0:0:0:
320,192,11420,1,8,0:0:0:0:
448,192,11420,128,0,11592:0:0:0:0:
64,192,11420,1,2,0:0:0:0:
64,192,11592,128,0,11935:0:0:0:0:
192,192,11592,1,0,0:0:0:0:
320,192,11763,1,2,0:0:0:0:
448,192,11763,1,8,0:0:0:0:
192,192,11935,1,0,0:0:0:0:
320,192,12106,1,0,0:0:0:0:
448,192,12106,1,2,0:0:0:0:
64,192,12106,1,8,0:0:0:0:
64,192,12278,1,0,0:0:0:0:
192,192,12449,1,8,0:0:0:0:
320,192,12449,1,0,0:0:0:0:
448,192,12449,1,2,0:0:0:0:
448,192,12620,1,0,0:0:0:0:
320,192,12792,1,2,0:0:0:0:
64,192,12792,1,8,0:0:0:0:
192,192,12792,1,0,0:0:0:0:
192,192,12963,1,0,0:0:0:0:
64,192,13135,1,8,0:0:0:0:
320,192,13135,1,0,0:0:0:0:
448,192,13135,1,2,0:0:0:0:
192,192,13478,1,8,0:0:0:0:
320,192,13478,1,0,0:0:0:0:
64,192,13820,1,8,0:0:0:0:
320,192,13820,1,0,0:0:0:0:
448,192,13820,1,2,0:0:0:0:
320,192,13992,1,0,0:0:0:0:
192,192,13992,128,0,14163:0:0:0:0:
448,192,14163,1,8,0:0:0:0:
64,192,14163,1,2,0:0:0:0:
320,192,14163,128,0,14335:0:0:0:0:
192,192,14335,1,0,0:0:0:0:
64,192,14335,128,0,14678:0:0:0:0:
448,192,14506,1,8,0:0:0:0:
320,192,14506,1,2,0:0:0:0:
192,192,14678,1,0,0:0:0:0:
320,192,14849,1,2,0:0:0:0:
448,192,14849,1,8,0:0:0:0:
192,192,15020,1,0,0:0:0:0:
448,192,15192,1,8,0:0:0:0:
192,192,15192,1,0,0:0:0:0:
64,192,15192,1,2,0:0:0:0:
320,192,15363,1,0,0:0:0:0:
448,192,15535,1,2,0:0:0:0:
320,192,15535,1,0,0:0:0:0:
192,192,15535,1,8,0:0:0:0:
64,192,15706,1,0,0:0:0:0:
448,192,15878,1,8,0:0:0:0:
192,192,15878,1,2,0:0:0:0:
64,192,16049,1,0,0:0:0:0:
448,192,16220,1,2,0:0:0:0:
320,192,16220,1,0,0:0:0:0:
64,192,16220,1,8,0:0:0:0:
192,192,16392,1,0,0:0:0:0:
192,192,16563,1,2,0:0:0:0:
448,192,16563,1,8,0:0:0:0:
64,192,16735,1,0,0:0:0:0:
448,192,16735,128,0,16906:0:0:0:0:
64,192,16906,1,2,0:0:0:0:
320,192,16906,1,8,0:0:0:0:
192,192,16906,128,0,17078:0:0:0:0:
448,192,17078,1,0,0:0:0:0:
320,192,17078,128,0,17420:0:0:0:0:
448,192,17249,1,8,0:0:0:0:
64,192,17249,1,2,0:0:0:0:
192,192,17420,1,0,0:0:0:0:
64,192,17592,1,8,0:0:0:0:
448,192,17592,1,2,0:0:0:0:
320,192,17592,1,0,0:0:0:0:
192,192,17763,1,0,0:0:0:0:
320,192,17935,1,8,0:0:0:0:
64,192,17935,1,2,0:0:0:0:
448,192,18106,128,0,18278:0:0:0:0:
320,192,18278,1,2,0:0:0:0:
192,192,18278,1,8,0:0:0:0:
64,192,18449,128,0,18620:0:0:0:0:
448,192,18620,1,2,0:0:0:0:
192,192,18620,1,8,0:0:0:0:
320,192,18792,128,0,18963:0:0:0:0:
192,192,18963,128,2,19135:0:0:0:0:
448,192,18963,1,8,0:0:0:0:
64,192,19135,128,0,19306:0:0:0:0:
448,192,19306,1,2,0:0:0:0:
320,192,19306,1,0,0:0:0:0:
192,192,19306,1,8,0:0:0:0:
192,192,19478,1,0,0:0:0:0:
64,192,19478,1,0,0:0:0:0:
448,192,19649,1,8,0:0:0:0:
192,192,19820,1,0,0:0:0:0:
64,192,19820,1,0,0:0:0:0:
448,192,19992,1,8,0:0:0:0:
192,192,20163,1,0,0:0:0:0:
64,192,20163,1,0,0:0:0:0:
448,192,20335,1,0,0:0:0:0:
192,192,20335,1,8,0:0:0:0:
320,192,20420,1,0,0:0:0:0:
192,192,20506,1,0,0:0:0:0:
64,192,20506,1,0,0:0:0:0:
320,192,20678,1,0,0:0:0:0:
448,192,20678,1,2,0:0:0:0:
64,192,20678,1,8,0:0:0:0:
448,192,20849,1,0,0:0:0:0:
320,192,20849,1,0,0:0:0:0:
64,192,21020,1,8,0:0:0:0:
320,192,21192,1,0,0:0:0:0:
448,192,21192,1,0,0:0:0:0:
64,192,21363,1,8,0:0:0:0:
320,192,21535,1,0,0:0:0:0:
448,192,21535,1,0,0:0:0:0:
64,192,21706,1,0,0:0:0:0:
320,192,21706,1,8,0:0:0:0:
192,192,21792,1,0,0:0:0:0:
448,192,21878,1,0,0:0:0:0:
320,192,21878,1,2,0:0:0:0:
64,192,22049,1,2,0:0:0:0:
192,192,22049,1,0,0:0:0:0:
448,192,22049,1,8,0:0:0:0:
448,192,22220,1,8,0:0:0:0:
320,192,22220,1,2,0:0:0:0:
64,192,22392,1,2,0:0:0:0:
192,192,22392,1,8,0:0:0:0:
448,192,22563,1,8,0:0:0:0:
320,192,22563,1,2,0:0:0:0:
64,192,22735,1,2,0:0:0:0:
192,192,22735,1,8,0:0:0:0:
320,192,22820,1,2,0:0:0:0:
448,192,22820,1,2,0:0:0:0:
64,192,22906,1,2,0:0:0:0:
192,192,22906,1,2,0:0:0:0:
320,192,22992,1,2,0:0:0:0:
448,192,22992,1,2,0:0:0:0:
64,192,23078,1,2,0:0:0:0:
192,192,23078,1,2,0:0:0:0:
320,192,23163,1,2,0:0:0:0:
448,192,23163,1,2,0:0:0:0:
64,192,23249,1,2,0:0:0:0:
192,192,23249,1,2,0:0:0:0:
320,192,23335,1,2,0:0:0:0:
448,192,23335,1,2,0:0:0:0:
192,192,23420,1,8,0:0:0:0:
64,192,23420,1,2,0:0:0:0:
320,192,23592,1,0,0:0:0:0:
448,192,23592,1,0,0:0:0:0:
192,192,23763,1,0,0:0:0:0:
320,192,23763,1,0,0:0:0:0:
192,192,23935,1,0,0:0:0:0:
64,192,23935,1,0,0:0:0:0:
320,192,24106,128,0,24792:0:0:0:0:
192,192,24449,128,0,24792:0:0:0:0:
448,192,24792,128,0,26163:0:0:0:0:
64,192,24792,1,2,0:0:0:0:
320,192,25478,1,0,0:0:0:0:
192,192,26163,1,0,0:0:0:0:
320,192,26335,1,0,0:0:0:0:
192,192,26506,1,0,0:0:0:0:
64,192,26678,1,0,0:0:0:0:
448,192,26849,128,0,27020:0:0:0:0:
320,192,27020,128,0,27192:0:0:0:0:
192,192,27192,128,0,27363:0:0:0:0:
64,192,27363,128,0,27535:0:0:0:0:
448,192,27535,128,0,28906:0:0:0:0:
192,192,27535,1,0,0:0:0:0:
320,192,28220,1,0,0:0:0:0:
64,192,28906,1,0,0:0:0:0:
192,192,29078,1,0,0:0:0:0:
320,192,29249,1,0,0:0:0:0:
448,192,29420,1,0,0:0:0:0:
64,192,29592,128,0,29763:0:0:0:0:
320,192,29763,128,0,29935:0:0:0:0:
192,192,29935,128,0,30106:0:0:0:0:
448,192,30106,128,0,30278:0:0:0:0:
64,192,30278,128,0,30963:0:0:0:0:
320,192,30278,1,0,0:0:0:0:
448,192,30963,128,0,31649:0:0:0:0:
192,192,30963,1,0,0:0:0:0:
192,192,31649,128,0,32163:0:0:0:0:
64,192,31649,1,0,0:0:0:0:
320,192,32163,128,0,32678:0:0:0:0:
448,192,32163,1,0,0:0:0:0:
64,192,32678,128,0,33020:0:0:0:0:
192,192,32678,1,0,0:0:0:0:
448,192,33020,1,0,0:0:0:0:
192,192,33192,128,0,33363:0:0:0:0:
320,192,33363,128,0,33535:0:0:0:0:
448,192,33535,128,0,33706:0:0:0:0:
192,192,33706,128,0,33878:0:0:0:0:
320,192,33878,128,0,34049:0:0:0:0:
64,192,34220,128,0,34392:0:0:0:0:
192,192,34563,128,0,34735:0:0:0:0:
320,192,34906,128,0,35078:0:0:0:0:
448,192,35249,128,0,35763:0:0:0:0:
320,192,35420,128,0,35763:0:0:0:0:
192,192,35592,128,0,35763:0:0:0:0:
64,192,35763,128,0,37135:0:0:0:0:
320,192,36449,1,0,0:0:0:0:
192,192,37135,1,0,0:0:0:0:
448,192,37306,1,0,0:0:0:0:
192,192,37478,1,0,0:0:0:0:
64,192,37649,1,0,0:0:0:0:
448,192,37820,128,0,37992:0:0:0:0:
320,192,37992,128,0,38163:0:0:0:0:
192,192,38163,128,0,38335:0:0:0:0:
64,192,38335,128,0,38506:0:0:0:0:
320,192,38506,128,0,39878:0:0:0:0:
64,192,39192,1,0,0:0:0:0:
448,192,39878,1,0,0:0:0:0:
320,192,40049,1,0,0:0:0:0:
192,192,40220,1,0,0:0:0:0:
64,192,40392,1,0,0:0:0:0:
448,192,40563,128,0,40735:0:0:0:0:
320,192,40735,128,0,40906:0:0:0:0:
192,192,40906,128,0,41078:0:0:0:0:
64,192,41078,128,0,41249:0:0:0:0:
192,192,41249,128,0,42278:0:0:0:0:
448,192,42278,128,0,42620:0:0:0:0:
64,192,42278,1,0,0:0:0:0:
320,192,42620,1,0,0:0:0:0:
64,192,42620,128,0,43135:0:0:0:0:
320,192,43135,128,0,43478:0:0:0:0:
192,192,43135,1,0,0:0:0:0:
448,192,43478,1,0,0:0:0:0:
64,192,43478,1,0,0:0:0:0:
192,192,43649,1,0,0:0:0:0:
448,192,43820,1,0,0:0:0:0:
320,192,43992,1,0,0:0:0:0:
448,192,44163,128,0,44335:0:0:0:0:
320,192,44335,128,0,44506:0:0:0:0:
192,192,44506,128,0,44678:0:0:0:0:
64,192,44678,128,0,44849:0:0:0:0:
448,192,44849,128,0,45020:0:0:0:0:
192,192,45192,128,0,45363:0:0:0:0:
320,192,45535,128,0,45706:0:0:0:0:
64,192,45878,128,0,46049:0:0:0:0:
64,192,46220,128,0,46392:0:0:0:0:
192,192,46392,128,0,46563:0:0:0:0:
320,192,46563,128,0,46735:0:0:0:0:
64,192,46735,1,2,0:0:0:0:
448,192,46735,1,8,0:0:0:0:
192,192,46735,1,0,0:0:0:0:
448,192,46906,1,0,0:0:0:0:
192,192,47078,1,0,0:0:0:0:
320,192,47078,1,2,0:0:0:0:
64,192,47078,1,8,0:0:0:0:
448,192,47249,1,0,0:0:0:0:
320,192,47420,1,2,0:0:0:0:
64,192,47420,1,8,0:0:0:0:
192,192,47420,1,0,0:0:0:0:
64,192,47592,1,0,0:0:0:0:
320,192,47763,1,0,0:0:0:0:
192,192,47763,1,2,0:0:0:0:
448,192,47763,1,8,0:0:0:0:
64,192,47935,1,0,0:0:0:0:
320,192,48106,1,0,0:0:0:0:
448,192,48106,1,8,0:0:0:0:
192,192,48106,1,2,0:0:0:0:
192,192,48278,1,0,0:0:0:0:
64,192,48449,1,8,0:0:0:0:
448,192,48449,1,0,0:0:0:0:
320,192,48449,1,2,0:0:0:0:
320,192,48620,1,0,0:0:0:0:
64,192,48792,1,2,0:0:0:0:
448,192,48792,1,8,0:0:0:0:
192,192,48792,1,0,0:0:0:0:
320,192,48963,1,0,0:0:0:0:
320,192,49135,1,0,0:0:0:0:
64,192,49135,1,2,0:0:0:0:
448,192,49135,1,8,0:0:0:0:
192,192,49306,1,0,0:0:0:0:
64,192,49478,1,2,0:0:0:0:
320,192,49478,1,8,0:0:0:0:
192,192,49478,1,0,0:0:0:0:
448,192,49649,1,0,0:0:0:0:
320,192,49735,1,0,0:0:0:0:
192,192,49820,1,0,0:0:0:0:
448,192,49820,1,8,0:0:0:0:
64,192,49820,1,2,0:0:0:0:
64,192,49992,1,0,0:0:0:0:
192,192,50078,1,0,0:0:0:0:
64,192,50163,1,8,0:0:0:0:
320,192,50163,1,0,0:0:0:0:
448,192,50163,1,2,0:0:0:0:
448,192,50335,1,0,0:0:0:0:
320,192,50420,1,0,0:0:0:0:
64,192,50506,1,2,0:0:0:0:
192,192,50506,1,0,0:0:0:0:
448,192,50506,1,8,0:0:0:0:
64,192,50678,1,0,0:0:0:0:
192,192,50763,1,0,0:0:0:0:
320,192,50849,1,0,0:0:0:0:
448,192,50849,1,2,0:0:0:0:
64,192,50849,1,8,0:0:0:0:
320,192,51020,1,0,0:0:0:0:
192,192,51106,1,0,0:0:0:0:
64,192,51192,1,8,0:0:0:0:
320,192,51192,1,0,0:0:0:0:
448,192,51192,1,2,0:0:0:0:
192,192,51363,1,0,0:0:0:0:
320,192,51449,1,0,0:0:0:0:
192,192,51535,1,0,0:0:0:0:
448,192,51535,1,8,0:0:0:0:
64,192,51535,1,2,0:0:0:0:
64,192,51706,1,0,0:0:0:0:
192,192,51792,1,0,0:0:0:0:
448,192,51878,1,2,0:0:0:0:
320,192,51878,1,0,0:0:0:0:
64,192,51878,1,8,0:0:0:0:
448,192,52049,1,0,0:0:0:0:
320,192,52135,1,0,0:0:0:0:
192,192,52220,1,0,0:0:0:0:
64,192,52220,1,2,0:0:0:0:
448,192,52220,1,8,0:0:0:0:
448,192,52392,1,0,0:0:0:0:
320,192,52478,1,0,0:0:0:0:
64,192,52563,1,2,0:0:0:0:
448,192,52563,1,8,0:0:0:0:
192,192,52649,1,0,0:0:0:0:
64,192,52735,1,0,0:0:0:0:
192,192,52906,1,2,0:0:0:0:
320,192,52906,1,8,0:0:0:0:
448,192,52992,1,0,0:0:0:0:
320,192,53078,1,0,0:0:0:0:
192,192,53163,1,0,0:0:0:0:
64,192,53249,1,8,0:0:0:0:
320,192,53249,1,0,0:0:0:0:
448,192,53249,1,2,0:0:0:0:
448,192,53420,1,0,0:0:0:0:
192,192,53592,1,0,0:0:0:0:
320,192,53592,1,2,0:0:0:0:
64,192,53592,1,8,0:0:0:0:
64,192,53763,1,0,0:0:0:0:
320,192,53935,1,0,0:0:0:0:
192,192,53935,1,2,0:0:0:0:
448,192,53935,1,8,0:0:0:0:
192,192,54106,1,0,0:0:0:0:
320,192,54192,1,0,0:0:0:0:
448,192,54278,1,8,0:0:0:0:
64,192,54278,1,2,0:0:0:0:
192,192,54363,1,0,0:0:0:0:
320,192,54449,1,0,0:0:0:0:
448,192,54620,1,8,0:0:0:0:
64,192,54620,1,2,0:0:0:0:
192,192,54620,1,0,0:0:0:0:
192,192,54792,1,0,0:0:0:0:
448,192,54963,1,2,0:0:0:0:
320,192,54963,1,0,0:0:0:0:
64,192,54963,1,8,0:0:0:0:
448,192,55135,1,0,0:0:0:0:
320,192,55220,1,0,0:0:0:0:
64,192,55306,1,2,0:0:0:0:
448,192,55306,1,8,0:0:0:0:
192,192,55392,1,0,0:0:0:0:
320,192,55478,1,0,0:0:0:0:
192,192,55649,1,0,0:0:0:0:
64,192,55649,1,2,0:0:0:0:
448,192,55649,1,8,0:0:0:0:
320,192,55820,1,0,0:0:0:0:
192,192,55906,1,0,0:0:0:0:
448,192,55992,1,8,0:0:0:0:
64,192,55992,1,2,0:0:0:0:
320,192,56078,1,0,0:0:0:0:
192,192,56163,1,0,0:0:0:0:
64,192,56335,1,8,0:0:0:0:
448,192,56335,1,2,0:0:0:0:
320,192,56335,1,0,0:0:0:0:
192,192,56506,1,0,0:0:0:0:
448,192,56678,1,2,0:0:0:0:
64,192,56678,1,8,0:0:0:0:
320,192,56678,1,0,0:0:0:0:
320,192,56849,1,0,0:0:0:0:
448,192,57020,1,8,0:0:0:0:
64,192,57020,1,2,0:0:0:0:
192,192,57020,1,0,0:0:0:0:
320,192,57106,1,0,0:0:0:0:
64,192,57192,1,0,0:0:0:0:
192,192,57278,1,0,0:0:0:0:
448,192,57363,1,0,0:0:0:0:
320,192,57449,1,0,0:0:0:0:
64,192,57535,1,0,0:0:0:0:
192,192,57620,1,0,0:0:0:0:
448,192,57706,1,2,0:0:0:0:
320,192,57706,1,0,0:0:0:0:
64,192,57706,1,8,0:0:0:0:
64,192,57878,1,0,0:0:0:0:
192,192,57963,1,0,0:0:0:0:
320,192,58049,1,2,0:0:0:0:
448,192,58049,1,8,0:0:0:0:
192,192,58135,1,0,0:0:0:0:
320,192,58220,1,0,0:0:0:0:
192,192,58392,1,0,0:0:0:0:
64,192,58392,1,2,0:0:0:0:
448,192,58392,1,8,0:0:0:0:
320,192,58478,1,0,0:0:0:0:
192,192,58649,1,0,0:0:0:0:
320,192,58735,1,8,0:0:0:0:
448,192,58735,1,2,0:0:0:0:
64,192,58820,1,0,0:0:0:0:
192,192,58906,1,0,0:0:0:0:
320,192,58992,1,0,0:0:0:0:
192,192,59078,1,0,0:0:0:0:
448,192,59078,1,8,0:0:0:0:
64,192,59078,1,2,0:0:0:0:
320,192,59249,1,0,0:0:0:0:
192,192,59420,1,0,0:0:0:0:
64,192,59420,1,2,0:0:0:0:
448,192,59420,1,8,0:0:0:0:
448,192,59592,1,0,0:0:0:0:
320,192,59678,1,0,0:0:0:0:
192,192,59763,1,2,0:0:0:0:
64,192,59763,1,8,0:0:0:0:
320,192,59849,1,0,0:0:0:0:
448,192,59935,1,0,0:0:0:0:
192,192,60106,1,0,0:0:0:0:
320,192,60106,1,8,0:0:0:0:
64,192,60106,1,2,0:0:0:0:
320,192,60278,1,0,0:0:0:0:
192,192,60449,1,0,0:0:0:0:
64,192,60449,1,2,0:0:0:0:
448,192,60449,1,8,0:0:0:0:
320,192,60620,1,0,0:0:0:0:
192,192,60706,1,0,0:0:0:0:
64,192,60792,1,2,0:0:0:0:
320,192,60792,1,8,0:0:0:0:
448,192,60878,1,0,0:0:0:0:
64,192,60963,1,0,0:0:0:0:
192,192,61135,1,8,0:0:0:0:
448,192,61135,1,2,0:0:0:0:
320,192,61135,1,0,0:0:0:0:
64,192,61220,1,0,0:0:0:0:
64,192,61478,1,8,0:0:0:0:
320,192,61478,1,0,0:0:0:0:
448,192,61478,1,2,0:0:0:0:
192,192,61649,1,0,0:0:0:0:
64,192,61820,1,2,0:0:0:0:
448,192,61820,1,8,0:0:0:0:
320,192,61820,1,0,0:0:0:0:
64,192,61992,1,0,0:0:0:0:
192,192,62163,1,8,0:0:0:0:
448,192,62163,1,2,0:0:0:0:
320,192,62163,1,0,0:0:0:0:
320,192,62335,1,0,0:0:0:0:
192,192,62420,1,0,0:0:0:0:
448,192,62506,1,2,0:0:0:0:
64,192,62506,1,2,0:0:0:0:
320,192,62592,1,0,0:0:0:0:
192,192,62678,1,0,0:0:0:0:
448,192,62849,1,2,0:0:0:0:
64,192,62849,1,8,0:0:0:0:
320,192,62849,1,0,0:0:0:0:
320,192,63020,1,0,0:0:0:0:
192,192,63192,1,0,0:0:0:0:
64,192,63192,1,2,0:0:0:0:
448,192,63192,1,8,0:0:0:0:
192,192,63363,1,0,0:0:0:0:
320,192,63449,1,0,0:0:0:0:
448,192,63535,1,2,0:0:0:0:
64,192,63535,1,2,0:0:0:0:
192,192,63620,1,0,0:0:0:0:
320,192,63706,1,0,0:0:0:0:
64,192,63878,1,2,0:0:0:0:
192,192,63878,1,2,0:0:0:0:
320,192,63963,1,0,0:0:0:0:
448,192,64049,1,0,0:0:0:0:
192,192,64135,1,0,0:0:0:0:
320,192,64220,1,0,0:0:0:0:
64,192,64220,1,8,0:0:0:0:
448,192,64220,1,2,0:0:0:0:
448,192,64392,1,0,0:0:0:0:
64,192,64563,1,2,0:0:0:0:
320,192,64563,1,8,0:0:0:0:
192,192,64563,1,0,0:0:0:0:
320,192,64735,1,0,0:0:0:0:
64,192,64906,1,2,0:0:0:0:
192,192,64906,1,0,0:0:0:0:
448,192,64906,1,8,0:0:0:0:
192,192,65078,1,0,0:0:0:0:
64,192,65249,1,8,0:0:0:0:
448,192,65249,1,2,0:0:0:0:
320,192,65249,1,0,0:0:0:0:
192,192,65420,1,0,0:0:0:0:
320,192,65506,1,0,0:0:0:0:
448,192,65592,1,8,0:0:0:0:
64,192,65592,1,2,0:0:0:0:
192,192,65678,1,0,0:0:0:0:
320,192,65763,1,0,0:0:0:0:
448,192,65935,1,8,0:0:0:0:
192,192,65935,1,0,0:0:0:0:
64,192,65935,1,2,0:0:0:0:
64,192,66106,1,0,0:0:0:0:
192,192,66278,5,8,0:0:0:0:
448,192,66278,1,2,0:0:0:0:
320,192,66278,1,0,0:0:0:0:
448,192,66449,1,0,0:0:0:0:
192,192,66620,1,0,0:0:0:0:
64,192,66620,1,8,0:0:0:0:
320,192,66620,1,2,0:0:0:0:
64,192,66792,1,0,0:0:0:0:
448,192,66792,1,0,0:0:0:0:
192,192,66878,1,0,0:0:0:0:
320,192,66963,1,2,0:0:0:0:
448,192,66963,1,8,0:0:0:0:
64,192,67135,1,0,0:0:0:0:
320,192,67135,1,0,0:0:0:0:
448,192,67306,5,2,0:0:0:0:
192,192,67306,1,2,0:0:0:0:
320,192,67820,1,0,0:0:0:0:
64,192,67992,1,0,0:0:0:0:
192,192,68163,1,0,0:0:0:0:
320,192,68335,1,0,0:0:0:0:
448,192,68506,1,0,0:0:0:0:
64,192,68678,1,2,0:0:0:0:
192,192,68678,1,8,0:0:0:0:
320,192,68678,1,0,0:0:0:0:
192,192,68849,1,0,0:0:0:0:
448,192,68935,1,0,0:0:0:0:
192,192,69020,1,8,0:0:0:0:
64,192,69020,1,2,0:0:0:0:
320,192,69106,1,0,0:0:0:0:
64,192,69192,1,0,0:0:0:0:
192,192,69363,1,0,0:0:0:0:
320,192,69363,1,2,0:0:0:0:
64,192,69363,1,8,0:0:0:0:
448,192,69449,1,0,0:0:0:0:
192,192,69535,1,0,0:0:0:0:
320,192,69620,1,0,0:0:0:0:
192,192,69706,1,8,0:0:0:0:
448,192,69706,1,2,0:0:0:0:
64,192,69792,1,0,0:0:0:0:
192,192,69878,1,0,0:0:0:0:
320,192,69963,1,0,0:0:0:0:
448,192,70049,1,8,0:0:0:0:
192,192,70049,1,0,0:0:0:0:
64,192,70049,1,2,0:0:0:0:
64,192,70220,1,0,0:0:0:0:
448,192,70392,1,2,0:0:0:0:
192,192,70392,1,8,0:0:0:0:
320,192,70392,1,0,0:0:0:0:
448,192,70563,1,0,0:0:0:0:
64,192,70649,1,0,0:0:0:0:
320,192,70735,1,8,0:0:0:0:
192,192,70735,1,2,0:0:0:0:
64,192,70820,1,0,0:0:0:0:
448,192,70906,1,0,0:0:0:0:
320,192,71078,1,8,0:0:0:0:
192,192,71078,1,0,0:0:0:0:
64,192,71078,1,2,0:0:0:0:
448,192,71249,1,0,0:0:0:0:
192,192,71420,1,0,0:0:0:0:
320,192,71420,1,2,0:0:0:0:
64,192,71420,1,8,0:0:0:0:
192,192,71592,1,0,0:0:0:0:
448,192,71678,1,0,0:0:0:0:
64,192,71763,1,2,0:0:0:0:
320,192,71763,1,2,0:0:0:0:
192,192,71849,1,0,0:0:0:0:
64,192,71935,1,0,0:0:0:0:
448,192,72106,1,8,0:0:0:0:
192,192,72106,1,2,0:0:0:0:
320,192,72106,1,0,0:0:0:0:
64,192,72192,1,0,0:0:0:0:
448,192,72278,1,0,0:0:0:0:
320,192,72363,1,0,0:0:0:0:
64,192,72449,1,2,0:0:0:0:
448,192,72449,1,8,0:0:0:0:
192,192,72449,1,0,0:0:0:0:
320,192,72620,1,0,0:0:0:0:
192,192,72792,1,2,0:0:0:0:
448,192,72792,1,8,0:0:0:0:
320,192,72792,1,0,0:0:0:0:
64,192,72963,1,0,0:0:0:0:
192,192,73135,1,8,0:0:0:0:
448,192,73135,1,2,0:0:0:0:
320,192,73135,1,0,0:0:0:0:
320,192,73306,1,0,0:0:0:0:
64,192,73392,1,0,0:0:0:0:
448,192,73478,1,2,0:0:0:0:
192,192,73478,1,2,0:0:0:0:
320,192,73563,1,0,0:0:0:0:
64,192,73649,1,0,0:0:0:0:
64,192,73820,1,8,0:0:0:0:
320,192,73820,1,0,0:0:0:0:
448,192,73820,1,2,0:0:0:0:
192,192,73992,1,0,0:0:0:0:
448,192,74163,1,2,0:0:0:0:
320,192,74163,1,0,0:0:0:0:
64,192,74163,1,8,0:0:0:0:
192,192,74335,1,0,0:0:0:0:
64,192,74420,1,0,0:0:0:0:
448,192,74506,1,8,0:0:0:0:
320,192,74506,1,2,0:0:0:0:
192,192,74592,1,0,0:0:0:0:
64,192,74678,1,0,0:0:0:0:
192,192,74849,1,2,0:0:0:0:
448,192,74849,1,0,0:0:0:0:
320,192,74849,1,8,0:0:0:0:
64,192,74935,1,0,0:0:0:0:
192,192,75020,1,0,0:0:0:0:
320,192,75106,1,0,0:0:0:0:
448,192,75192,1,8,0:0:0:0:
192,192,75192,1,0,0:0:0:0:
64,192,75192,1,2,0:0:0:0:
64,192,75363,1,0,0:0:0:0:
320,192,75535,1,0,0:0:0:0:
192,192,75535,1,2,0:0:0:0:
448,192,75535,1,8,0:0:0:0:
64,192,75706,1,0,0:0:0:0:
64,192,75878,1,8,0:0:0:0:
320,192,75878,1,0,0:0:0:0:
448,192,75878,1,2,0:0:0:0:
448,192,76049,1,0,0:0:0:0:
64,192,76135,1,0,0:0:0:0:
320,192,76220,1,2,0:0:0:0:
192,192,76220,1,2,0:0:0:0:
64,192,76306,1,0,0:0:0:0:
320,192,76392,1,0,0:0:0:0:
64,192,76563,1,2,0:0:0:0:
192,192,76563,1,0,0:0:0:0:
448,192,76563,1,8,0:0:0:0:
320,192,76735,1,0,0:0:0:0:
320,192,76906,1,8,0:0:0:0:
192,192,76906,1,0,0:0:0:0:
64,192,76906,1,2,0:0:0:0:
448,192,77078,1,0,0:0:0:0:
320,192,77163,1,0,0:0:0:0:
448,192,77249,1,8,0:0:0:0:
64,192,77249,1,2,0:0:0:0:
192,192,77335,1,0,0:0:0:0:
320,192,77420,1,0,0:0:0:0:
192,192,77592,1,0,0:0:0:0:
448,192,77592,1,8,0:0:0:0:
64,192,77592,1,2,0:0:0:0:
448,192,77763,1,0,0:0:0:0:
320,192,77849,1,0,0:0:0:0:
64,192,77935,1,2,0:0:0:0:
192,192,77935,1,2,0:0:0:0:
448,192,78020,1,0,0:0:0:0:
320,192,78106,1,0,0:0:0:0:
64,192,78278,1,2,0:0:0:0:
192,192,78278,1,0,0:0:0:0:
448,192,78278,1,8,0:0:0:0:
448,192,78449,1,0,0:0:0:0:
320,192,78449,1,0,0:0:0:0:
448,192,78792,1,0,0:0:0:0:
320,192,78792,1,0,0:0:0:0:
64,192,78963,1,0,0:0:0:0:
192,192,79049,1,0,0:0:0:0:
448,192,79135,1,0,0:0:0:0:
320,192,79135,1,0,0:0:0:0:
192,192,79220,1,0,0:0:0:0:
64,192,79306,1,0,0:0:0:0:
192,192,79392,1,0,0:0:0:0:
448,192,79478,1,0,0:0:0:0:
320,192,79478,1,0,0:0:0:0:
192,192,79563,1,0,0:0:0:0:
320,192,79649,1,0,0:0:0:0:
64,192,79649,1,8,0:0:0:0:
448,192,79649,1,2,0:0:0:0:
320,192,79820,1,0,0:0:0:0:
192,192,79906,1,0,0:0:0:0:
448,192,79992,1,8,0:0:0:0:
320,192,79992,1,2,0:0:0:0:
192,192,80078,1,0,0:0:0:0:
64,192,80163,1,0,0:0:0:0:
64,192,80335,1,8,0:0:0:0:
448,192,80335,1,2,0:0:0:0:
320,192,80335,1,0,0:0:0:0:
192,192,80420,1,0,0:0:0:0:
64,192,80506,1,0,0:0:0:0:
448,192,80678,1,8,0:0:0:0:
192,192,80678,1,0,0:0:0:0:
64,192,80678,1,2,0:0:0:0:
320,192,80763,1,0,0:0:0:0:
192,192,80849,1,0,0:0:0:0:
320,192,80935,1,0,0:0:0:0:
192,192,81020,1,0,0:0:0:0:
64,192,81020,1,2,0:0:0:0:
448,192,81020,1,8,0:0:0:0:
64,192,81192,1,0,0:0:0:0:
192,192,81363,1,8,0:0:0:0:
320,192,81363,1,0,0:0:0:0:
448,192,81363,1,2,0:0:0:0:
448,192,81535,1,0,0:0:0:0:
320,192,81620,1,0,0:0:0:0:
64,192,81706,1,2,0:0:0:0:
192,192,81706,1,8,0:0:0:0:
448,192,81792,1,0,0:0:0:0:
320,192,81878,1,0,0:0:0:0:
64,192,82049,1,2,0:0:0:0:
192,192,82049,1,0,0:0:0:0:
448,192,82049,1,8,0:0:0:0:
320,192,82220,1,0,0:0:0:0:
64,192,82392,1,2,0:0:0:0:
192,192,82392,1,0,0:0:0:0:
320,192,82392,1,8,0:0:0:0:
448,192,82563,1,0,0:0:0:0:
320,192,82649,1,0,0:0:0:0:
448,192,82735,1,8,0:0:0:0:
64,192,82735,1,2,0:0:0:0:
192,192,82820,1,0,0:0:0:0:
64,192,82906,1,0,0:0:0:0:
320,192,83078,1,0,0:0:0:0:
448,192,83078,1,2,0:0:0:0:
192,192,83078,1,8,0:0:0:0:
64,192,83163,1,0,0:0:0:0:
320,192,83249,1,0,0:0:0:0:
192,192,83335,1,0,0:0:0:0:
448,192,83420,1,2,0:0:0:0:
64,192,83420,1,8,0:0:0:0:
320,192,83420,1,0,0:0:0:0:
192,192,83592,1,0,0:0:0:0:
320,192,83763,1,8,0:0:0:0:
64,192,83763,1,2,0:0:0:0:
448,192,83763,1,0,0:0:0:0:
192,192,83935,1,0,0:0:0:0:
64,192,84106,1,8,0:0:0:0:
192,192,84106,1,0,0:0:0:0:
320,192,84106,1,2,0:0:0:0:
448,192,84278,1,0,0:0:0:0:
320,192,84363,1,0,0:0:0:0:
64,192,84449,1,2,0:0:0:0:
448,192,84449,1,2,0:0:0:0:
192,192,84535,1,0,0:0:0:0:
64,192,84620,1,0,0:0:0:0:
192,192,84792,1,8,0:0:0:0:
320,192,84792,1,0,0:0:0:0:
448,192,84792,1,2,0:0:0:0:
320,192,84963,1,0,0:0:0:0:
192,192,85135,1,0,0:0:0:0:
448,192,85135,1,2,0:0:0:0:
64,192,85135,1,8,0:0:0:0:
320,192,85306,1,0,0:0:0:0:
192,192,85392,1,0,0:0:0:0:
448,192,85478,1,2,0:0:0:0:
320,192,85478,1,8,0:0:0:0:
64,192,85563,1,0,0:0:0:0:
192,192,85649,1,0,0:0:0:0:
320,192,85820,1,0,0:0:0:0:
448,192,85820,1,2,0:0:0:0:
64,192,85820,1,8,0:0:0:0:
192,192,85906,1,0,0:0:0:0:
320,192,85992,1,0,0:0:0:0:
64,192,86078,1,0,0:0:0:0:
192,192,86163,1,8,0:0:0:0:
320,192,86163,1,0,0:0:0:0:
448,192,86163,1,2,0:0:0:0:
448,192,86335,1,0,0:0:0:0:
192,192,86506,1,0,0:0:0:0:
320,192,86506,1,2,0:0:0:0:
64,192,86506,1,8,0:0:0:0:
192,192,86678,1,0,0:0:0:0:
320,192,86849,1,0,0:0:0:0:
448,192,86849,1,2,0:0:0:0:
64,192,86849,1,8,0:0:0:0:
192,192,86935,1,0,0:0:0:0:
320,192,87020,1,0,0:0:0:0:
64,192,87192,1,8,0:0:0:0:
192,192,87192,1,0,0:0:0:0:
448,192,87192,1,2,0:0:0:0:
192,192,87363,1,0,0:0:0:0:
320,192,87449,1,0,0:0:0:0:
192,192,87535,1,8,0:0:0:0:
64,192,87535,1,2,0:0:0:0:
448,192,87620,1,0,0:0:0:0:
320,192,87706,1,0,0:0:0:0:
64,192,87878,1,8,0:0:0:0:
192,192,87878,1,0,0:0:0:0:
448,192,87878,1,2,0:0:0:0:
320,192,88049,1,0,0:0:0:0:
192,192,88220,5,0,0:0:0:0:
64,192,88220,1,8,0:0:0:0:
448,192,88220,1,2,0:0:0:0:
192,192,88392,1,0,0:0:0:0:
64,192,88563,1,8,0:0:0:0:
320,192,88563,1,0,0:0:0:0:
448,192,88563,1,2,0:0:0:0:
64,192,88735,1,0,0:0:0:0:
192,192,88820,1,0,0:0:0:0:
320,192,88906,1,8,0:0:0:0:
448,192,88906,1,2,0:0:0:0:
192,192,88992,1,0,0:0:0:0:
64,192,89078,1,0,0:0:0:0:
320,192,89249,5,2,0:0:0:0:
192,192,89249,1,2,0:0:0:0:
448,192,89249,1,0,0:0:0:0:
320,192,89592,1,2,0:0:0:0:
192,192,89592,1,2,0:0:0:0:
448,192,89592,1,0,0:0:0:0:
320,192,89935,1,2,0:0:0:0:
448,192,89935,1,2,0:0:0:0:
320,192,90106,1,8,0:0:0:0:
192,192,90106,1,2,0:0:0:0:
192,192,90278,128,2,90620:0:0:0:0:
64,192,90278,1,2,0:0:0:0:
64,192,90620,1,2,0:0:0:0:
448,192,90620,1,8,0:0:0:0:
320,192,90792,1,0,0:0:0:0:
192,192,90878,1,0,0:0:0:0:
448,192,90963,1,8,0:0:0:0:
64,192,90963,1,2,0:0:0:0:
320,192,91049,1,0,0:0:0:0:
192,192,91135,1,0,0:0:0:0:
64,192,91306,1,2,0:0:0:0:
320,192,91306,1,8,0:0:0:0:
448,192,91392,1,0,0:0:0:0:
192,192,91478,1,0,0:0:0:0:
320,192,91563,1,0,0:0:0:0:
64,192,91649,1,2,0:0:0:0:
448,192,91649,1,8,0:0:0:0:
192,192,91735,1,0,0:0:0:0:
320,192,91820,1,0,0:0:0:0:
448,192,91906,1,0,0:0:0:0:
320,192,91992,1,2,0:0:0:0:
64,192,91992,1,8,0:0:0:0:
192,192,91992,1,0,0:0:0:0:
192,192,92163,1,0,0:0:0:0:
320,192,92335,1,2,0:0:0:0:
448,192,92335,1,8,0:0:0:0:
64,192,92420,1,0,0:0:0:0:
192,192,92506,1,0,0:0:0:0:
320,192,92592,1,0,0:0:0:0:
64,192,92678,1,2,0:0:0:0:
192,192,92678,1,8,0:0:0:0:
448,192,92763,1,0,0:0:0:0:
320,192,92849,1,0,0:0:0:0:
64,192,93020,1,8,0:0:0:0:
192,192,93020,1,0,0:0:0:0:
448,192,93020,1,2,0:0:0:0:
320,192,93192,1,0,0:0:0:0:
64,192,93363,1,8,0:0:0:0:
192,192,93363,1,0,0:0:0:0:
448,192,93363,1,2,0:0:0:0:
320,192,93535,1,0,0:0:0:0:
192,192,93620,1,0,0:0:0:0:
64,192,93706,1,2,0:0:0:0:
448,192,93706,1,8,0:0:0:0:
192,192,93792,1,0,0:0:0:0:
320,192,93878,1,0,0:0:0:0:
192,192,94049,1,0,0:0:0:0:
448,192,94049,1,2,0:0:0:0:
64,192,94049,1,8,0:0:0:0:
320,192,94135,1,0,0:0:0:0:
448,192,94220,1,0,0:0:0:0:
320,192,94306,1,0,0:0:0:0:
64,192,94392,1,8,0:0:0:0:
192,192,94392,1,0,0:0:0:0:
448,192,94392,1,2,0:0:0:0:
320,192,94563,1,0,0:0:0:0:
64,192,94735,1,8,0:0:0:0:
192,192,94735,1,0,0:0:0:0:
448,192,94735,1,2,0:0:0:0:
320,192,94906,1,0,0:0:0:0:
320,192,95078,1,2,0:0:0:0:
64,192,95078,1,8,0:0:0:0:
192,192,95078,1,0,0:0:0:0:
192,192,95249,1,0,0:0:0:0:
448,192,95335,1,0,0:0:0:0:
320,192,95420,1,8,0:0:0:0:
64,192,95420,1,2,0:0:0:0:
192,192,95506,1,0,0:0:0:0:
320,192,95592,1,0,0:0:0:0:
64,192,95763,1,8,0:0:0:0:
320,192,95763,1,0,0:0:0:0:
448,192,95763,1,2,0:0:0:0:
320,192,95935,1,0,0:0:0:0:
64,192,96106,1,8,0:0:0:0:
192,192,96106,1,0,0:0:0:0:
320,192,96106,1,2,0:0:0:0:
448,192,96278,1,0,0:0:0:0:
320,192,96363,1,0,0:0:0:0:
64,192,96449,1,8,0:0:0:0:
192,192,96449,1,0,0:0:0:0:
448,192,96449,1,2,0:0:0:0:
320,192,96535,1,0,0:0:0:0:
192,192,96620,1,0,0:0:0:0:
448,192,96792,1,2,0:0:0:0:
320,192,96792,1,0,0:0:0:0:
64,192,96792,1,8,0:0:0:0:
192,192,96878,1,0,0:0:0:0:
320,192,96963,1,0,0:0:0:0:
320,192,97135,1,0,0:0:0:0:
448,192,97135,1,2,0:0:0:0:
64,192,97135,1,8,0:0:0:0:
192,192,97306,1,0,0:0:0:0:
64,192,97478,1,8,0:0:0:0:
192,192,97478,1,0,0:0:0:0:
320,192,97478,1,2,0:0:0:0:
320,192,97649,1,0,0:0:0:0:
192,192,97820,1,0,0:0:0:0:
320,192,97820,1,8,0:0:0:0:
448,192,97820,1,2,0:0:0:0:
64,192,97992,1,0,0:0:0:0:
192,192,98078,1,0,0:0:0:0:
320,192,98163,1,8,0:0:0:0:
448,192,98163,1,2,0:0:0:0:
64,192,98249,1,0,0:0:0:0:
192,192,98335,1,0,0:0:0:0:
320,192,98506,1,8,0:0:0:0:
448,192,98506,1,2,0:0:0:0:
64,192,98506,1,0,0:0:0:0:
192,192,98678,1,0,0:0:0:0:
192,192,98849,1,8,0:0:0:0:
320,192,98849,1,0,0:0:0:0:
448,192,98849,1,2,0:0:0:0:
320,192,99020,1,0,0:0:0:0:
192,192,99106,1,0,0:0:0:0:
64,192,99192,1,2,0:0:0:0:
320,192,99192,1,8,0:0:0:0:
448,192,99278,1,0,0:0:0:0:
320,192,99363,1,0,0:0:0:0:
64,192,99535,1,8,0:0:0:0:
192,192,99535,1,0,0:0:0:0:
320,192,99535,1,2,0:0:0:0:
448,192,99706,1,0,0:0:0:0:
320,192,99792,1,0,0:0:0:0:
64,192,99878,1,2,0:0:0:0:
192,192,99878,1,8,0:0:0:0:
320,192,99963,1,0,0:0:0:0:
192,192,100049,1,0,0:0:0:0:
320,192,100220,1,0,0:0:0:0:
448,192,100220,1,2,0:0:0:0:
64,192,100220,1,8,0:0:0:0:
192,192,100392,1,0,0:0:0:0:
320,192,100563,1,0,0:0:0:0:
448,192,100563,1,2,0:0:0:0:
64,192,100563,1,8,0:0:0:0:
192,192,100735,1,0,0:0:0:0:
320,192,100906,1,0,0:0:0:0:
448,192,100906,1,2,0:0:0:0:
192,192,100906,1,8,0:0:0:0:
64,192,100992,1,0,0:0:0:0:
192,192,101078,1,0,0:0:0:0:
320,192,101163,1,0,0:0:0:0:
192,192,101249,1,8,0:0:0:0:
448,192,101249,1,2,0:0:0:0:
64,192,101335,1,0,0:0:0:0:
192,192,101420,1,8,0:0:0:0:
320,192,101420,1,2,0:0:0:0:
448,192,101506,1,0,0:0:0:0:
320,192,101592,1,2,0:0:0:0:
64,192,101592,1,8,0:0:0:0:
192,192,101592,1,0,0:0:0:0:
192,192,101763,1,0,0:0:0:0:
64,192,101849,1,0,0:0:0:0:
448,192,101935,1,2,0:0:0:0:
320,192,101935,1,8,0:0:0:0:
64,192,102020,1,0,0:0:0:0:
192,192,102106,1,0,0:0:0:0:
192,192,102278,1,8,0:0:0:0:
320,192,102278,1,0,0:0:0:0:
448,192,102278,1,2,0:0:0:0:
64,192,102363,1,0,0:0:0:0:
192,192,102449,1,0,0:0:0:0:
320,192,102535,1,0,0:0:0:0:
448,192,102620,1,2,0:0:0:0:
192,192,102620,1,8,0:0:0:0:
64,192,102706,1,0,0:0:0:0:
192,192,102792,1,0,0:0:0:0:
320,192,102878,1,0,0:0:0:0:
448,192,102963,1,2,0:0:0:0:
192,192,102963,1,0,0:0:0:0:
64,192,102963,1,8,0:0:0:0:
320,192,103135,1,0,0:0:0:0:
192,192,103306,1,8,0:0:0:0:
320,192,103306,1,0,0:0:0:0:
448,192,103306,1,2,0:0:0:0:
64,192,103478,1,0,0:0:0:0:
192,192,103563,1,0,0:0:0:0:
320,192,103649,1,8,0:0:0:0:
448,192,103649,1,2,0:0:0:0:
64,192,103735,1,0,0:0:0:0:
192,192,103820,1,0,0:0:0:0:
64,192,103992,1,8,0:0:0:0:
320,192,103992,1,0,0:0:0:0:
448,192,103992,1,2,0:0:0:0:
192,192,104163,1,0,0:0:0:0:
320,192,104335,1,0,0:0:0:0:
448,192,104335,1,2,0:0:0:0:
64,192,104335,1,8,0:0:0:0:
320,192,104506,1,0,0:0:0:0:
192,192,104592,1,0,0:0:0:0:
64,192,104678,1,2,0:0:0:0:
320,192,104678,1,8,0:0:0:0:
448,192,104763,1,0,0:0:0:0:
192,192,104849,1,0,0:0:0:0:
320,192,105020,1,0,0:0:0:0:
448,192,105020,1,2,0:0:0:0:
64,192,105020,1,8,0:0:0:0:
192,192,105106,1,0,0:0:0:0:
320,192,105192,1,0,0:0:0:0:
64,192,105363,1,8,0:0:0:0:
448,192,105363,1,2,0:0:0:0:
320,192,105363,1,0,0:0:0:0:
192,192,105535,1,0,0:0:0:0:
320,192,105706,1,0,0:0:0:0:
448,192,105706,1,2,0:0:0:0:
192,192,105706,1,8,0:0:0:0:
64,192,105878,1,0,0:0:0:0:
192,192,106049,1,0,0:0:0:0:
64,192,106049,1,8,0:0:0:0:
448,192,106049,1,2,0:0:0:0:
320,192,106220,1,0,0:0:0:0:
448,192,106306,1,0,0:0:0:0:
192,192,106392,1,8,0:0:0:0:
64,192,106392,1,2,0:0:0:0:
320,192,106478,1,0,0:0:0:0:
192,192,106563,1,0,0:0:0:0:
192,192,106735,1,0,0:0:0:0:
64,192,106735,1,8,0:0:0:0:
320,192,106735,1,2,0:0:0:0:
448,192,106906,1,0,0:0:0:0:
320,192,106992,1,0,0:0:0:0:
64,192,107078,1,8,0:0:0:0:
192,192,107078,1,0,0:0:0:0:
448,192,107078,1,2,0:0:0:0:
320,192,107249,1,0,0:0:0:0:
64,192,107335,1,0,0:0:0:0:
192,192,107420,1,2,0:0:0:0:
448,192,107420,1,8,0:0:0:0:
64,192,107506,1,0,0:0:0:0:
320,192,107592,1,0,0:0:0:0:
320,192,107763,1,0,0:0:0:0:
448,192,107763,1,2,0:0:0:0:
192,192,107763,1,8,0:0:0:0:
64,192,107849,1,0,0:0:0:0:
192,192,107935,1,0,0:0:0:0:
320,192,108020,1,0,0:0:0:0:
64,192,108106,1,2,0:0:0:0:
448,192,108106,1,8,0:0:0:0:
320,192,108278,1,0,0:0:0:0:
64,192,108449,1,8,0:0:0:0:
192,192,108449,1,0,0:0:0:0:
448,192,108449,1,2,0:0:0:0:
192,192,108620,1,0,0:0:0:0:
320,192,108792,1,0,0:0:0:0:
448,192,108792,1,2,0:0:0:0:
64,192,108792,1,8,0:0:0:0:
320,192,108963,1,0,0:0:0:0:
192,192,109135,1,0,0:0:0:0:
64,192,109135,1,8,0:0:0:0:
448,192,109135,1,2,0:0:0:0:
320,192,109306,1,0,0:0:0:0:
64,192,109392,1,0,0:0:0:0:
320,192,109478,1,2,0:0:0:0:
448,192,109478,1,8,0:0:0:0:
64,192,109563,1,0,0:0:0:0:
320,192,109649,1,0,0:0:0:0:
64,192,109820,1,8,0:0:0:0:
192,192,109820,1,0,0:0:0:0:
448,192,109820,1,2,0:0:0:0:
320,192,109992,1,0,0:0:0:0:
192,192,110163,5,8,0:0:0:0:
320,192,110163,1,0,0:0:0:0:
448,192,110163,1,2,0:0:0:0:
64,192,110335,1,0,0:0:0:0:
64,192,110506,1,8,0:0:0:0:
192,192,110506,1,0,0:0:0:0:
320,192,110506,1,2,0:0:0:0:
448,192,110678,1,0,0:0:0:0:
320,192,110763,1,2,0:0:0:0:
192,192,110763,1,8,0:0:0:0:
64,192,110935,1,0,0:0:0:0:
192,192,111020,1,8,0:0:0:0:
320,192,111020,1,2,0:0:0:0:
64,192,111192,128,2,111878:0:0:0:0:
320,192,111192,1,8,0:0:0:0:
448,192,111192,1,2,0:0:0:0:
448,192,111363,1,0,0:0:0:0:
320,192,111535,1,0,0:0:0:0:
192,192,111706,1,0,0:0:0:0:
448,192,111878,128,0,112563:0:0:0:0:
320,192,111878,1,8,0:0:0:0:
192,192,112049,1,8,0:0:0:0:
320,192,112135,1,8,0:0:0:0:
192,192,112220,1,8,0:0:0:0:
64,192,112306,1,8,0:0:0:0:
192,192,112392,1,8,0:0:0:0:
64,192,112563,128,2,113249:0:0:0:0:
320,192,112563,1,8,0:0:0:0:
448,192,112735,1,0,0:0:0:0:
320,192,112906,1,8,0:0:0:0:
192,192,112906,1,2,0:0:0:0:
448,192,113078,1,0,0:0:0:0:
320,192,113163,1,0,0:0:0:0:
448,192,113249,128,0,113935:0:0:0:0:
192,192,113249,1,2,0:0:0:0:
320,192,113335,1,0,0:0:0:0:
192,192,113420,1,0,0:0:0:0:
64,192,113592,1,8,0:0:0:0:
320,192,113592,1,2,0:0:0:0:
320,192,113763,1,8,0:0:0:0:
192,192,113935,1,8,0:0:0:0:
64,192,113935,128,2,114106:0:0:0:0:
448,192,114106,128,0,114278:0:0:0:0:
320,192,114106,1,0,0:0:0:0:
64,192,114278,128,2,114449:0:0:0:0:
192,192,114278,1,8,0:0:0:0:
192,192,114449,128,0,114620:0:0:0:0:
448,192,114449,1,0,0:0:0:0:
320,192,114535,1,0,0:0:0:0:
448,192,114620,1,2,0:0:0:0:
64,192,114620,1,8,0:0:0:0:
320,192,114706,1,0,0:0:0:0:
448,192,114792,1,0,0:0:0:0:
320,192,114963,1,2,0:0:0:0:
64,192,114963,1,8,0:0:0:0:
192,192,114963,1,0,0:0:0:0:
192,192,115135,1,0,0:0:0:0:
448,192,115306,128,0,115992:0:0:0:0:
320,192,115306,1,8,0:0:0:0:
64,192,115306,1,2,0:0:0:0:
320,192,115478,1,0,0:0:0:0:
192,192,115649,1,8,0:0:0:0:
64,192,115649,1,2,0:0:0:0:
64,192,115820,1,0,0:0:0:0:
320,192,115906,1,0,0:0:0:0:
192,192,115992,128,0,116678:0:0:0:0:
64,192,115992,1,2,0:0:0:0:
320,192,116078,1,0,0:0:0:0:
448,192,116163,1,0,0:0:0:0:
320,192,116335,1,8,0:0:0:0:
64,192,116335,1,2,0:0:0:0:
448,192,116506,1,0,0:0:0:0:
448,192,116678,1,2,0:0:0:0:
320,192,116678,128,8,116849:0:0:0:0:
64,192,116849,1,0,0:0:0:0:
192,192,116849,128,0,117020:0:0:0:0:
320,192,117020,1,8,0:0:0:0:
448,192,117020,128,2,117192:0:0:0:0:
320,192,117192,1,0,0:0:0:0:
64,192,117192,128,0,117363:0:0:0:0:
192,192,117278,1,0,0:0:0:0:
320,192,117363,1,8,0:0:0:0:
448,192,117363,1,2,0:0:0:0:
192,192,117449,1,0,0:0:0:0:
64,192,117535,1,0,0:0:0:0:
320,192,117706,1,0,0:0:0:0:
448,192,117706,1,2,0:0:0:0:
192,192,117706,1,8,0:0:0:0:
64,192,117878,1,0,0:0:0:0:
320,192,118049,128,0,118735:0:0:0:0:
448,192,118049,1,2,0:0:0:0:
192,192,118049,1,8,0:0:0:0:
64,192,118220,1,0,0:0:0:0:
192,192,118392,1,8,0:0:0:0:
448,192,118392,1,2,0:0:0:0:
64,192,118563,1,0,0:0:0:0:
192,192,118649,1,0,0:0:0:0:
448,192,118735,128,2,119420:0:0:0:0:
64,192,118735,1,0,0:0:0:0:
192,192,118820,1,0,0:0:0:0:
320,192,118906,1,0,0:0:0:0:
64,192,119078,1,2,0:0:0:0:
192,192,119078,1,8,0:0:0:0:
320,192,119249,1,0,0:0:0:0:
64,192,119420,128,2,119935:0:0:0:0:
192,192,119420,1,8,0:0:0:0:
320,192,119592,1,0,0:0:0:0:
192,192,119763,1,2,0:0:0:0:
448,192,119763,1,8,0:0:0:0:
448,192,119935,128,2,120449:0:0:0:0:
320,192,119935,1,0,0:0:0:0:
192,192,120020,1,0,0:0:0:0:
64,192,120106,1,2,0:0:0:0:
320,192,120192,1,0,0:0:0:0:
192,192,120278,1,0,0:0:0:0:
64,192,120449,1,2,0:0:0:0:
192,192,120449,128,8,120792:0:0:0:0:
320,192,120620,1,0,0:0:0:0:
448,192,120792,1,8,0:0:0:0:
64,192,120792,128,2,121478:0:0:0:0:
320,192,120963,1,0,0:0:0:0:
192,192,121135,1,2,0:0:0:0:
448,192,121135,1,8,0:0:0:0:
448,192,121306,1,0,0:0:0:0:
320,192,121392,1,0,0:0:0:0:
192,192,121478,1,2,0:0:0:0:
448,192,121478,1,0,0:0:0:0:
320,192,121563,1,0,0:0:0:0:
192,192,121649,1,0,0:0:0:0:
64,192,121820,1,8,0:0:0:0:
320,192,121820,1,0,0:0:0:0:
448,192,121820,1,2,0:0:0:0:
192,192,121992,1,0,0:0:0:0:
448,192,122163,1,2,0:0:0:0:
320,192,122163,1,0,0:0:0:0:
192,192,122163,1,8,0:0:0:0:
64,192,122335,1,0,0:0:0:0:
192,192,122506,1,0,0:0:0:0:
64,192,122678,1,0,0:0:0:0:
192,192,122763,1,0,0:0:0:0:
448,192,122849,1,2,0:0:0:0:
320,192,122849,1,8,0:0:0:0:
192,192,122935,1,0,0:0:0:0:
64,192,123020,1,0,0:0:0:0:
192,192,123192,1,8,0:0:0:0:
320,192,123192,1,0,0:0:0:0:
448,192,123192,1,2,0:0:0:0:
64,192,123363,1,0,0:0:0:0:
448,192,123535,1,2,0:0:0:0:
192,192,123535,1,8,0:0:0:0:
320,192,123535,128,0,124220:0:0:0:0:
64,192,123706,1,0,0:0:0:0:
448,192,123878,1,2,0:0:0:0:
192,192,123878,1,8,0:0:0:0:
192,192,124049,1,0,0:0:0:0:
64,192,124135,1,0,0:0:0:0:
192,192,124220,128,8,124906:0:0:0:0:
448,192,124220,1,2,0:0:0:0:
64,192,124306,1,0,0:0:0:0:
448,192,124392,1,0,0:0:0:0:
320,192,124563,1,8,0:0:0:0:
64,192,124563,1,2,0:0:0:0:
448,192,124735,1,0,0:0:0:0:
320,192,124906,1,2,0:0:0:0:
448,192,124906,128,8,125078:0:0:0:0:
192,192,125078,1,0,0:0:0:0:
64,192,125078,128,0,125249:0:0:0:0:
448,192,125249,128,8,125420:0:0:0:0:
320,192,125249,1,2,0:0:0:0:
64,192,125420,128,0,125592:0:0:0:0:
192,192,125420,1,0,0:0:0:0:
320,192,125506,1,0,0:0:0:0:
192,192,125592,1,2,0:0:0:0:
448,192,125592,1,8,0:0:0:0:
320,192,125678,1,0,0:0:0:0:
192,192,125763,1,0,0:0:0:0:
192,192,125935,1,0,0:0:0:0:
448,192,125935,1,8,0:0:0:0:
64,192,125935,1,2,0:0:0:0:
192,192,126106,1,0,0:0:0:0:
64,192,126278,1,2,0:0:0:0:
448,192,126278,128,0,126963:0:0:0:0:
320,192,126278,1,8,0:0:0:0:
192,192,126449,1,0,0:0:0:0:
64,192,126620,1,2,0:0:0:0:
320,192,126620,1,8,0:0:0:0:
64,192,126792,1,0,0:0:0:0:
192,192,126878,1,0,0:0:0:0:
64,192,126963,128,0,127649:0:0:0:0:
320,192,126963,1,2,0:0:0:0:
192,192,127049,1,0,0:0:0:0:
320,192,127135,1,0,0:0:0:0:
448,192,127306,1,2,0:0:0:0:
192,192,127306,1,8,0:0:0:0:
448,192,127478,1,0,0:0:0:0:
192,192,127649,128,8,127820:0:0:0:0:
320,192,127649,1,2,0:0:0:0:
320,192,127820,1,0,0:0:0:0:
448,192,127820,128,0,127992:0:0:0:0:
64,192,127992,128,8,128163:0:0:0:0:
192,192,127992,1,2,0:0:0:0:
448,192,128163,1,0,0:0:0:0:
320,192,128163,128,0,128335:0:0:0:0:
192,192,128249,1,0,0:0:0:0:
448,192,128335,1,2,0:0:0:0:
64,192,128335,1,8,0:0:0:0:
192,192,128420,1,0,0:0:0:0:
64,192,128506,1,0,0:0:0:0:
192,192,128678,1,8,0:0:0:0:
320,192,128678,1,0,0:0:0:0:
448,192,128678,1,2,0:0:0:0:
192,192,128849,1,0,0:0:0:0:
448,192,129020,1,2,0:0:0:0:
64,192,129020,128,0,130049:0:0:0:0:
320,192,129020,1,8,0:0:0:0:
192,192,129192,1,0,0:0:0:0:
448,192,129363,1,2,0:0:0:0:
320,192,129363,1,8,0:0:0:0:
192,192,129535,1,0,0:0:0:0:
320,192,129620,1,0,0:0:0:0:
448,192,129706,1,10,0:0:0:0:
320,192,129792,1,0,0:0:0:0:
192,192,129878,1,0,0:0:0:0:
192,192,130049,1,2,0:0:0:0:
448,192,130049,128,8,130392:0:0:0:0:
64,192,130220,1,0,0:0:0:0:
320,192,130392,1,8,0:0:0:0:
192,192,130392,128,2,130906:0:0:0:0:
64,192,130563,1,0,0:0:0:0:
320,192,130735,1,2,0:0:0:0:
448,192,130735,1,8,0:0:0:0:
448,192,130906,1,0,0:0:0:0:
64,192,130906,128,0,131249:0:0:0:0:
320,192,130992,1,0,0:0:0:0:
448,192,131078,1,10,0:0:0:0:
320,192,131163,1,0,0:0:0:0:
448,192,131249,128,0,131420:0:0:0:0:
192,192,131249,1,0,0:0:0:0:
192,192,131420,1,8,0:0:0:0:
64,192,131420,128,2,131592:0:0:0:0:
448,192,131592,128,0,131763:0:0:0:0:
320,192,131592,1,0,0:0:0:0:
192,192,131763,128,8,133135:0:0:0:0:
64,192,131763,1,2,0:0:0:0:
448,192,131935,1,0,0:0:0:0:
64,192,132106,1,2,0:0:0:0:
320,192,132106,1,8,0:0:0:0:
448,192,132278,1,0,0:0:0:0:
320,192,132363,1,0,0:0:0:0:
64,192,132449,1,10,0:0:0:0:
320,192,132535,1,0,0:0:0:0:
448,192,132620,1,0,0:0:0:0:
320,192,132792,1,8,0:0:0:0:
64,192,132792,1,2,0:0:0:0:
448,192,132963,1,0,0:0:0:0:
64,192,133135,1,2,0:0:0:0:
320,192,133135,1,8,0:0:0:0:
192,192,133306,1,0,0:0:0:0:
320,192,133478,1,0,0:0:0:0:
64,192,133649,1,0,0:0:0:0:
448,192,133735,1,0,0:0:0:0:
192,192,133820,1,0,0:0:0:0:
64,192,133906,1,0,0:0:0:0:
192,192,133992,1,0,0:0:0:0:
320,192,134078,1,0,0:0:0:0:
448,192,134163,1,0,0:0:0:0:
320,192,134249,1,0,0:0:0:0:
192,192,134335,1,0,0:0:0:0:
64,192,134420,1,0,0:0:0:0:
448,192,134506,128,8,138620:0:0:0:0:
192,192,134506,1,0,0:0:0:0:
320,192,134506,128,2,138620:0:0:0:0:
