osu file format v12

[General]
AudioFilename: 3OH3-Follow Me Down ft. Neon Hitch.mp3
AudioLeadIn: 0
PreviewTime: 44568
Countdown: 0
SampleSet: Normal
StackLeniency: 0.7
Mode: 0
LetterboxInBreaks: 0
WidescreenStoryboard: 0

[Editor]
DistanceSpacing: 1
BeatDivisor: 4
GridSize: 4

[Metadata]
Title:Follow Me Down
TitleUnicode:Follow Me Down
Artist:3OH!3 feat. Neon Hitch
ArtistUnicode:3OH!3 feat. Neon Hitch
Creator:mancuso_JM_
Version:Hard
Source:
Tags:Gero XinCrin mancusojuanmattos almost alice in wonderland electropop alternative
BeatmapID:302678
BeatmapSetID:117487

[Difficulty]
HPDrainRate:6
CircleSize:4
OverallDifficulty:6
ApproachRate:7
SliderMultiplier:1.9
SliderTickRate:2

[Events]
//Background and Video events
0,0,"BG.jpg",0,0
//Break Periods
2,129724,137119
//Storyboard Layer 0 (Background)
//Storyboard Layer 1 (Fail)
//Storyboard Layer 2 (Pass)
//Storyboard Layer 3 (Foreground)
//Storyboard Sound Samples
//Background Colour Transformations
3,100,163,162,255

[TimingPoints]
10586,530.973451327434,4,1,0,45,1,0
44568,-100,4,1,0,60,0,1
61559,-100,4,1,0,45,0,0
95541,-100,4,1,0,60,0,1
112400,-100,4,1,0,60,0,0
112532,-100,4,1,0,60,0,1
129524,-100,4,1,0,45,0,0
138019,-125,4,1,0,15,0,0
146515,-100,4,1,0,15,0,0
155010,-100,4,1,0,30,0,0
159258,-100,4,1,0,45,0,0
161382,-100,4,1,0,60,0,0
162444,-166.666666666667,4,2,0,15,0,0
162577,-166.666666666667,4,2,0,5,0,0
163506,-100,4,1,0,60,0,1
180364,-100,4,1,0,60,0,0
180497,-100,4,1,0,60,0,1
197488,-100,4,1,0,30,0,0

[Colours]
Combo1 : 222,224,143
Combo2 : 151,171,174
Combo3 : 247,153,155
SliderBorder : 200,200,200

[HitObjects]
30,137,10585,2,0,B|86:133|86:133|122:153|154:169|154:169|208:151,1,190,2|8,0:0|0:0,0:0:0:0:
256,68,11382,1,0,0:0:0:0:
300,152,11647,2,0,B|354:169|354:169|386:153|422:133|422:133|478:137,1,190,2|8,0:0|0:0,0:0:0:0:
502,229,12444,1,0,0:0:0:0:
494,325,12709,6,0,P|429:353|361:337,1,142.5,2|0,0:0|0:0,0:0:0:0:
310,289,13240,2,0,P|263:280|217:289,1,95,8|0,0:0|0:0,0:0:0:0:
130,325,13771,1,2,0:0:0:0:
142,229,14037,2,0,P|150:182|141:136,1,95,0|8,0:0|0:0,0:0:0:0:
76,64,14568,1,0,0:0:0:0:
92,44,14701,1,0,0:0:0:0:
108,24,14833,6,0,L|202:35,1,95,2|0,0:0|0:0,0:0:0:0:
256,116,15364,1,8,0:0:0:0:
309,35,15630,1,0,0:0:0:0:
309,35,15895,2,0,L|404:24,1,95,2|0,0:0|0:0,0:0:0:0:
496,48,16426,2,0,P|460:133|487:223,1,190,8|8,0:0|0:3,0:0:0:0:
508,316,17223,5,8,0:3:0:0:
424,360,17488,1,8,0:0:0:0:
424,360,17621,1,8,0:3:0:0:
424,360,17754,1,8,0:3:0:0:
424,264,18019,1,0,0:0:0:0:
408,172,18285,2,0,P|365:191|337:229,1,95,8|8,0:0|0:0,0:0:0:0:
272,296,18816,1,8,0:0:0:0:
255,312,18948,1,8,0:0:0:0:
238,328,19081,6,0,B|170:320|170:320|144:264|77:248,1,190,2|8,0:0|0:0,0:0:0:0:
0,192,19878,1,0,0:0:0:0:
77,135,20143,2,0,B|144:120|170:64|170:64|238:56,1,190,2|8,0:0|0:0,0:0:0:0:
332,56,20939,1,0,0:0:0:0:
424,28,21205,6,0,P|420:97|368:144,1,142.5,2|0,0:0|0:0,0:0:0:0:
299,167,21736,2,0,P|341:189|363:230,1,95,8|0,0:0|0:0,0:0:0:0:
352,323,22267,2,0,P|267:362|177:338,1,190,2|8,0:0|0:0,0:0:0:0:
84,324,23063,1,0,0:0:0:0:
67,307,23196,1,0,0:0:0:0:
50,290,23329,5,2,0:0:0:0:
64,192,23594,1,0,0:0:0:0:
8,112,23860,2,0,P|53:93|103:105,1,95,8|0,0:0|0:0,0:0:0:0:
63,191,24391,2,0,P|153:177|190:93,1,190,2|8,0:0|0:0,0:0:0:0:
96,100,25187,1,0,0:0:0:0:
191,93,25453,6,0,P|237:100|283:90,1,95,8|8,0:3|0:3,0:0:0:0:
378,77,25984,1,8,0:0:0:0:
382,99,26116,1,8,0:3:0:0:
387,121,26249,1,8,0:3:0:0:
468,172,26515,1,0,0:0:0:0:
396,232,26780,1,0,0:0:0:0:
452,308,27046,1,8,0:0:0:0:
452,307,27577,6,0,P|384:327|315:312,1,142.5,4|0,0:0|0:0,0:0:0:0:
264,264,28108,2,0,P|217:255|172:269,1,95,8|0,0:0|0:0,0:0:0:0:
4,356,28904,1,0,0:0:0:0:
12,256,29170,2,0,P|19:209|3:165,1,95,8|0,0:0|0:0,0:0:0:0:
48,80,29701,6,0,P|94:87|138:71,1,95,8|8,0:3|0:3,0:0:0:0:
228,40,30232,1,8,0:0:0:0:
320,68,30497,1,0,0:0:0:0:
472,180,31028,1,8,0:3:0:0:
496,272,31293,1,8,0:0:0:0:
404,256,31559,1,0,0:0:0:0:
404,256,31692,1,8,0:0:0:0:
404,256,31824,6,0,P|334:243|271:272,1,142.5,8|0,0:3|0:0,0:0:0:0:
200,275,32355,2,0,P|216:319|256:343,2,95,8|0|0,0:0|0:0|0:0,0:0:0:0:
192,179,33152,2,0,P|197:87|141:12,1,190,2|0,0:2|0:0,0:0:0:0:
48,32,33948,1,8,0:3:0:0:
0,116,34214,1,8,0:3:0:0:
96,116,34479,1,8,0:0:0:0:
96,116,34612,1,8,0:3:0:0:
96,116,34745,1,8,0:3:0:0:
100,304,35276,1,8,0:3:0:0:
100,303,35541,2,0,P|168:287|236:307,1,142.5,8|0,0:0|0:0,0:0:0:0:
265,374,36072,6,0,P|299:342|308:296,1,95,4|0,0:0|0:0,0:0:0:0:
272,208,36603,1,8,0:0:0:0:
272,208,36869,2,0,P|255:114|274:22,1,190,2|0,0:2|0:0,0:0:0:0:
360,68,37665,2,0,P|351:114|357:161,1,95,8|0,0:0|0:0,0:0:0:0:
444,120,38196,5,8,0:3:0:0:
492,204,38462,1,8,0:3:0:0:
480,300,38727,1,8,0:0:0:0:
480,300,38993,2,0,P|387:289|300:324,1,190,8|0,0:3|0:0,0:0:0:0:
212,360,39789,2,0,L|184:269,1,95,8|0,0:0|0:0,0:0:0:0:
167,252,40187,1,8,0:0:0:0:
150,235,40320,5,0,0:0:0:0:
56,220,40586,1,0,0:0:0:0:
51,123,40851,2,0,P|98:120|132:88,1,95,8|0,0:0|0:0,0:0:0:0:
188,12,41382,2,0,P|267:60|358:41,1,190,2|8,0:2|0:0,0:0:0:0:
436,99,42178,2,0,P|415:142|418:189,1,95,0|8,0:0|0:3,0:0:0:0:
256,192,42577,12,4,44568,0:0:0:0:
208,296,44833,5,0,0:0:0:0:
304,296,45099,1,8,0:0:0:0:
348,212,45364,2,0,B|320:148|346:120|372:92|348:26,1,190,2|0,0:0|0:0,0:0:0:0:
256,44,46161,1,8,0:0:0:0:
163,26,46426,2,0,B|140:92|165:120|192:148|164:212,1,190,2|0,0:0|0:0,0:0:0:0:
80,252,47223,1,8,0:0:0:0:
100,344,47488,1,0,0:0:0:0:
176,284,47754,2,2,P|260:260|340:320,1,190,2|8,0:0|0:0,0:0:0:0:
420,360,48550,1,0,0:0:0:0:
436,343,48683,1,0,0:0:0:0:
452,326,48816,5,0,0:0:0:0:
468,232,49081,2,0,L|448:140,1,95,0|8,0:0|0:0,0:0:0:0:
380,72,49612,2,0,P|292:100|207:60,1,190,2|0,0:0|0:0,0:0:0:0:
116,28,50409,1,8,0:0:0:0:
148,116,50674,2,0,P|187:200|159:288,1,190,2|0,0:0|0:0,0:0:0:0:
220,360,51470,2,0,L|314:348,1,95,8|0,0:0|0:0,0:0:0:0:
288,256,52001,2,2,L|476:232,1,190,2|8,0:0|0:0,0:0:0:0:
508,140,52798,1,0,0:0:0:0:
491,123,52931,1,0,0:0:0:0:
474,106,53063,6,0,L|406:38,1,95,4|0,0:0|0:0,0:0:0:0:
312,24,53594,1,8,0:0:0:0:
284,116,53860,2,0,P|200:152|114:114,1,190,2|2,0:0|0:0,0:0:0:0:
20,108,54656,2,0,L|16:202,1,95,8|0,0:0|0:0,0:0:0:0:
48,292,55187,6,0,P|92:284|140:296,1,95,6|0,0:0|0:0,0:0:0:0:
196,376,55718,1,8,0:0:0:0:
292,372,55984,2,0,P|368:348|396:248,1,190,2|2,0:0|0:0,0:0:0:0:
408,153,56780,2,0,P|332:177|304:276,1,190,0|4,0:0|0:0,0:0:0:0:
292,372,57577,6,0,L|220:308,1,95,2|8,0:0|0:0,0:0:0:0:
144,252,58108,2,0,P|96:200|126:94,2,190,2|2|2,0:0|0:0|0:0,0:0:0:0:
188,168,59435,1,0,0:0:0:0:
272,216,59701,6,0,P|284:172|272:124,2,95,2|8|0,0:0|0:0|0:0,0:0:0:0:
288,308,60497,2,0,L|382:319,1,95,2|0,0:0|0:0,0:0:0:0:
464,268,61028,1,8,0:0:0:0:
464,268,61559,6,0,P|432:180|456:90,1,190,6|8,0:0|0:0,0:0:0:0:
512,12,62355,1,0,0:0:0:0:
416,20,62621,2,0,L|321:27,1,95,2|0,0:0|0:0,0:0:0:0:
256,96,63152,1,8,0:0:0:0:
260,188,63417,1,0,0:0:0:0:
256,212,63550,1,0,0:0:0:0:
252,236,63683,6,0,P|182:296|93:276,1,190,2|8,0:0|0:0,0:0:0:0:
160,208,64479,1,0,0:0:0:0:
68,176,64745,2,0,P|137:116|226:136,1,190,2|8,0:0|0:0,0:0:0:0:
300,196,65541,1,0,0:0:0:0:
316,212,65674,1,0,0:0:0:0:
332,228,65807,6,0,L|261:291,1,95,2|0,0:0|0:0,0:0:0:0:
288,384,66338,2,0,L|426:253,1,190,8|2,0:0|0:0,0:0:0:0:
412,160,67134,2,0,L|482:96,1,95,0|8,0:0|0:0,0:0:0:0:
508,272,67931,5,8,0:3:0:0:
452,348,68196,1,8,0:3:0:0:
372,296,68462,1,8,0:0:0:0:
372,296,68594,1,8,0:3:0:0:
372,296,68727,1,8,0:3:0:0:
328,212,68993,2,0,P|316:168|320:120,1,95
352,28,69524,1,8,0:0:0:0:
256,28,69789,1,0,0:0:0:0:
234,37,69922,1,0,0:0:0:0:
213,47,70055,5,2,0:0:0:0:
132,92,70320,1,0,0:0:0:0:
156,184,70586,2,0,P|172:228|160:276,1,95,8|0,0:0|0:0,0:0:0:0:
68,296,71116,2,0,L|256:276,1,190,2|8,0:0|0:0,0:0:0:0:
352,268,71913,1,0,0:0:0:0:
440,304,72178,5,2,0:0:0:0:
436,208,72444,2,0,P|412:168|416:120,1,95,0|8,0:0|0:0,0:0:0:0:
436,28,72975,1,0,0:0:0:0:
352,72,73240,2,0,P|280:116|177:108,1,190,2|8,0:0|0:0,0:0:0:0:
96,160,74037,1,0,0:0:0:0:
84,180,74170,1,0,0:0:0:0:
80,204,74302,6,0,P|104:292|192:320,1,190,2|8,0:0|0:0,0:0:0:0:
256,248,75099,1,0,0:0:0:0:
321,320,75364,2,0,P|408:292|432:204,1,190,2|8,0:0|0:0,0:0:0:0:
384,124,76161,1,0,0:0:0:0:
300,80,76426,6,0,P|256:64|212:80,1,95,8|8,0:3|0:3,0:0:0:0:
140,140,76957,1,8,0:0:0:0:
140,140,77090,1,8,0:3:0:0:
140,140,77223,1,8,0:3:0:0:
105,229,77488,2,0,P|67:202|48:160,1,95
140,140,78019,1,8,0:0:0:0:
140,140,78550,6,0,P|184:120|207:81,1,95,8|0,0:3|0:0,0:0:0:0:
304,81,79081,2,0,P|328:120|372:140,1,95,8|0,0:0|0:0,0:0:0:0:
508,272,79878,1,0,0:0:0:0:
488,364,80143,1,8,0:0:0:0:
396,344,80409,1,0,0:0:0:0:
376,252,80674,6,0,P|336:268|308:312,2,95,8|8|8,0:3|0:3|0:0,0:0:0:0:
400,160,81470,2,0,P|488:136|520:50,1,190,2|0,0:2|0:0,0:0:0:0:
428,68,82267,1,8,0:0:0:0:
336,56,82532,1,0,0:0:0:0:
312,48,82665,1,8,0:0:0:0:
288,40,82798,5,0,0:0:0:0:
196,60,83063,1,0,0:2:0:0:
128,128,83329,2,0,L|88:214,1,95,8|0,0:0|0:0,0:0:0:0:
168,268,83860,2,0,L|226:138,2,142.5,2|2|0,0:2|0:2|0:0,0:0:0:0:
235,335,84922,1,8,0:3:0:0:
320,376,85187,1,8,0:3:0:0:
380,304,85453,1,8,0:0:0:0:
396,287,85586,1,8,0:3:0:0:
412,270,85718,1,8,0:3:0:0:
404,80,86249,5,0,0:0:0:0:
316,40,86515,1,8,0:0:0:0:
304,132,86780,1,0,0:0:0:0:
379,176,87046,2,0,P|300:220|224:172,1,190,8|8,0:3|0:0,0:0:0:0:
171,91,87842,2,0,P|88:56|12:107,1,190,8|0,0:3|0:0,0:0:0:0:
96,148,88639,2,0,L|107:290,1,142.5,8|2,0:0|0:2,0:0:0:0:
152,348,89170,6,0,P|194:327|241:330,1,95,8|0,0:3|0:0,0:0:0:0:
332,364,89701,2,0,P|378:367|421:346,1,95,8|2,0:0|0:2,0:0:0:0:
512,184,90497,1,8,0:3:0:0:
504,88,90762,1,8,0:0:0:0:
428,148,91028,1,0,0:0:0:0:
428,148,91161,1,8,0:0:0:0:
428,147,91293,6,0,P|360:167|293:148,1,142.5,8|2,0:3|0:2,0:0:0:0:
240,104,91824,2,0,L|224:197,1,95,8|0,0:0|0:0,0:0:0:0:
256,288,92355,2,0,P|164:279|96:342,1,190,2|8,0:2|0:0,0:0:0:0:
8,376,93152,2,0,L|0:281,1,95,0|8,0:0|0:3,0:0:0:0:
256,192,93550,12,4,95541,0:0:0:0:
364,177,95807,5,0,0:0:0:0:
324,264,96072,1,8,0:0:0:0:
240,308,96338,2,0,P|149:324|75:268,1,190,2|0,0:0|0:0,0:0:0:0:
8,200,97134,1,8,0:0:0:0:
96,168,97400,2,0,P|186:151|260:207,1,190,2|0,0:0|0:0,0:0:0:0:
336,264,98196,2,0,P|369:231|415:219,1,95,8|0,0:0|0:0,0:0:0:0:
399,328,98727,2,2,P|312:352|248:288,1,190,2|8,0:0|0:0,0:0:0:0:
224,196,99524,1,0,0:0:0:0:
164,268,99789,5,0,0:0:0:0:
136,360,100055,2,0,B|96:336|96:336|48:336,1,95,0|8,0:0|0:0,0:0:0:0:
8,248,100586,2,0,L|1:58,1,190,2|0,0:0|0:0,0:0:0:0:
84,8,101382,1,8,0:0:0:0:
136,88,101647,2,0,L|143:277,1,190,2|0,0:0|0:0,0:0:0:0:
140,372,102444,2,0,L|240:360,1,95,8|0,0:0|0:0,0:0:0:0:
240,264,102975,2,2,L|428:240,1,190,2|8,0:0|0:0,0:0:0:0:
484,148,103771,1,0,0:0:0:0:
467,131,103904,1,0,0:0:0:0:
450,114,104037,6,0,B|404:112|404:112|367:77,1,95,4|0,0:0|0:0,0:0:0:0:
304,12,104568,1,8,0:0:0:0:
304,12,104833,2,0,P|228:68|135:65,1,190,2|2,0:0|0:0,0:0:0:0:
44,40,105630,1,8,0:0:0:0:
4,124,105895,1,0,0:0:0:0:
20,216,106161,6,0,P|60:240|112:232,2,95,6|0|8,0:0|0:0|0:0,0:0:0:0:
80,144,106957,2,0,P|172:164|200:248,1,190,2|2,0:0|0:0,0:0:0:0:
160,336,107754,1,8,0:0:0:0:
256,336,108019,1,0,0:0:0:0:
256,336,108285,6,0,L|348:308,2,95,2|0|8,0:0|0:0|0:0,0:0:0:0:
224,248,109081,2,0,L|408:192,2,190,2|2|2,0:0|0:0|0:0,0:0:0:0:
164,324,110409,1,0,0:0:0:0:
76,284,110674,2,0,P|52:248|47:197,1,95,2|8,0:0|0:0,0:0:0:0:
96,116,111205,5,0,0:0:0:0:
112,99,111338,1,0,0:0:0:0:
128,82,111470,1,0,0:0:0:0:
208,32,111736,1,0,0:0:0:0:
304,32,112001,1,8,0:0:0:0:
384,82,112267,1,8,0:0:0:0:
400,99,112399,1,0,0:0:0:0:
416,116,112532,5,4,0:0:0:0:
420,212,112798,2,0,P|372:224|327:215,1,95,0|8,0:0|0:0,0:0:0:0:
244,172,113329,2,0,P|152:152|62:179,1,190,2|0,0:0|0:0,0:0:0:0:
0,248,114125,1,8,0:0:0:0:
60,324,114391,2,0,P|149:351|241:331,1,190,2|0,0:0|0:0,0:0:0:0:
324,288,115187,5,8,0:0:0:0:
416,316,115453,1,0,0:0:0:0:
392,224,115718,2,2,P|416:132|380:48,1,190,2|8,0:0|0:0,0:0:0:0:
288,32,116515,1,0,0:0:0:0:
196,52,116780,5,0,0:0:0:0:
116,107,117046,2,0,P|100:152|107:198,1,95,2|8,0:0|0:0,0:0:0:0:
156,280,117577,2,0,P|247:263|323:315,1,190,2|0,0:0|0:0,0:0:0:0:
400,376,118373,1,8,0:0:0:0:
468,312,118639,1,2,0:0:0:0:
468,312,119170,5,0,0:0:0:0:
408,236,119436,1,8,0:0:0:0:
484,176,119701,1,0,0:0:0:0:
399,131,119966,2,2,P|306:142|229:90,1,190,2|8,0:0|0:0,0:0:0:0:
144,52,120762,1,0,0:0:0:0:
124,40,120895,1,0,0:0:0:0:
104,28,121028,6,0,L|40:99,1,95,4|0,0:0|0:0,0:0:0:0:
16,192,121559,1,8,0:0:0:0:
40,284,121824,2,0,P|126:311|191:248,1,190,2|2,0:0|0:0,0:0:0:0:
240,168,122621,1,8,0:0:0:0:
300,92,122886,1,0,0:0:0:0:
340,180,123152,6,0,L|428:216,1,95,6|0,0:0|0:0,0:0:0:0:
436,312,123683,1,8,0:0:0:0:
436,312,123948,2,0,L|261:236,1,190,2|2,0:0|0:0,0:0:0:0:
172,268,124745,1,8,0:0:0:0:
68,108,125276,5,6,0:0:0:0:
132,36,125541,1,0,0:0:0:0:
196,108,125807,1,8,0:0:0:0:
196,108,126072,2,0,B|272:128|272:128|320:80|372:93,2,190,2|2|2,0:0|0:0|0:0,0:0:0:0:
128,176,127400,5,0,0:0:0:0:
124,272,127665,2,0,P|166:291|213:288,1,95,2|8,0:0|0:0,0:0:0:0:
388,272,128196,2,0,P|345:291|298:288,1,95,0|0,0:0|0:0,0:0:0:0:
184,196,128727,1,0,0:0:0:0:
328,196,128993,1,8,0:0:0:0:
256,76,129258,1,8,0:0:0:0:
256,76,129391,1,0,0:0:0:0:
256,76,129524,1,4,0:0:0:0:
84,192,138019,5,0,0:0:0:0:
188,300,138550,2,0,B|232:300|256:328|256:328|280:300|324:300,1,152,2|0,0:2|0:0,0:0:0:0:
428,192,139612,1,0,0:0:0:0:
324,83,140143,2,0,B|280:84|256:56|256:56|232:84|188:84,1,152,2|0,0:2|0:0,0:0:0:0:
120,220,141205,1,0,0:0:0:0:
256,288,141736,1,0,0:0:0:0:
392,220,142267,5,2,1:2:0:0:
392,220,142798,2,0,P|371:147|390:74,1,152
256,12,143860,1,0,0:0:0:0:
121,74,144391,2,0,P|140:147|119:220,1,152,2|0,0:2|0:0,0:0:0:0:
84,288,145187,1,0,0:0:0:0:
160,288,145453,2,0,P|232:267|305:286,1,152
488,336,146515,6,0,L|503:242,1,95
424,188,147046,2,0,L|408:281,1,95,2|0,0:2|0:0,0:0:0:0:
324,328,147577,1,0,0:0:0:0:
324,328,148108,1,0,0:0:0:0:
324,328,148639,6,0,P|277:319|231:330,1,95
136,336,149170,2,0,P|82:259|85:166,1,190,2|0,0:2|0:0,0:0:0:0:
85,166,150232,1,0,0:0:0:0:
196,12,150762,5,0,0:0:0:0:
256,88,151028,1,0,0:0:0:0:
316,12,151293,1,2,0:2:0:0:
256,88,151559,2,0,L|256:183,1,95
256,183,152355,1,0,0:0:0:0:
360,344,152886,6,0,L|406:355,2,47.5
272,304,153417,1,2,0:2:0:0:
208,376,153683,1,0,0:0:0:0:
176,288,153948,1,0,0:0:0:0:
176,288,154479,1,0,0:0:0:0:
140,100,155010,6,0,P|181:78|208:39,1,95,2|0,0:2|0:0,0:0:0:0:
303,39,155541,2,0,P|330:78|372:100,1,95,2|0,0:2|0:0,0:0:0:0:
428,176,156072,2,0,P|358:238|342:330,1,190,0|2,0:0|0:2,0:0:0:0:
256,368,156869,1,0,0:0:0:0:
169,330,157134,6,0,P|153:238|84:176,1,190,2|0,0:2|0:0,0:0:0:0:
4,124,157931,1,0,0:0:0:0:
64,52,158196,1,0,0:0:0:0:
64,52,158727,1,0,0:0:0:0:
248,100,159258,5,0,0:0:0:0:
248,100,159524,1,0,0:0:0:0:
396,36,159789,1,0,0:0:0:0:
396,36,160055,1,0,0:0:0:0:
380,196,160320,1,0,0:0:0:0:
380,196,160586,1,0,0:0:0:0:
248,100,160851,1,0,0:0:0:0:
248,100,161117,1,0,0:0:0:0:
116,192,161382,6,0,L|100:236,3,47.5
164,308,161913,2,0,L|180:264,3,47.5,0|0|0|0,0:0|0:0|0:0|0:0,0:0:0:0:
232,212,162444,6,0,B|300:200|332:240|332:240|391:222,1,170.999994781494,2|0,0:0|0:0,0:0:0:0:
448,148,163506,5,4,0:0:0:0:
352,144,163771,2,0,P|310:122|287:81,1,95,0|8,0:0|0:0,0:0:0:0:
212,23,164302,2,0,P|143:88|51:98,1,190,2|0,0:0|0:0,0:0:0:0:
28,192,165099,1,8,0:0:0:0:
51,285,165364,2,0,P|143:295|212:360,1,190,2|0,0:0|0:0,0:0:0:0:
308,372,166161,2,0,L|397:340,1,95,8|0,0:0|0:0,0:0:0:0:
444,260,166692,2,10,P|415:170|434:78,1,190,2|8,0:0|0:0,0:0:0:0:
500,8,167488,1,0,0:0:0:0:
404,12,167754,6,0,L|309:19,1,95
232,76,168285,1,8,0:0:0:0:
156,132,168550,2,0,P|176:224|164:318,1,190,2|0,0:0|0:0,0:0:0:0:
256,348,169347,1,8,0:0:0:0:
347,318,169612,2,0,P|335:224|356:132,1,190,2|0,0:0|0:0,0:0:0:0:
432,76,170409,1,8,0:0:0:0:
432,76,170674,1,0,0:0:0:0:
344,40,170939,2,2,B|280:28|228:56|228:56|163:25,1,190,2|8,0:0|0:0,0:0:0:0:
72,52,171736,1,0,0:0:0:0:
55,68,171869,1,0,0:0:0:0:
38,84,172001,6,0,L|120:130,1,95,4|0,0:0|0:0,0:0:0:0:
188,197,172532,1,8,0:0:0:0:
255,264,172798,2,0,B|303:240|350:263|350:263|391:284|437:256,1,190,2|2,0:0|0:0,0:0:0:0:
388,176,173594,2,0,L|407:82,1,95,8|0,0:0|0:0,0:0:0:0:
320,44,174125,6,0,L|300:137,1,95,6|0,0:0|0:0,0:0:0:0:
208,156,174656,1,8,0:0:0:0:
111,159,174922,2,0,P|158:238|249:245,1,190,2|2,0:0|0:0,0:0:0:0:
344,236,175718,1,8,0:0:0:0:
344,236,176249,5,6,0:0:0:0:
400,312,176515,1,0,0:0:0:0:
307,335,176780,1,8,0:0:0:0:
307,335,177046,2,0,P|216:315|131:353,2,190,2|2|2,0:0|0:0|0:0,0:0:0:0:
396,372,178373,5,0,0:0:0:0:
440,288,178639,2,0,P|427:242|434:195,1,95,0|8,0:0|0:0,0:0:0:0:
424,100,179170,1,0,0:0:0:0:
399,97,179302,1,8,0:0:0:0:
375,95,179435,1,0,0:0:0:0:
304,32,179701,1,0,0:0:0:0:
208,32,179966,1,8,0:0:0:0:
137,95,180232,1,8,0:0:0:0:
113,97,180365,1,0,0:0:0:0:
88,100,180497,5,4,0:0:0:0:
32,176,180762,1,0,0:0:0:0:
8,268,181028,1,8,0:0:0:0:
32,360,181293,2,0,B|88:344|156:376|156:376|213:349,1,190,2|0,0:0|0:0,0:0:0:0:
256,264,182090,1,8,0:0:0:0:
298,349,182355,2,0,B|356:376|356:376|424:344|480:360,1,190,2|0,0:0|0:0,0:0:0:0:
504,268,183152,1,8,0:0:0:0:
480,176,183418,1,0,0:0:0:0:
424,99,183683,2,2,P|356:120|288:104,1,142.5,2|0,0:0|0:0,0:0:0:0:
244,48,184214,2,0,P|197:39|152:52,1,95,8|0,0:0|0:0,0:0:0:0:
128,144,184745,5,0,0:0:0:0:
43,105,185010,2,0,L|40:200,1,95,0|8,0:0|0:0,0:0:0:0:
0,288,185541,2,0,B|42:307|88:296|116:260|116:260|173:279,1,190,2|0,0:0|0:0,0:0:0:0:
256,328,186338,1,8,0:0:0:0:
338,279,186603,2,0,B|396:260|396:260|424:296|469:307|512:288,1,190,2|0,0:0|0:0,0:0:0:0:
471,198,187400,2,0,L|468:104,1,95,8|0,0:0|0:0,0:0:0:0:
428,15,187931,2,2,P|343:56|252:35,1,190,2|8,0:0|0:0,0:0:0:0:
64,60,188993,5,6,0:0:0:0:
12,140,189258,1,0,0:0:0:0:
60,224,189524,1,8,0:0:0:0:
115,305,189789,2,0,P|155:223|114:141,1,190,2|2,0:0|0:0,0:0:0:0:
64,60,190586,1,8,0:0:0:0:
64,60,191116,6,0,L|160:48,1,95,2|0,0:0|0:0,0:0:0:0:
228,116,191647,1,8,0:0:0:0:
228,116,191913,2,0,L|416:88,1,190,2|2,0:0|0:0,0:0:0:0:
480,160,192709,1,8,0:0:0:0:
480,160,193240,5,2,0:0:0:0:
500,252,193506,1,0,0:0:0:0:
428,312,193771,1,8,0:0:0:0:
344,360,194037,2,0,P|339:269|413:216,2,190,2|2|2,0:0|0:0|0:0,0:0:0:0:
248,368,195364,5,0,0:0:0:0:
152,380,195630,1,2,0:0:0:0:
79,316,195895,2,0,P|92:246|71:179,1,142.5,8|8,0:0|0:3,0:0:0:0:
12,140,196426,2,0,L|103:115,1,95,8|0,0:3|0:0,0:0:0:0:
172,48,196957,1,8,0:0:0:0:
256,92,197223,1,8,0:0:0:0:
256,92,197355,1,0,0:0:0:0:
256,92,197488,1,4,0:0:0:0:
